  0
SECTION
  2
HEADER
  9
$ACADVER
  1
AC1024
  9
$ACADMAINTVER
 70
   157
  9
$DWGCODEPAGE
  3
ANSI_1252
  9
$LASTSAVEDBY
  1
PW003
  9
$INSBASE
 10
0.0
 20
0.0
 30
0.0
  9
$EXTMIN
 10
411.7502062686233
 20
-56.98699684112594
 30
0.0
  9
$EXTMAX
 10
997.528682659543
 20
346.238503158874
 30
0.0
  9
$LIMMIN
 10
0.0
 20
0.0
  9
$LIMMAX
 10
12.0
 20
9.0
  9
$ORTHOMODE
 70
     1
  9
$REGENMODE
 70
     1
  9
$FILLMODE
 70
     1
  9
$QTEXTMODE
 70
     0
  9
$MIRRTEXT
 70
     0
  9
$LTSCALE
 40
25.0
  9
$ATTMODE
 70
     1
  9
$TEXTSIZE
 40
5.0
  9
$TRACEWID
 40
0.05
  9
$TEXTSTYLE
  7
STANDARD
  9
$CLAYER
  8
DIM
  9
$CELTYPE
  6
BYLAYER
  9
$CECOLOR
 62
   256
  9
$CELTSCALE
 40
1.0
  9
$DISPSILH
 70
     0
  9
$DIMSCALE
 40
1.0
  9
$DIMASZ
 40
15.0
  9
$DIMEXO
 40
0.0625
  9
$DIMDLI
 40
0.38
  9
$DIMRND
 40
0.0
  9
$DIMDLE
 40
0.0
  9
$DIMEXE
 40
0.18
  9
$DIMTP
 40
0.0
  9
$DIMTM
 40
0.0
  9
$DIMTXT
 40
25.0
  9
$DIMCEN
 40
0.09
  9
$DIMTSZ
 40
0.0
  9
$DIMTOL
 70
     0
  9
$DIMLIM
 70
     0
  9
$DIMTIH
 70
     1
  9
$DIMTOH
 70
     1
  9
$DIMSE1
 70
     0
  9
$DIMSE2
 70
     0
  9
$DIMTAD
 70
     0
  9
$DIMZIN
 70
     0
  9
$DIMBLK
  1

  9
$DIMASO
 70
     1
  9
$DIMSHO
 70
     1
  9
$DIMPOST
  1

  9
$DIMAPOST
  1

  9
$DIMALT
 70
     0
  9
$DIMALTD
 70
     2
  9
$DIMALTF
 40
25.4
  9
$DIMLFAC
 40
1.0
  9
$DIMTOFL
 70
     0
  9
$DIMTVP
 40
0.0
  9
$DIMTIX
 70
     0
  9
$DIMSOXD
 70
     0
  9
$DIMSAH
 70
     0
  9
$DIMBLK1
  1

  9
$DIMBLK2
  1

  9
$DIMSTYLE
  2
STANDARD
  9
$DIMCLRD
 70
     0
  9
$DIMCLRE
 70
     0
  9
$DIMCLRT
 70
     1
  9
$DIMTFAC
 40
1.0
  9
$DIMGAP
 40
0.09
  9
$DIMJUST
 70
     0
  9
$DIMSD1
 70
     0
  9
$DIMSD2
 70
     0
  9
$DIMTOLJ
 70
     1
  9
$DIMTZIN
 70
     0
  9
$DIMALTZ
 70
     0
  9
$DIMALTTZ
 70
     0
  9
$DIMUPT
 70
     0
  9
$DIMDEC
 70
     2
  9
$DIMTDEC
 70
     2
  9
$DIMALTU
 70
     2
  9
$DIMALTTD
 70
     2
  9
$DIMTXSTY
  7
STANDARD
  9
$DIMAUNIT
 70
     0
  9
$DIMADEC
 70
     0
  9
$DIMALTRND
 40
0.0
  9
$DIMAZIN
 70
     0
  9
$DIMDSEP
 70
    46
  9
$DIMATFIT
 70
     3
  9
$DIMFRAC
 70
     0
  9
$DIMLDRBLK
  1

  9
$DIMLUNIT
 70
     2
  9
$DIMLWD
 70
    -2
  9
$DIMLWE
 70
    -2
  9
$DIMTMOVE
 70
     0
  9
$DIMFXL
 40
1.0
  9
$DIMFXLON
 70
     0
  9
$DIMJOGANG
 40
0.7853981633974483
  9
$DIMTFILL
 70
     0
  9
$DIMTFILLCLR
 70
     0
  9
$DIMARCSYM
 70
     0
  9
$DIMLTYPE
  6

  9
$DIMLTEX1
  6

  9
$DIMLTEX2
  6

  9
$DIMTXTDIRECTION
 70
     0
  9
$LUNITS
 70
     2
  9
$LUPREC
 70
     4
  9
$SKETCHINC
 40
0.1
  9
$FILLETRAD
 40
5.0
  9
$AUNITS
 70
     0
  9
$AUPREC
 70
     0
  9
$MENU
  1
acad
  9
$ELEVATION
 40
0.0
  9
$PELEVATION
 40
0.0
  9
$THICKNESS
 40
0.4
  9
$LIMCHECK
 70
     0
  9
$CHAMFERA
 40
0.5
  9
$CHAMFERB
 40
0.5
  9
$CHAMFERC
 40
1.0
  9
$CHAMFERD
 40
0.0
  9
$SKPOLY
 70
     0
  9
$TDCREATE
 40
2451093.087950000
  9
$TDUCREATE
 40
2451093.337950000
  9
$TDUPDATE
 40
2457415.467391979
  9
$TDUUPDATE
 40
2457415.717391979
  9
$TDINDWG
 40
5.8958215394
  9
$TDUSRTIMER
 40
5.8958215394
  9
$USRTIMER
 70
     1
  9
$ANGBASE
 50
0.0
  9
$ANGDIR
 70
     0
  9
$PDMODE
 70
     3
  9
$PDSIZE
 40
0.0
  9
$PLINEWID
 40
0.0
  9
$SPLFRAME
 70
     0
  9
$SPLINETYPE
 70
     6
  9
$SPLINESEGS
 70
     8
  9
$HANDSEED
  5
DE4A
  9
$SURFTAB1
 70
     6
  9
$SURFTAB2
 70
     6
  9
$SURFTYPE
 70
     6
  9
$SURFU
 70
     6
  9
$SURFV
 70
     6
  9
$UCSBASE
  2

  9
$UCSNAME
  2

  9
$UCSORG
 10
0.0
 20
0.0
 30
0.0
  9
$UCSXDIR
 10
1.0
 20
0.0
 30
0.0
  9
$UCSYDIR
 10
0.0
 20
1.0
 30
0.0
  9
$UCSORTHOREF
  2

  9
$UCSORTHOVIEW
 70
     0
  9
$UCSORGTOP
 10
0.0
 20
0.0
 30
0.0
  9
$UCSORGBOTTOM
 10
0.0
 20
0.0
 30
0.0
  9
$UCSORGLEFT
 10
0.0
 20
0.0
 30
0.0
  9
$UCSORGRIGHT
 10
0.0
 20
0.0
 30
0.0
  9
$UCSORGFRONT
 10
0.0
 20
0.0
 30
0.0
  9
$UCSORGBACK
 10
0.0
 20
0.0
 30
0.0
  9
$PUCSBASE
  2

  9
$PUCSNAME
  2

  9
$PUCSORG
 10
0.0
 20
0.0
 30
0.0
  9
$PUCSXDIR
 10
1.0
 20
0.0
 30
0.0
  9
$PUCSYDIR
 10
0.0
 20
1.0
 30
0.0
  9
$PUCSORTHOREF
  2

  9
$PUCSORTHOVIEW
 70
     0
  9
$PUCSORGTOP
 10
0.0
 20
0.0
 30
0.0
  9
$PUCSORGBOTTOM
 10
0.0
 20
0.0
 30
0.0
  9
$PUCSORGLEFT
 10
0.0
 20
0.0
 30
0.0
  9
$PUCSORGRIGHT
 10
0.0
 20
0.0
 30
0.0
  9
$PUCSORGFRONT
 10
0.0
 20
0.0
 30
0.0
  9
$PUCSORGBACK
 10
0.0
 20
0.0
 30
0.0
  9
$USERI1
 70
     0
  9
$USERI2
 70
     0
  9
$USERI3
 70
     0
  9
$USERI4
 70
     0
  9
$USERI5
 70
     0
  9
$USERR1
 40
0.0
  9
$USERR2
 40
0.0
  9
$USERR3
 40
0.0
  9
$USERR4
 40
0.0
  9
$USERR5
 40
0.0
  9
$WORLDVIEW
 70
     1
  9
$SHADEDGE
 70
     3
  9
$SHADEDIF
 70
    70
  9
$TILEMODE
 70
     1
  9
$MAXACTVP
 70
    48
  9
$PINSBASE
 10
0.0
 20
0.0
 30
0.0
  9
$PLIMCHECK
 70
     0
  9
$PEXTMIN
 10
0.0
 20
0.0
 30
0.0
  9
$PEXTMAX
 10
826.0
 20
559.4330351521971
 30
0.4
  9
$PLIMMIN
 10
-20.9358341809365
 20
-27.03916549822349
  9
$PLIMMAX
 10
846.8962310435632
 20
586.4795287829195
  9
$UNITMODE
 70
     0
  9
$VISRETAIN
 70
     1
  9
$PLINEGEN
 70
     0
  9
$PSLTSCALE
 70
     1
  9
$TREEDEPTH
 70
  3020
  9
$CMLSTYLE
  2
STANDARD
  9
$CMLJUST
 70
     0
  9
$CMLSCALE
 40
1.0
  9
$PROXYGRAPHICS
 70
     1
  9
$MEASUREMENT
 70
     0
  9
$CELWEIGHT
370
    -1
  9
$ENDCAPS
280
     0
  9
$JOINSTYLE
280
     0
  9
$LWDISPLAY
290
     0
  9
$INSUNITS
 70
     0
  9
$HYPERLINKBASE
  1

  9
$STYLESHEET
  1
Carron Phoenix.ctb
  9
$XEDIT
290
     1
  9
$CEPSNTYPE
380
     0
  9
$PSTYLEMODE
290
     1
  9
$FINGERPRINTGUID
  2
{5823CA6D-C734-11D3-94EF-0060B0FBE80E}
  9
$VERSIONGUID
  2
{4C55EBFA-3A50-4CCF-A6F7-80124C49BC60}
  9
$EXTNAMES
290
     1
  9
$PSVPSCALE
 40
0.0
  9
$OLESTARTUP
290
     0
  9
$SORTENTS
280
    96
  9
$INDEXCTL
280
     0
  9
$HIDETEXT
280
     0
  9
$XCLIPFRAME
280
     0
  9
$HALOGAP
280
     0
  9
$OBSCOLOR
 70
   257
  9
$OBSLTYPE
280
     0
  9
$INTERSECTIONDISPLAY
280
     0
  9
$INTERSECTIONCOLOR
 70
   257
  9
$DIMASSOC
280
     1
  9
$PROJECTNAME
  1

  9
$CAMERADISPLAY
290
     0
  9
$LENSLENGTH
 40
50.0
  9
$CAMERAHEIGHT
 40
0.0
  9
$STEPSPERSEC
 40
2.0
  9
$STEPSIZE
 40
6.0
  9
$3DDWFPREC
 40
2.0
  9
$PSOLWIDTH
 40
0.25
  9
$PSOLHEIGHT
 40
4.0
  9
$LOFTANG1
 40
1.570796326794896
  9
$LOFTANG2
 40
1.570796326794896
  9
$LOFTMAG1
 40
0.0
  9
$LOFTMAG2
 40
0.0
  9
$LOFTPARAM
 70
     7
  9
$LOFTNORMALS
280
     1
  9
$LATITUDE
 40
37.795
  9
$LONGITUDE
 40
-122.394
  9
$NORTHDIRECTION
 40
0.0
  9
$TIMEZONE
 70
 -8000
  9
$LIGHTGLYPHDISPLAY
280
     1
  9
$TILEMODELIGHTSYNCH
280
     1
  9
$CMATERIAL
347
CD24
  9
$SOLIDHIST
280
     0
  9
$SHOWHIST
280
     1
  9
$DWFFRAME
280
     2
  9
$DGNFRAME
280
     0
  9
$REALWORLDSCALE
290
     1
  9
$INTERFERECOLOR
 62
     1
  9
$INTERFEREOBJVS
345
CD46
  9
$INTERFEREVPVS
346
CE2B
  9
$CSHADOW
280
     0
  9
$SHADOWPLANELOCATION
 40
0.0
  0
ENDSEC
  0
SECTION
  2
CLASSES
  0
CLASS
  1
DICTIONARYVAR
  2
AcDbDictionaryVar
  3
ObjectDBX Classes
 90
        0
 91
       11
280
     0
281
     0
  0
CLASS
  1
ACDBDICTIONARYWDFLT
  2
AcDbDictionaryWithDefault
  3
ObjectDBX Classes
 90
        0
 91
        1
280
     0
281
     0
  0
CLASS
  1
TABLESTYLE
  2
AcDbTableStyle
  3
ObjectDBX Classes
 90
     4095
 91
        1
280
     0
281
     0
  0
CLASS
  1
MATERIAL
  2
AcDbMaterial
  3
ObjectDBX Classes
 90
     1153
 91
        3
280
     0
281
     0
  0
CLASS
  1
VISUALSTYLE
  2
AcDbVisualStyle
  3
ObjectDBX Classes
 90
     4095
 91
       26
280
     0
281
     0
  0
CLASS
  1
SCALE
  2
AcDbScale
  3
ObjectDBX Classes
 90
     1153
 91
       33
280
     0
281
     0
  0
CLASS
  1
MLEADERSTYLE
  2
AcDbMLeaderStyle
  3
ACDB_MLEADERSTYLE_CLASS
 90
     4095
 91
        1
280
     0
281
     0
  0
CLASS
  1
CELLSTYLEMAP
  2
AcDbCellStyleMap
  3
ObjectDBX Classes
 90
     1152
 91
        1
280
     0
281
     0
  0
CLASS
  1
ACDBSECTIONVIEWSTYLE
  2
AcDbSectionViewStyle
  3
ObjectDBX Classes
 90
     1025
 91
        4
280
     0
281
     0
  0
CLASS
  1
ACDBDETAILVIEWSTYLE
  2
AcDbDetailViewStyle
  3
ObjectDBX Classes
 90
     1025
 91
        4
280
     0
281
     0
  0
CLASS
  1
SORTENTSTABLE
  2
AcDbSortentsTable
  3
ObjectDBX Classes
 90
        0
 91
        3
280
     0
281
     0
  0
CLASS
  1
ACME_DOCUMENT
  2
AcMeDbDoc
  3
AcMeServices
 90
     1024
 91
        2
280
     0
281
     0
  0
CLASS
  1
ACMESCOPE
  2
AcMeScope
  3
AcMeServices
 90
     1024
 91
        1
280
     0
281
     0
  0
CLASS
  1
ACMECOMMANDHISTORY
  2
AcMeCommandHistory
  3
AcMeServices
 90
     1024
 91
        1
280
     0
281
     0
  0
CLASS
  1
ACIMSYSVARMAN
  2
AcImSysVarManager
  3
AcMeServices
 90
     1024
 91
        3
280
     0
281
     0
  0
CLASS
  1
ACIMINTSYSVAR
  2
AcImIntSysVar
  3
AcMeServices
 90
     1024
 91
        3
280
     0
281
     0
  0
CLASS
  1
ACMESTATEMGR
  2
AcMeStateMgr
  3
AcMeServices
 90
     1024
 91
        1
280
     0
281
     0
  0
CLASS
  1
ACDBENTITYCACHE
  2
AcMeEntityCache
  3
AcMeServices
 90
     1024
 91
        1
280
     0
281
     0
  0
CLASS
  1
ACGREFMASTER
  2
AcGrefMaster
  3
AcAttribServices
 90
     1024
 91
        1
280
     0
281
     0
  0
CLASS
  1
ACME_DATABASE
  2
AcMeDbDatabase
  3
AcMeServices
 90
     1024
 91
        2
280
     0
281
     0
  0
CLASS
  1
ACRFINSADJUSTERMGR
  2
AcRfInsAdjusterMgr
  3
AcMeServices
 90
     1024
 91
        1
280
     0
281
     0
  0
CLASS
  1
ACGREFACADMASTER
  2
AcGrefacadMaster
  3
AcGrefServices
 90
     1024
 91
        1
280
     0
281
     0
  0
CLASS
  1
AMDTMENUSTATEMGR
  2
AmdtMenuStateMgr
  3
McadcomServices
 90
     1024
 91
        1
280
     0
281
     0
  0
CLASS
  1
AMDTMCOMMENUSTATE
  2
AmdtMcomMenuState
  3
McadcomServices
 90
     1024
 91
        1
280
     0
281
     0
  0
CLASS
  1
AMIMASTER
  2
AmiMaster
  3
AmiServices
 90
     1024
 91
        1
280
     0
281
     0
  0
CLASS
  1
AMGSETTINGSOBJ
  2
AmgSettingsObj
  3
"AcadM|Product Description: AutoCAD Mechanical|Company: Autodesk, Inc."
 90
     1024
 91
        2
280
     0
281
     0
  0
CLASS
  1
MAPIAMMOUDLE
  2
MApiAmModule
  3
MApiAmServices
 90
     1024
 91
        1
280
     0
281
     0
  0
CLASS
  1
ACIMSTRSYSVAR
  2
AcImStrSysVar
  3
AcMeServices
 90
     1024
 91
        5
280
     0
281
     0
  0
CLASS
  1
AMDTAMMENUSTATE
  2
AmdtAmMenuState
  3
DesignerAssemblies
 90
     1024
 91
        1
280
     0
281
     0
  0
CLASS
  1
ACAMPROJECT
  2
AcAmProject
  3
DesignerAssemblies
 90
     1024
 91
        1
280
     0
281
     0
  0
CLASS
  1
ACAMGRCOMPDEF
  2
AcAmGrCompDef
  3
DesignerAssemblies
 90
     1024
 91
        1
280
     0
281
     0
  0
CLASS
  1
ACAMCOMPDEF
  2
AcAmCompDef
  3
DesignerAssemblies
 90
     1024
 91
        1
280
     0
281
     0
  0
CLASS
  1
ACAMCOMPDEFMGR
  2
AcAmCompDefMgr
  3
DesignerAssemblies
 90
     1024
 91
        1
280
     0
281
     0
  0
CLASS
  1
AMCONTEXTMGR
  2
AcAmContextMgr
  3
DesignerAssemblies
 90
     1024
 91
        1
280
     0
281
     0
  0
CLASS
  1
ACAMCONTEXTMODELER
  2
AcAmContextModeler
  3
DesignerAssemblies
 90
     1024
 91
        1
280
     0
281
     0
  0
CLASS
  1
ACMDATADICTIONARY
  2
AcmDataDictionary
  3
"AcmSymBB|Product Description: AutoCAD Mechanical|Company: Autodesk, Inc."
 90
     1024
 91
        1
280
     0
281
     0
  0
CLASS
  1
ACAMGRCOMPDEFSET
  2
AcAmGrCompDefSet
  3
DesignerAssemblies
 90
     1024
 91
        1
280
     0
281
     0
  0
CLASS
  1
AMDTBROWSERDBTAB
  2
AmdtBrowserDbTab
  3
McadcomServices
 90
     1024
 91
        1
280
     0
281
     0
  0
CLASS
  1
CBROWSERAPPOBJECT
  2
CBrowserAppObject
  3
McadcomServices
 90
     1024
 91
        2
280
     0
281
     0
  0
CLASS
  1
DM_PLACEHOLDER
  2
AcDmSelsetPlaceholder
  3
McadcomServices
 90
     1024
 91
        1
280
     0
281
     0
  0
CLASS
  1
ACMSTANDARDANSI
  2
AcmStandardANSI
  3
"Amdt_StdImp|Product Description: AutoCAD Mechanical|Company: Autodesk, Inc."
 90
     1024
 91
        1
280
     0
281
     0
  0
CLASS
  1
ACMSURFSTANDARDANSI
  2
AcmSurfTextStdANSI
  3
"Amdt_StdImp|Product Description: AutoCAD Mechanical|Company: Autodesk, Inc."
 90
     1024
 91
        1
280
     0
281
     0
  0
CLASS
  1
ACMFCFSTANDARDANSI
  2
AcmFCFStdANSI
  3
"Amdt_StdImp|Product Description: AutoCAD Mechanical|Company: Autodesk, Inc."
 90
     1024
 91
        1
280
     0
281
     0
  0
CLASS
  1
ACMWELDSTANDARDANSI
  2
AcmWeldingStdANSI
  3
"Amdt_StdImp|Product Description: AutoCAD Mechanical|Company: Autodesk, Inc."
 90
     1024
 91
        1
280
     0
281
     0
  0
CLASS
  1
ACMIDSTANDARDANSI
  2
AcmIdStdANSI
  3
"Amdt_StdImp|Product Description: AutoCAD Mechanical|Company: Autodesk, Inc."
 90
     1024
 91
        1
280
     0
281
     0
  0
CLASS
  1
ACMDATUMSTANDARDANSI
  2
AcmDatumStdANSI
  3
"Amdt_StdImp|Product Description: AutoCAD Mechanical|Company: Autodesk, Inc."
 90
     1024
 91
        1
280
     0
281
     0
  0
CLASS
  1
ACMBOMSTANDARDANSI
  2
AcmBOMStdANSI
  3
"Amdt_StdImp|Product Description: AutoCAD Mechanical|Company: Autodesk, Inc."
 90
     1024
 91
        1
280
     0
281
     0
  0
CLASS
  1
ACMDETAILSTANDARDANSI
  2
AmdtDetailSymStdANSI
  3
"Amdt_StdImp|Product Description: AutoCAD Mechanical|Company: Autodesk, Inc."
 90
     1024
 91
        1
280
     0
281
     0
  0
CLASS
  1
ACMSECTIONSTANDARDANSI
  2
AmdtSectionSymStdANSI
  3
"Amdt_StdImp|Product Description: AutoCAD Mechanical|Company: Autodesk, Inc."
 90
     1024
 91
        1
280
     0
281
     0
  0
CLASS
  1
ACMCENTERLINESTANDARDANSI
  2
AmdtCenterLineStdANSI
  3
"Amdt_StdImp|Product Description: AutoCAD Mechanical|Company: Autodesk, Inc."
 90
     1024
 91
        1
280
     0
281
     0
  0
CLASS
  1
ACMTHREADLINESTANDARDANSI
  2
AmdtThreadLineStdANSI
  3
"Amdt_StdImp|Product Description: AutoCAD Mechanical|Company: Autodesk, Inc."
 90
     1024
 91
        1
280
     0
281
     0
  0
CLASS
  1
ACMNOTESTANDARDANSI
  2
AmdtNoteStdANSI
  3
"Amdt_StdImp|Product Description: AutoCAD Mechanical|Company: Autodesk, Inc."
 90
     1024
 91
        1
280
     0
281
     0
  0
CLASS
  1
ACMTAPERSTANDARDANSI
  2
AcmTaperStdANSI
  3
"Amdt_StdImp|Product Description: AutoCAD Mechanical|Company: Autodesk, Inc."
 90
     1024
 91
        1
280
     0
281
     0
  0
CLASS
  1
ACMANOOTATIONVIEWSTANDARDANSI
  2
AmdtAnViewStdANSI
  3
"Amdt_StdImp|Product Description: AutoCAD Mechanical|Company: Autodesk, Inc."
 90
     1024
 91
        1
280
     0
281
     0
  0
CLASS
  1
ACAMGLAYSTD
  2
AcAmgLayStd
  3
"AmgLay|Product Description: AutoCAD Mechanical|Company: Autodesk, Inc."
 90
     1024
 91
        2
280
     0
281
     0
  0
CLASS
  1
ACAMGDIMSTD
  2
AcAmgDimStd
  3
"AmgDim|Product Description: AutoCAD Mechanical|Company: Autodesk, Inc."
 90
     1024
 91
        2
280
     0
281
     0
  0
CLASS
  1
AMGOBJPROPCFG
  2
AmgObjPropCfg
  3
"AmgLay|Product Description: AutoCAD Mechanical|Company: Autodesk, Inc."
 90
     1024
 91
        1
280
     0
281
     0
  0
CLASS
  1
ACAMGHOLECHARTSTDANSI
  2
AcAmgHoleChartStdANSI
  3
AmgDim|Product Description: AutoCAD Mechanical|Company: Autodesk, Inc.
 90
     1024
 91
        1
280
     0
281
     0
  0
CLASS
  1
ACAMGTITLESTD
  2
AcAmgTitleStd
  3
"AmgTitle|Product Description: AutoCAD Mechanical|Company: Autodesk, Inc."
 90
     1024
 91
        2
280
     0
281
     0
  0
CLASS
  1
ACMSECTIONSTANDARDCUSTOM
  2
AmdtSectionSymStdCustom
  3
"Amdt_StdImp|Product Description: AutoCAD Mechanical|Company: Autodesk, Inc."
 90
     1024
 91
        4
280
     0
281
     0
  0
CLASS
  1
ACMDETAILTANDARDCUSTOM
  2
AmdtDetailSymStdCustom
  3
"Amdt_StdImp|Product Description: AutoCAD Mechanical|Company: Autodesk, Inc."
 90
     1024
 91
        4
280
     0
281
     0
  0
CLASS
  1
FIELD
  2
AcDbField
  3
ObjectDBX Classes
 90
     1152
 91
        7
280
     0
281
     0
  0
CLASS
  1
FIELDLIST
  2
AcDbFieldList
  3
ObjectDBX Classes
 90
     1152
 91
        1
280
     0
281
     0
  0
CLASS
  1
AMDTNOTETEMPLATEDB
  2
AmdtNoteTemplateDB
  3
AcmSymBB|Product Description: AutoCAD Mechanical|Company: Autodesk, Inc.
 90
     1024
 91
       14
280
     0
281
     0
  0
CLASS
  1
EXACXREFPANELOBJECT
  2
ExAcXREFPanelObject
  3
EXAC_ESW
 90
     1025
 91
        2
280
     0
281
     0
  0
CLASS
  1
NPOCOLLECTION
  2
AcDbImpNonPersistentObjectsCollection
  3
ObjectDBX Classes
 90
     1153
 91
        1
280
     0
281
     0
  0
CLASS
  1
ACAMGFILTERDAT
  2
AcAmgFilterDat
  3
"AcadM|Product Description: AutoCAD Mechanical|Company: Autodesk, Inc."
 90
     1024
 91
        6
280
     0
281
     0
  0
CLASS
  1
CAMSSTRUCTBTNSTATE
  2
StructBtnState
  3
DesignerAssemblies
 90
     1024
 91
        1
280
     0
281
     0
  0
CLASS
  1
ACMSTANDARDISO
  2
AcmStandardISO
  3
"Amdt_StdImp|Product Description: AutoCAD Mechanical|Company: Autodesk, Inc."
 90
     1024
 91
        1
280
     0
281
     0
  0
CLASS
  1
AMDTEDGESTANDARDISO13715
  2
AmdtEdgeStdISO13715
  3
"Amdt_StdImp|Product Description: AutoCAD Mechanical|Company: Autodesk, Inc."
 90
     1024
 91
        1
280
     0
281
     0
  0
CLASS
  1
ACMSURFSTANDARDISO2002
  2
AcmSurfTextStdISO2002
  3
"Amdt_StdImp|Product Description: AutoCAD Mechanical|Company: Autodesk, Inc."
 90
     1024
 91
        1
280
     0
281
     0
  0
CLASS
  1
ACMFCFSTANDARDISO2004
  2
AcmFCFStdISO2004
  3
"Amdt_StdImp|Product Description: AutoCAD Mechanical|Company: Autodesk, Inc."
 90
     1024
 91
        1
280
     0
281
     0
  0
CLASS
  1
ACMWELDSTANDARDISO
  2
AcmWeldingStdISO
  3
"Amdt_StdImp|Product Description: AutoCAD Mechanical|Company: Autodesk, Inc."
 90
     1024
 91
        1
280
     0
281
     0
  0
CLASS
  1
ACMIDSTANDARDISO2004
  2
AcmIdStdISO2004
  3
"Amdt_StdImp|Product Description: AutoCAD Mechanical|Company: Autodesk, Inc."
 90
     1024
 91
        1
280
     0
281
     0
  0
CLASS
  1
ACMDATUMSTANDARDISO
  2
AcmDatumStdISO
  3
"Amdt_StdImp|Product Description: AutoCAD Mechanical|Company: Autodesk, Inc."
 90
     1024
 91
        1
280
     0
281
     0
  0
CLASS
  1
ACMBOMSTANDARDISO
  2
AcmBOMStdISO
  3
"Amdt_StdImp|Product Description: AutoCAD Mechanical|Company: Autodesk, Inc."
 90
     1024
 91
        1
280
     0
281
     0
  0
CLASS
  1
ACMDETAILSTANDARDISO
  2
AmdtDetailSymStdISO
  3
"Amdt_StdImp|Product Description: AutoCAD Mechanical|Company: Autodesk, Inc."
 90
     1024
 91
        1
280
     0
281
     0
  0
CLASS
  1
ACMSECTIONSTANDARDISO2001
  2
AmdtSectionSymStdISO2001
  3
"Amdt_StdImp|Product Description: AutoCAD Mechanical|Company: Autodesk, Inc."
 90
     1024
 91
        1
280
     0
281
     0
  0
CLASS
  1
ACMCENTERLINESTANDARDISO
  2
AmdtCenterLineStdISO
  3
"Amdt_StdImp|Product Description: AutoCAD Mechanical|Company: Autodesk, Inc."
 90
     1024
 91
        1
280
     0
281
     0
  0
CLASS
  1
ACMTHREADLINESTANDARDISO
  2
AmdtThreadLineStdISO
  3
"Amdt_StdImp|Product Description: AutoCAD Mechanical|Company: Autodesk, Inc."
 90
     1024
 91
        1
280
     0
281
     0
  0
CLASS
  1
ACMNOTESTANDARDISO
  2
AmdtNoteStdISO
  3
"Amdt_StdImp|Product Description: AutoCAD Mechanical|Company: Autodesk, Inc."
 90
     1024
 91
        1
280
     0
281
     0
  0
CLASS
  1
ACMTAPERSTANDARDISO
  2
AcmTaperStdISO
  3
"Amdt_StdImp|Product Description: AutoCAD Mechanical|Company: Autodesk, Inc."
 90
     1024
 91
        1
280
     0
281
     0
  0
CLASS
  1
ACMANOOTATIONVIEWSTANDARDISO
  2
AmdtAnViewStdISO
  3
"Amdt_StdImp|Product Description: AutoCAD Mechanical|Company: Autodesk, Inc."
 90
     1024
 91
        1
280
     0
281
     0
  0
CLASS
  1
ACAMGHOLECHARTSTDISO
  2
AcAmgHoleChartStdISO
  3
AmgDim|Product Description: AutoCAD Mechanical|Company: Autodesk, Inc.
 90
     1024
 91
        1
280
     0
281
     0
  0
ENDSEC
  0
SECTION
  2
TABLES
  0
TABLE
  2
VPORT
  5
8
102
{ACAD_XDICTIONARY
360
CDA0
102
}
330
0
100
AcDbSymbolTable
 70
     1
  0
VPORT
  5
CCC7
330
8
100
AcDbSymbolTableRecord
100
AcDbViewportTableRecord
  2
*Active
 70
     0
 10
0.0
 20
0.0
 11
1.0
 21
1.0
 12
543.6453162856744
 22
135.5902173218676
 13
0.0
 23
0.0
 14
0.5
 24
0.5
 15
0.5
 25
0.5
 16
0.0
 26
0.0
 36
1.0
 17
0.0
 27
0.0
 37
0.0
 40
573.4161177567379
 41
1.746906636670416
 42
50.0
 43
0.0
 44
0.0
 50
0.0
 51
0.0
 71
     0
 72
   100
 73
     1
 74
     1
 75
     0
 76
     0
 77
     0
 78
     0
281
     0
 65
     0
110
0.0
120
0.0
130
0.0
111
1.0
121
0.0
131
0.0
112
0.0
122
1.0
132
0.0
 79
     0
146
0.0
348
CD42
 60
     3
 61
     5
292
     1
282
     1
141
0.0
142
0.0
 63
   250
421
  3355443
1001
ACAD_NAV_VCDISPLAY
1070
     3
  0
ENDTAB
  0
TABLE
  2
LTYPE
  5
5
330
0
100
AcDbSymbolTable
 70
    13
  0
LTYPE
  5
12
330
5
100
AcDbSymbolTableRecord
100
AcDbLinetypeTableRecord
  2
BYBLOCK
 70
     0
  3

 72
    65
 73
     0
 40
0.0
  0
LTYPE
  5
13
330
5
100
AcDbSymbolTableRecord
100
AcDbLinetypeTableRecord
  2
BYLAYER
 70
     0
  3

 72
    65
 73
     0
 40
0.0
  0
LTYPE
  5
14
330
5
100
AcDbSymbolTableRecord
100
AcDbLinetypeTableRecord
  2
CONTINUOUS
 70
     0
  3
Solid line
 72
    65
 73
     0
 40
0.0
  0
LTYPE
  5
32
330
5
100
AcDbSymbolTableRecord
100
AcDbLinetypeTableRecord
  2
CENTER2
 70
     0
  3
Center (.5x) ___ _ ___ _ ___ _ ___ _ ___ _ ___
 72
    65
 73
     4
 40
1.125
 49
0.75
 74
     0
 49
-0.125
 74
     0
 49
0.125
 74
     0
 49
-0.125
 74
     0
  0
LTYPE
  5
33
330
5
100
AcDbSymbolTableRecord
100
AcDbLinetypeTableRecord
  2
DASHED2
 70
     0
  3
Dashed (.5x) _ _ _ _ _ _ _ _ _ _ _ _ _ _ _ _ _
 72
    65
 73
     2
 40
0.375
 49
0.25
 74
     0
 49
-0.125
 74
     0
  0
LTYPE
  5
114
330
5
100
AcDbSymbolTableRecord
100
AcDbLinetypeTableRecord
  2
CENTER
 70
     0
  3
____ _ ____ _ ____ _ ____ _ ____ _ ____ _ ____
 72
    65
 73
     4
 40
2.0
 49
1.25
 74
     0
 49
-0.25
 74
     0
 49
0.25
 74
     0
 49
-0.25
 74
     0
  0
LTYPE
  5
D238
330
5
100
AcDbSymbolTableRecord
100
AcDbLinetypeTableRecord
  2
HIDDEN
 70
     0
  3
Hidden __ __ __ __ __ __ __ __ __ __ __ __ __ _
 72
    65
 73
     2
 40
0.375
 49
0.25
 74
     0
 49
-0.125
 74
     0
  0
LTYPE
  5
D239
330
5
100
AcDbSymbolTableRecord
100
AcDbLinetypeTableRecord
  2
PHANTOM2
 70
     0
  3
Phantom (.5x) ___ _ _ ___ _ _ ___ _ _ ___ _ _
 72
    65
 73
     6
 40
1.25
 49
0.625
 74
     0
 49
-0.125
 74
     0
 49
0.125
 74
     0
 49
-0.125
 74
     0
 49
0.125
 74
     0
 49
-0.125
 74
     0
  0
LTYPE
  5
D276
330
5
100
AcDbSymbolTableRecord
100
AcDbLinetypeTableRecord
  2
HIDDEN2
 70
     0
  3
Hidden (.5x) _ _ _ _ _ _ _ _ _ _ _ _ _ _ _ _ _
 72
    65
 73
     2
 40
0.1875
 49
0.125
 74
     0
 49
-0.0625
 74
     0
  0
LTYPE
  5
D286
330
5
100
AcDbSymbolTableRecord
100
AcDbLinetypeTableRecord
  2
ACANSTGB
 70
     0
  3
__ . . __ . .
 72
    65
 73
     6
 40
0.35433070866
 49
0.15748031496
 74
     0
 49
-0.03937007874
 74
     0
 49
0.03937007874
 74
     0
 49
-0.03937007874
 74
     0
 49
0.03937007874
 74
     0
 49
-0.03937007874
 74
     0
  0
LTYPE
  5
D287
330
5
100
AcDbSymbolTableRecord
100
AcDbLinetypeTableRecord
  2
ACANSTGL
 70
     0
  3
_ _ _ _ _
 72
    65
 73
     2
 40
0.11811023622
 49
0.07874015748
 74
     0
 49
-0.03937007874
 74
     0
  0
LTYPE
  5
D826
330
5
100
AcDbSymbolTableRecord
100
AcDbLinetypeTableRecord
  2
ACISOWELD
 70
     0
  3
_ _ _ _ _
 72
    65
 73
     2
 40
2.0
 49
2.0
 74
     0
 49
-1.0
 74
     0
  0
LTYPE
  5
D827
330
5
100
AcDbSymbolTableRecord
100
AcDbLinetypeTableRecord
  2
ACISOTGL
 70
     0
  3
_ _ _ _ _
 72
    65
 73
     2
 40
3.0
 49
2.0
 74
     0
 49
-1.0
 74
     0
  0
LTYPE
  5
D828
330
5
100
AcDbSymbolTableRecord
100
AcDbLinetypeTableRecord
  2
ACISOTGB
 70
     0
  3
__ . . __ . .
 72
    65
 73
     6
 40
9.0
 49
4.0
 74
     0
 49
-1.0
 74
     0
 49
1.0
 74
     0
 49
-1.0
 74
     0
 49
1.0
 74
     0
 49
-1.0
 74
     0
  0
ENDTAB
  0
TABLE
  2
LAYER
  5
2
102
{ACAD_XDICTIONARY
360
CCD1
102
}
330
0
100
AcDbSymbolTable
 70
    10
  0
LAYER
  5
E
102
{ACAD_XDICTIONARY
360
CD7D
102
}
330
2
100
AcDbSymbolTableRecord
100
AcDbLayerTableRecord
  2
0
 70
     0
 62
     7
  6
CONTINUOUS
370
    -3
390
5C1E
347
CD34
  0
LAYER
  5
34
102
{ACAD_XDICTIONARY
360
CD7F
102
}
330
2
100
AcDbSymbolTableRecord
100
AcDbLayerTableRecord
  2
SHEET
 70
     0
 62
     7
  6
CONTINUOUS
370
    -3
390
5C1E
347
CD34
  0
LAYER
  5
36
102
{ACAD_XDICTIONARY
360
CD81
102
}
330
2
100
AcDbSymbolTableRecord
100
AcDbLayerTableRecord
  2
CL
 70
     0
 62
     2
  6
CENTER2
370
    -3
390
5C1E
347
CD34
  0
LAYER
  5
38
102
{ACAD_XDICTIONARY
360
CD83
102
}
330
2
100
AcDbSymbolTableRecord
100
AcDbLayerTableRecord
  2
VP
 70
     1
 62
     4
  6
CONTINUOUS
370
    -3
390
5C1E
347
CD34
  0
LAYER
  5
39
102
{ACAD_XDICTIONARY
360
CD85
102
}
330
2
100
AcDbSymbolTableRecord
100
AcDbLayerTableRecord
  2
SINK
 70
     0
 62
     4
  6
CONTINUOUS
370
    -3
390
5C1E
347
CD34
  0
LAYER
  5
E8
330
2
100
AcDbSymbolTableRecord
100
AcDbLayerTableRecord
  2
DEFPOINTS
 70
     0
 62
     7
  6
CONTINUOUS
290
     0
370
    -3
390
5C1E
347
CD34
  0
LAYER
  5
1D50
102
{ACAD_XDICTIONARY
360
CD87
102
}
330
2
100
AcDbSymbolTableRecord
100
AcDbLayerTableRecord
  2
HATCH
 70
     0
 62
     3
  6
CONTINUOUS
370
    -3
390
5C1E
347
CD34
  0
LAYER
  5
43B1
102
{ACAD_XDICTIONARY
360
CD89
102
}
330
2
100
AcDbSymbolTableRecord
100
AcDbLayerTableRecord
  2
DIM
 70
     0
 62
     1
  6
CONTINUOUS
370
    -3
390
5C1E
347
CD34
  0
LAYER
  5
D642
330
2
100
AcDbSymbolTableRecord
100
AcDbLayerTableRecord
  2
AM_5
 70
     0
 62
     3
  6
CONTINUOUS
370
    15
390
5C1E
347
CD34
1001
AcAecLayerStandard
1000

1000

  0
LAYER
  5
D829
102
{ACAD_XDICTIONARY
360
D82A
102
}
330
2
100
AcDbSymbolTableRecord
100
AcDbLayerTableRecord
  2
P-0000
 70
     0
 62
     7
  6
CONTINUOUS
370
    -3
390
5C1E
347
CD34
  0
ENDTAB
  0
TABLE
  2
STYLE
  5
3
330
0
100
AcDbSymbolTable
 70
    10
  0
STYLE
  5
F
330
3
100
AcDbSymbolTableRecord
100
AcDbTextStyleTableRecord
  2
STANDARD
 70
     0
 40
25.0
 41
1.0
 50
0.0
 71
     0
 42
5.0
  3
comic.ttf
  4

1001
ACAD
1000
Comic Sans MS
1071
       66
  0
STYLE
  5
3F
330
3
100
AcDbSymbolTableRecord
100
AcDbTextStyleTableRecord
  2
TITLE
 70
     0
 40
0.0
 41
1.0
 50
0.0
 71
     0
 42
4.0
  3
C:\R13\COM\fonts\eur_____.pfb
  4

  0
STYLE
  5
116
330
3
100
AcDbSymbolTableRecord
100
AcDbTextStyleTableRecord
  2
EUROROMAN
 70
     0
 40
0.5343811892451882
 41
1.0
 50
0.0
 71
     0
 42
0.5343811892451882
  3
eur_____.pfb
  4

  0
STYLE
  5
43B4
330
3
100
AcDbSymbolTableRecord
100
AcDbTextStyleTableRecord
  2
ROMANS
 70
     0
 40
5.0
 41
1.0
 50
0.0
 71
     0
 42
10.0
  3
romans
  4

  0
STYLE
  5
D284
330
3
100
AcDbSymbolTableRecord
100
AcDbTextStyleTableRecord
  2
ACANSTS
 70
     0
 40
0.0
 41
1.0
 50
0.0
 71
     0
 42
5.0
  3
romans.shx
  4

  0
STYLE
  5
D285
330
3
100
AcDbSymbolTableRecord
100
AcDbTextStyleTableRecord
  2
ACANSGDT
 70
     0
 40
0.0
 41
1.0
 50
0.0
 71
     0
 42
5.0
  3
amgdt.shx
  4

  0
STYLE
  5
D82B
330
3
100
AcDbSymbolTableRecord
100
AcDbTextStyleTableRecord
  2
Text__5.0mm
 70
     0
 40
0.0
 41
0.899999976158142
 50
0.0
 71
     0
 42
0.2
  3
arial.ttf
  4

1001
ACAD
1000
Arial
1071
      256
  0
STYLE
  5
D82C
330
3
100
AcDbSymbolTableRecord
100
AcDbTextStyleTableRecord
  2
Text_3.5mm
 70
     0
 40
0.0
 41
0.899999976158142
 50
0.0
 71
     0
 42
0.2
  3
arial.ttf
  4

1001
ACAD
1000
Arial
1071
      256
  0
STYLE
  5
D82D
330
3
100
AcDbSymbolTableRecord
100
AcDbTextStyleTableRecord
  2
Franke
 70
     0
 40
0.0
 41
1.0
 50
0.0
 71
     0
 42
40.0
  3
swissc.ttf
  4

1001
ACAD
1000
Swis721 Cn BT
1071
       34
  0
STYLE
  5
D82E
330
3
100
AcDbSymbolTableRecord
100
AcDbTextStyleTableRecord
  2
ACISOGDT
 70
     0
 40
0.0
 41
1.0
 50
0.0
 71
     0
 42
0.2
  3
amgdt.shx
  4

  0
ENDTAB
  0
TABLE
  2
VIEW
  5
6
330
0
100
AcDbSymbolTable
 70
     2
  0
VIEW
  5
278
330
6
100
AcDbSymbolTableRecord
100
AcDbViewTableRecord
  2
P
 70
     0
 40
815.0
 10
608.7931217819457
 20
3.744870706040615
 41
1137.5
 11
0.0
 21
0.0
 31
1.0
 12
0.0
 22
0.0
 32
0.0
 42
50.0
 43
0.0
 44
0.0
 50
0.0
 71
     0
281
     0
 72
     0
 73
     0
348
CD42
  0
VIEW
  5
2F21
330
6
100
AcDbSymbolTableRecord
100
AcDbViewTableRecord
  2
E
 70
     0
 40
655.0725840874363
 10
622.5998899062656
 20
58.70190082387842
 41
1137.170295034238
 11
0.0
 21
0.0
 31
1.0
 12
0.0
 22
0.0
 32
0.0
 42
50.0
 43
0.0
 44
0.0
 50
0.0
 71
     0
281
     0
 72
     0
 73
     0
348
CD42
  0
ENDTAB
  0
TABLE
  2
UCS
  5
7
330
0
100
AcDbSymbolTable
 70
     0
  0
ENDTAB
  0
TABLE
  2
APPID
  5
9
330
0
100
AcDbSymbolTable
 70
    25
  0
APPID
  5
10
330
9
100
AcDbSymbolTableRecord
100
AcDbRegAppTableRecord
  2
ACAD
 70
     0
  0
APPID
  5
CCF8
330
9
100
AcDbSymbolTableRecord
100
AcDbRegAppTableRecord
  2
ACAD_EXEMPT_FROM_CAD_STANDARDS
 70
     0
  0
APPID
  5
CD1D
330
9
100
AcDbSymbolTableRecord
100
AcDbRegAppTableRecord
  2
ACAD_PSEXT
 70
     0
  0
APPID
  5
CDD6
330
9
100
AcDbSymbolTableRecord
100
AcDbRegAppTableRecord
  2
ACAD_MLEADERVER
 70
     0
  0
APPID
  5
CE59
330
9
100
AcDbSymbolTableRecord
100
AcDbRegAppTableRecord
  2
ACAD_NAV_VCDISPLAY
 70
     0
  0
APPID
  5
CE86
330
9
100
AcDbSymbolTableRecord
100
AcDbRegAppTableRecord
  2
GradientColor1ACI
 70
     0
  0
APPID
  5
CE87
330
9
100
AcDbSymbolTableRecord
100
AcDbRegAppTableRecord
  2
GradientColor2ACI
 70
     0
  0
APPID
  5
D00E
330
9
100
AcDbSymbolTableRecord
100
AcDbRegAppTableRecord
  2
ACAD_DSTYLE_DIMRADIAL_EXTENSION
 70
     0
  0
APPID
  5
D04E
330
9
100
AcDbSymbolTableRecord
100
AcDbRegAppTableRecord
  2
AcadAnnoPO
 70
     0
  0
APPID
  5
D050
330
9
100
AcDbSymbolTableRecord
100
AcDbRegAppTableRecord
  2
ACAD_DSTYLE_DIMJAG
 70
     0
  0
APPID
  5
D051
330
9
100
AcDbSymbolTableRecord
100
AcDbRegAppTableRecord
  2
ACAD_DSTYLE_DIMTALN
 70
     0
  0
APPID
  5
D231
330
9
100
AcDbSymbolTableRecord
100
AcDbRegAppTableRecord
  2
MCAD_NO_VIS
 70
     0
  0
APPID
  5
D232
330
9
100
AcDbSymbolTableRecord
100
AcDbRegAppTableRecord
  2
ACAD_TEMP_GRAPHIC
 70
     0
  0
APPID
  5
D23E
330
9
100
AcDbSymbolTableRecord
100
AcDbRegAppTableRecord
  2
ACATTRIBSERVICES
 70
     0
  0
APPID
  5
D25A
330
9
100
AcDbSymbolTableRecord
100
AcDbRegAppTableRecord
  2
DESIGNERASSEMBLIES
 70
     0
  0
APPID
  5
D274
330
9
100
AcDbSymbolTableRecord
100
AcDbRegAppTableRecord
  2
ACAD_DSTYLE_DIMBREAK
 70
     0
  0
APPID
  5
D2A0
330
9
100
AcDbSymbolTableRecord
100
AcDbRegAppTableRecord
  2
GENIUS_GENSCREG_15
 70
     0
  0
APPID
  5
D2A1
330
9
100
AcDbSymbolTableRecord
100
AcDbRegAppTableRecord
  2
GENIUS_GENOBJ-N-SDF_13
 70
     0
  0
APPID
  5
D2A2
330
9
100
AcDbSymbolTableRecord
100
AcDbRegAppTableRecord
  2
GENIUS_GENODEF_13
 70
     0
  0
APPID
  5
D2B3
330
9
100
AcDbSymbolTableRecord
100
AcDbRegAppTableRecord
  2
ACAD_DSTYLE_DIMINSPECT
 70
     0
  0
APPID
  5
D2BE
330
9
100
AcDbSymbolTableRecord
100
AcDbRegAppTableRecord
  2
AcadAnnoMonitorAlertIconDisabled
 70
     0
  0
APPID
  5
D2BF
330
9
100
AcDbSymbolTableRecord
100
AcDbRegAppTableRecord
  2
GENIUS_GENDTOL_13
 70
     0
  0
APPID
  5
D402
330
9
100
AcDbSymbolTableRecord
100
AcDbRegAppTableRecord
  2
AMAcad
 70
     0
  0
APPID
  5
D643
330
9
100
AcDbSymbolTableRecord
100
AcDbRegAppTableRecord
  2
AcAecLayerStandard
 70
     0
  0
APPID
  5
D838
330
9
100
AcDbSymbolTableRecord
100
AcDbRegAppTableRecord
  2
TOP
 70
     0
  0
ENDTAB
  0
TABLE
  2
DIMSTYLE
  5
A
330
0
100
AcDbSymbolTable
 70
    17
100
AcDbDimStyleTable
 71
     1
340
1D
  0
DIMSTYLE
105
1D
330
A
100
AcDbSymbolTableRecord
100
AcDbDimStyleTableRecord
  2
STANDARD
 70
     0
 41
15.0
140
25.0
178
     1
271
     2
272
     2
340
F
1001
ACAD_DSTYLE_DIMJAG
1070
   388
1040
1.5
1001
ACAD_DSTYLE_DIMTALN
1070
   392
1070
     0
  0
DIMSTYLE
105
D273
102
{ACAD_REACTORS
330
D263
102
}
330
A
100
AcDbSymbolTableRecord
100
AcDbDimStyleTableRecord
  2
AM_ANSI
 70
     0
  4
mm
 41
0.12
 42
0.05
 43
0.5
 44
0.1
 47
0.1
 48
0.1
 78
     7
 79
     2
 90
     1
140
0.12
141
0.0
146
0.71
147
0.06
176
   256
177
   256
178
     2
274
     4
284
     7
340
F
345
12
346
12
347
12
371
    -1
372
    -1
1001
ACAD_DSTYLE_DIMJAG
1070
   388
1040
1.5
1001
ACAD_DSTYLE_DIMBREAK
1070
   391
1040
0.125
  0
DIMSTYLE
105
D277
330
A
100
AcDbSymbolTableRecord
100
AcDbDimStyleTableRecord
  2
AM_ANSI$3
 70
     0
  4
mm
 41
0.12
 42
0.05
 43
0.5
 44
0.1
 47
0.1
 48
0.1
 78
     7
 79
     2
 90
     1
140
0.12
141
0.0
146
0.71
147
0.06
176
   256
177
   256
178
     2
274
     4
284
     7
288
     1
289
     0
340
F
345
12
346
12
347
12
371
    -1
372
    -1
1001
ACAD_DSTYLE_DIMBREAK
1070
   391
1040
0.125
1001
ACAD_DSTYLE_DIMJAG
1070
   388
1040
1.5
  0
DIMSTYLE
105
D278
330
A
100
AcDbSymbolTableRecord
100
AcDbDimStyleTableRecord
  2
AM_ANSI$4
 70
     0
  4
mm
 41
0.12
 42
0.05
 43
0.5
 44
0.1
 47
0.1
 48
0.1
 78
     7
 79
     2
 90
     1
140
0.12
141
0.0
146
0.71
147
0.06
176
   256
177
   256
178
     2
274
     4
284
     7
288
     1
289
     0
340
F
345
12
346
12
347
12
371
    -1
372
    -1
1001
ACAD_DSTYLE_DIMBREAK
1070
   391
1040
0.125
1001
ACAD_DSTYLE_DIMJAG
1070
   388
1040
1.5
  0
DIMSTYLE
105
D279
330
A
100
AcDbSymbolTableRecord
100
AcDbDimStyleTableRecord
  2
AM_ANSI$7
 70
     0
  4
mm
 41
0.12
 42
0.05
 43
0.5
 44
0.1
 47
0.1
 48
0.1
 78
     7
 79
     2
 90
     1
140
0.12
141
0.0
146
0.71
147
0.06
176
   256
177
   256
178
     2
274
     4
284
     7
340
F
345
12
346
12
347
12
371
    -1
372
    -1
1001
ACAD_DSTYLE_DIMBREAK
1070
   391
1040
0.125
1001
ACAD_DSTYLE_DIMJAG
1070
   388
1040
1.5
  0
DIMSTYLE
105
D27A
330
A
100
AcDbSymbolTableRecord
100
AcDbDimStyleTableRecord
  2
AM_ANSI$SF
 70
     0
  4
mm
 41
0.12
 42
0.05
 43
0.5
 44
0.1
 47
0.1
 48
0.1
 75
     1
 76
     1
 78
     7
 79
     2
 90
     1
140
0.12
141
0.0
146
0.71
147
0.06
176
   256
177
   256
178
     2
274
     4
284
     7
340
F
345
12
346
12
347
12
371
    -1
372
    -1
1001
ACAD_DSTYLE_DIMBREAK
1070
   391
1040
0.125
1001
ACAD_DSTYLE_DIMJAG
1070
   388
1040
1.5
  0
DIMSTYLE
105
D27F
330
A
100
AcDbSymbolTableRecord
100
AcDbDimStyleTableRecord
  2
AM_ANSI$SH
 70
     0
  4
mm
 41
0.12
 42
0.05
 43
0.5
 44
0.1
 47
0.1
 48
0.1
 75
     1
 76
     1
 78
     7
 79
     2
 90
     1
140
0.12
141
0.0
146
0.71
147
0.06
173
     1
176
   256
177
   256
178
     2
274
     4
284
     7
340
F
343
D27B
345
12
346
12
347
12
371
    -1
372
    -1
1001
ACAD_DSTYLE_DIMBREAK
1070
   391
1040
0.125
1001
ACAD_DSTYLE_DIMJAG
1070
   388
1040
1.5
  0
DIMSTYLE
105
D648
330
A
100
AcDbSymbolTableRecord
100
AcDbDimStyleTableRecord
  2
STANDARD$3
 70
     0
 41
15.0
140
25.0
178
     1
271
     2
272
     2
340
F
1001
ACAD_DSTYLE_DIMBREAK
1070
   391
1040
0.125
1001
ACAD_DSTYLE_DIMJAG
1070
   388
1040
1.5
  0
DIMSTYLE
105
D82F
330
A
100
AcDbSymbolTableRecord
100
AcDbDimStyleTableRecord
  2
KS-Marketing
 70
     0
  3
 in
 40
10.0
 41
3.5
 42
0.0
 43
12.0
 44
3.174999999999998
 45
0.00000001
 46
10.0
 73
     0
 74
     0
 77
     1
 78
     2
 79
     2
140
5.0
143
1.0
144
0.0393700787401575
146
0.7
147
0.8
171
     3
172
     1
176
     7
177
     7
178
     7
271
     3
274
     3
276
     2
277
     5
278
    44
284
     8
286
     8
340
D82B
371
    25
372
    25
  0
DIMSTYLE
105
D830
102
{ACAD_REACTORS
330
DC36
102
}
330
A
100
AcDbSymbolTableRecord
100
AcDbDimStyleTableRecord
  2
Lead of KS-STANDARD
 70
     0
 40
6.666666666666666
 41
2.5
 42
0.0
 43
6.0
 44
3.174999999999998
 45
0.00000001
 46
10.0
 73
     0
 77
     1
 78
     8
 79
     2
140
3.5
143
0.03937
146
0.7142857142857145
147
0.8000000000000001
171
     3
176
     4
177
     7
178
     7
271
     1
272
     1
274
     3
284
     8
286
     8
340
D82C
371
    25
372
    25
1001
ACAD_DSTYLE_DIMBREAK
1070
   391
1040
3.75
1001
ACAD_DSTYLE_DIMJAG
1070
   388
1040
1.5
1001
ACAD_DSTYLE_DIMTALN
1070
   392
1070
     0
  0
DIMSTYLE
105
D831
102
{ACAD_REACTORS
330
D8DE
102
}
330
A
100
AcDbSymbolTableRecord
100
AcDbDimStyleTableRecord
  2
AM_ISO
 70
     0
  4
"
 41
3.5
 42
1.0
 43
10.0
 44
1.0
 47
0.1
 48
0.1
 73
     0
 74
     0
 77
     1
 78
     8
 79
     2
 90
     1
140
3.5
141
0.0
143
0.0393701
146
0.71
147
1.5
172
     1
176
   256
177
   256
178
     2
271
     2
272
     3
274
     4
283
     0
284
     8
340
F
345
12
346
12
347
12
371
    -1
372
    -1
1001
ACAD_DSTYLE_DIMJAG
1070
   388
1040
1.5
1001
ACAD_DSTYLE_DIMBREAK
1070
   391
1040
3.75
  0
DIMSTYLE
105
D832
330
A
100
AcDbSymbolTableRecord
100
AcDbDimStyleTableRecord
  2
AM_ISO$3
 70
     0
  4
"
 41
3.5
 42
1.0
 43
10.0
 44
1.0
 47
0.1
 48
0.1
 73
     0
 77
     1
 78
     8
 79
     2
 90
     1
140
3.5
141
0.0
143
0.0393701
146
0.71
147
1.5
176
   256
177
   256
178
     2
271
     2
272
     3
274
     4
283
     0
284
     8
288
     1
289
     0
340
F
345
12
346
12
347
12
371
    -1
372
    -1
1001
ACAD_DSTYLE_DIMBREAK
1070
   391
1040
3.75
1001
ACAD_DSTYLE_DIMJAG
1070
   388
1040
1.5
  0
DIMSTYLE
105
D833
330
A
100
AcDbSymbolTableRecord
100
AcDbDimStyleTableRecord
  2
AM_ISO$4
 70
     0
  4
"
 41
3.5
 42
1.0
 43
10.0
 44
1.0
 47
0.1
 48
0.1
 73
     0
 77
     1
 78
     8
 79
     2
 90
     1
140
3.5
141
0.0
143
0.0393701
146
0.71
147
1.5
176
   256
177
   256
178
     2
271
     2
272
     3
274
     4
283
     0
284
     8
288
     1
289
     0
340
F
345
12
346
12
347
12
371
    -1
372
    -1
1001
ACAD_DSTYLE_DIMBREAK
1070
   391
1040
3.75
1001
ACAD_DSTYLE_DIMJAG
1070
   388
1040
1.5
  0
DIMSTYLE
105
D834
330
A
100
AcDbSymbolTableRecord
100
AcDbDimStyleTableRecord
  2
AM_ISO$6
 70
     0
  4
"
 41
3.5
 42
1.0
 43
10.0
 44
1.0
 47
0.1
 48
0.1
 73
     0
 74
     0
 78
     8
 79
     2
 90
     1
140
3.5
141
0.0
143
0.0393701
146
0.71
147
1.5
172
     1
176
   256
177
   256
178
     2
271
     2
272
     3
274
     4
283
     0
284
     8
340
F
345
12
346
12
347
12
371
    -1
372
    -1
1001
ACAD_DSTYLE_DIMBREAK
1070
   391
1040
3.75
1001
ACAD_DSTYLE_DIMJAG
1070
   388
1040
1.5
  0
DIMSTYLE
105
D835
330
A
100
AcDbSymbolTableRecord
100
AcDbDimStyleTableRecord
  2
AM_ISO$7
 70
     0
  4
"
 41
3.5
 42
1.0
 43
10.0
 44
1.0
 47
0.1
 48
0.1
 73
     0
 74
     0
 77
     1
 78
     8
 79
     2
 90
     1
140
3.5
141
0.0
143
0.0393701
146
0.71
147
1.5
172
     1
176
   256
177
   256
178
     2
271
     2
272
     3
274
     4
283
     0
284
     8
340
F
345
12
346
12
347
12
371
    -1
372
    -1
1001
ACAD_DSTYLE_DIMBREAK
1070
   391
1040
3.75
1001
ACAD_DSTYLE_DIMJAG
1070
   388
1040
1.5
  0
DIMSTYLE
105
D836
330
A
100
AcDbSymbolTableRecord
100
AcDbDimStyleTableRecord
  2
AM_ISO$SF
 70
     0
  4
"
 41
3.5
 42
1.0
 43
10.0
 44
1.0
 47
0.1
 48
0.1
 73
     0
 74
     0
 75
     1
 76
     1
 77
     1
 78
     8
 79
     2
 90
     1
140
3.5
141
0.0
143
0.0393701
146
0.71
147
1.5
172
     1
176
   256
177
   256
178
     2
271
     2
272
     3
274
     4
283
     0
284
     8
340
F
345
12
346
12
347
12
371
    -1
372
    -1
1001
ACAD_DSTYLE_DIMBREAK
1070
   391
1040
3.75
1001
ACAD_DSTYLE_DIMJAG
1070
   388
1040
1.5
  0
DIMSTYLE
105
D837
330
A
100
AcDbSymbolTableRecord
100
AcDbDimStyleTableRecord
  2
AM_ISO$SH
 70
     0
  4
"
 41
3.5
 42
1.0
 43
10.0
 44
1.0
 47
0.1
 48
0.1
 73
     0
 74
     0
 75
     1
 76
     1
 77
     1
 78
     8
 79
     2
 90
     1
140
3.5
141
0.0
143
0.0393701
144
2.0
146
0.71
147
1.5
172
     1
173
     1
176
   256
177
   256
178
     2
271
     2
272
     3
274
     4
283
     0
284
     8
340
F
343
D27B
345
12
346
12
347
12
371
    -1
372
    -1
1001
ACAD_DSTYLE_DIMBREAK
1070
   391
1040
3.75
1001
ACAD_DSTYLE_DIMJAG
1070
   388
1040
1.5
  0
ENDTAB
  0
TABLE
  2
BLOCK_RECORD
  5
1
330
0
100
AcDbSymbolTable
 70
     6
  0
BLOCK_RECORD
  5
18
102
{ACAD_XDICTIONARY
360
982C
102
}
330
1
100
AcDbSymbolTableRecord
100
AcDbBlockTableRecord
  2
*MODEL_SPACE
340
5C21
 70
     0
280
     1
281
     0
  0
BLOCK_RECORD
  5
15
102
{ACAD_XDICTIONARY
360
982A
102
}
330
1
100
AcDbSymbolTableRecord
100
AcDbBlockTableRecord
  2
*PAPER_SPACE
340
5C22
 70
     0
280
     1
281
     0
  0
BLOCK_RECORD
  5
D27B
330
1
100
AcDbSymbolTableRecord
100
AcDbBlockTableRecord
  2
GENAXEH
340
0
 70
     0
280
     1
281
     0
  0
BLOCK_RECORD
  5
D289
330
1
100
AcDbSymbolTableRecord
100
AcDbBlockTableRecord
  2
_ACMFILLEDHALF
340
0
 70
     0
280
     1
281
     0
  0
BLOCK_RECORD
  5
DC37
330
1
100
AcDbSymbolTableRecord
100
AcDbBlockTableRecord
  2
*D3
340
0
 70
     0
280
     1
281
     0
  0
BLOCK_RECORD
  5
DDC2
330
1
100
AcDbSymbolTableRecord
100
AcDbBlockTableRecord
  2
*D5
340
0
 70
     0
280
     1
281
     0
  0
ENDTAB
  0
ENDSEC
  0
SECTION
  2
BLOCKS
  0
BLOCK
  5
19
330
18
100
AcDbEntity
  8
0
100
AcDbBlockBegin
  2
*MODEL_SPACE
 70
     0
 10
0.0
 20
0.0
 30
0.0
  3
*MODEL_SPACE
  1

  0
ENDBLK
  5
1A
330
18
100
AcDbEntity
  8
0
100
AcDbBlockEnd
  0
BLOCK
  5
16
330
15
100
AcDbEntity
 67
     1
  8
0
100
AcDbBlockBegin
  2
*PAPER_SPACE
 70
     0
 10
0.0
 20
0.0
 30
0.0
  3
*PAPER_SPACE
  1

  0
ENDBLK
  5
17
330
15
100
AcDbEntity
 67
     1
  8
0
100
AcDbBlockEnd
  0
BLOCK
  5
D27D
330
D27B
100
AcDbEntity
  8
0
100
AcDbBlockBegin
  2
GENAXEH
 70
     0
 10
0.0
 20
0.0
 30
0.0
  3
GENAXEH
  1

  0
LINE
  5
D27C
330
D27B
100
AcDbEntity
  8
0
100
AcDbLine
 10
-1.0
 20
0.0
 30
0.0
 11
1.0
 21
0.0
 31
0.0
  0
ENDBLK
  5
D27E
330
D27B
100
AcDbEntity
  8
0
100
AcDbBlockEnd
  0
BLOCK
  5
D28C
330
D289
100
AcDbEntity
  8
0
100
AcDbBlockBegin
  2
_ACMFILLEDHALF
 70
     0
 10
0.0
 20
0.0
 30
0.0
  3
_ACMFILLEDHALF
  1

  0
TRACE
  5
D28A
330
D289
100
AcDbEntity
  8
SINK
 62
     0
100
AcDbTrace
 10
-0.8
 20
0.0
 30
0.0
 11
-1.0
 21
0.166666666
 31
0.0
 12
0.0
 22
0.0
 32
0.0
 13
0.0
 23
0.0
 33
0.0
  0
LINE
  5
D28B
330
D289
100
AcDbEntity
  8
SINK
 62
     0
100
AcDbLine
 10
-1.0
 20
0.0
 30
0.0
 11
-0.8
 21
0.0
 31
0.0
  0
ENDBLK
  5
D28D
330
D289
100
AcDbEntity
  8
0
100
AcDbBlockEnd
  0
BLOCK
  5
DC38
330
DC37
100
AcDbEntity
  8
0
100
AcDbBlockBegin
  2
*D3
 70
     1
 10
0.0
 20
0.0
 30
0.0
  3
*D3
  1

  0
LINE
  5
DD04
330
DC37
100
AcDbEntity
  8
0
 62
     1
440
 16777216
370
    25
100
AcDbLine
 10
745.5218623402379
 20
138.2084622941093
 30
0.0
 11
776.4186329227015
 21
138.2084622941093
 31
0.0
  0
LINE
  5
DD05
330
DC37
100
AcDbEntity
  8
0
 62
     1
440
 16777216
370
    25
100
AcDbLine
 10
776.4186329227015
 20
138.2084622941093
 30
0.0
 11
798.2558205462547
 21
138.2304832582502
 31
0.0
  0
MTEXT
  5
DD06
330
DC37
100
AcDbEntity
  8
0
 62
     1
440
 16777216
100
AcDbMText
 10
758.3035809648031
 20
146.1270616574562
 30
0.0
 40
5.0
 41
0.0
 46
0.0
 71
     5
 72
     1
  1
\A1;D 15-7/8"
  7
Text_3.5mm
 73
     1
 44
1.0
  0
SOLID
  5
DD07
330
DC37
100
AcDbEntity
  8
0
 62
     1
440
 16777216
100
AcDbTrace
 10
798.2530193927917
 20
141.0082596236647
 30
0.0
 11
798.2586216997177
 21
135.4527068928358
 31
0.0
 12
814.9224787387417
 22
138.2472901790284
 32
0.0
 13
814.9224787387417
 23
138.2472901790284
 33
0.0
  0
LINE
  5
DD08
330
DC37
100
AcDbEntity
  8
0
 62
     7
440
 16777216
370
    25
100
AcDbLine
 10
826.3224726373321
 20
138.2593911619887
 30
0.0
 11
827.5224726373322
 21
138.2593911619887
 31
0.0
  0
LINE
  5
DD09
330
DC37
100
AcDbEntity
  8
0
 62
     7
440
 16777216
370
    25
100
AcDbLine
 10
826.9224726373321
 20
137.6593911619887
 30
0.0
 11
826.9224726373321
 21
138.8593911619886
 31
0.0
  0
POINT
  5
DD0A
330
DC37
100
AcDbEntity
  8
DEFPOINTS
 62
     0
440
 16777216
100
AcDbPoint
 10
814.9224787387417
 20
138.2472901790284
 30
0.0
  0
POINT
  5
DD0B
330
DC37
100
AcDbEntity
  8
DEFPOINTS
 62
     0
440
 16777216
100
AcDbPoint
 10
826.9224726373321
 20
138.2593911619887
 30
0.0
  0
ENDBLK
  5
DC39
330
DC37
100
AcDbEntity
  8
0
100
AcDbBlockEnd
  0
BLOCK
  5
DDC3
330
DDC2
100
AcDbEntity
  8
0
100
AcDbBlockBegin
  2
*D5
 70
     1
 10
0.0
 20
0.0
 30
0.0
  3
*D5
  1

  0
LINE
  5
DDFE
330
DDC2
100
AcDbEntity
  8
AM_5
 62
     0
440
 16777216
370
    -2
100
AcDbLine
 10
856.8432834714512
 20
291.2991562551487
 30
0.0
 11
841.8432834714511
 21
291.2991562551487
 31
0.0
  0
LINE
  5
DDFF
330
DDC2
100
AcDbEntity
  8
AM_5
 62
     0
440
 16777216
370
    -2
100
AcDbLine
 10
841.8432834714511
 20
291.2991562551487
 30
0.0
 11
795.6479530330913
 21
261.6439714718377
 31
0.0
  0
MTEXT
  5
DE00
330
DDC2
100
AcDbEntity
  8
AM_5
 62
     1
440
 16777216
100
AcDbMText
 10
925.8186014687447
 20
291.2991562551487
 30
0.0
 40
25.0
 41
0.0
 46
0.0
 71
     5
 72
     1
  1
\A1;∅403.23
 73
     1
 44
1.0
  0
SOLID
  5
DE01
330
DDC2
100
AcDbEntity
  8
AM_5
 62
     0
440
 16777216
100
AcDbTrace
 10
794.2974067435381
 20
263.7477834215552
 30
0.0
 11
796.9984993226444
 21
259.5401595221202
 31
0.0
 12
783.0250813347862
 22
253.5406937345186
 32
0.0
 13
783.0250813347862
 23
253.5406937345186
 33
0.0
  0
LINE
  5
DE02
330
DDC2
100
AcDbEntity
  8
AM_5
 62
     0
440
 16777216
370
    -2
100
AcDbLine
 10
613.2729562686237
 20
144.6257531588734
 30
0.0
 11
613.4529562686239
 21
144.6257531588734
 31
0.0
  0
LINE
  5
DE03
330
DDC2
100
AcDbEntity
  8
AM_5
 62
     0
440
 16777216
370
    -2
100
AcDbLine
 10
613.3629562686238
 20
144.5357531588733
 30
0.0
 11
613.3629562686238
 21
144.7157531588734
 31
0.0
  0
POINT
  5
DE04
330
DDC2
100
AcDbEntity
  8
DEFPOINTS
 62
     0
440
 16777216
100
AcDbPoint
 10
783.0250813347862
 20
253.5406937345186
 30
0.0
  0
POINT
  5
DE05
330
DDC2
100
AcDbEntity
  8
DEFPOINTS
 62
     0
440
 16777216
100
AcDbPoint
 10
443.7008312024612
 20
35.71081258322815
 30
0.0
  0
ENDBLK
  5
DDC4
330
DDC2
100
AcDbEntity
  8
0
100
AcDbBlockEnd
  0
ENDSEC
  0
SECTION
  2
ENTITIES
  0
LINE
  5
D900
330
18
100
AcDbEntity
  8
DIM
  6
Continuous
 62
    22
100
AcDbLine
 10
592.4062429718626
 20
32.91076445577164
 30
0.0
 11
593.1105821852534
 21
32.91076445577164
 31
0.0
  0
LINE
  5
D901
330
18
100
AcDbEntity
  8
DIM
  6
Continuous
 62
    22
100
AcDbLine
 10
612.8320801601407
 20
27.98038996203354
 30
0.0
 11
613.5364193735319
 21
27.98038996203354
 31
0.0
  0
LINE
  5
D902
330
18
100
AcDbEntity
  8
DIM
  6
Continuous
 62
    22
100
AcDbLine
 10
612.479910553476
 20
25.86737232186056
 30
0.0
 11
612.479910553476
 21
27.98038996203354
 31
0.0
  0
LINE
  5
D903
330
18
100
AcDbEntity
  8
DIM
  6
Continuous
 62
    22
100
AcDbLine
 10
612.479910553476
 20
27.98038996203354
 30
0.0
 11
611.7755713400854
 21
27.98038996203354
 31
0.0
  0
LINE
  5
D904
330
18
100
AcDbEntity
  8
DIM
  6
Continuous
 62
    22
100
AcDbLine
 10
611.7755713400854
 20
27.98038996203354
 30
0.0
 11
610.3668929133029
 21
32.91076445577164
 31
0.0
  0
LINE
  5
D905
330
18
100
AcDbEntity
  8
DIM
  6
Continuous
 62
    22
100
AcDbLine
 10
610.3668929133029
 20
32.91076445577164
 30
0.0
 11
611.0007982053737
 21
32.91076445577164
 31
0.0
  0
LINE
  5
D906
330
18
100
AcDbEntity
  8
DIM
  6
Continuous
 62
    22
100
AcDbLine
 10
611.0007982053737
 20
32.91076445577164
 30
0.0
 11
611.0007982053737
 21
35.02378209592962
 31
0.0
  0
LINE
  5
D907
330
18
100
AcDbEntity
  8
DIM
  6
Continuous
 62
    22
100
AcDbLine
 10
611.0007982053737
 20
35.02378209592962
 30
0.0
 11
604.6617452848543
 21
35.02378209592962
 31
0.0
  0
LINE
  5
D908
330
18
100
AcDbEntity
  8
DIM
  6
Continuous
 62
    22
100
AcDbLine
 10
604.6617452848543
 20
35.02378209592962
 30
0.0
 11
604.6617452848543
 21
32.91076445577164
 31
0.0
  0
LINE
  5
D909
330
18
100
AcDbEntity
  8
DIM
  6
Continuous
 62
    22
100
AcDbLine
 10
604.6617452848543
 20
32.91076445577164
 30
0.0
 11
605.2956505768629
 21
32.91076445577164
 31
0.0
  0
LINE
  5
D90A
330
18
100
AcDbEntity
  8
DIM
  6
Continuous
 62
    22
100
AcDbLine
 10
605.2956505768629
 20
32.91076445577164
 30
0.0
 11
604.1687078354867
 21
27.98038996203354
 31
0.0
  0
LINE
  5
D90B
330
18
100
AcDbEntity
  8
DIM
  6
Continuous
 62
    22
100
AcDbLine
 10
604.1687078354867
 20
27.98038996203354
 30
0.0
 11
603.3235007793928
 21
27.98038996203354
 31
0.0
  0
LINE
  5
D90C
330
18
100
AcDbEntity
  8
DIM
  6
Continuous
 62
    22
100
AcDbLine
 10
603.3235007793928
 20
27.98038996203354
 30
0.0
 11
603.3235007793928
 21
25.86737232186056
 31
0.0
  0
LINE
  5
D90D
330
18
100
AcDbEntity
  8
DIM
  6
Continuous
 62
    22
100
AcDbLine
 10
603.3235007793928
 20
25.86737232186056
 30
0.0
 11
607.126932531692
 21
25.86737232186056
 31
0.0
  0
LINE
  5
D90E
330
18
100
AcDbEntity
  8
DIM
  6
Continuous
 62
    22
100
AcDbLine
 10
607.126932531692
 20
25.86737232186056
 30
0.0
 11
607.126932531692
 21
27.98038996203354
 31
0.0
  0
LINE
  5
D90F
330
18
100
AcDbEntity
  8
DIM
  6
Continuous
 62
    22
100
AcDbLine
 10
607.126932531692
 20
27.98038996203354
 30
0.0
 11
606.4225933183008
 21
27.98038996203354
 31
0.0
  0
LINE
  5
D910
330
18
100
AcDbEntity
  8
DIM
  6
Continuous
 62
    22
100
AcDbLine
 10
606.4225933183008
 20
27.98038996203354
 30
0.0
 11
606.7445769587118
 21
29.38906838881667
 31
0.0
  0
LINE
  5
D911
330
18
100
AcDbEntity
  8
DIM
  6
Continuous
 62
    22
100
AcDbLine
 10
606.7445769587118
 20
29.38906838881667
 30
0.0
 11
608.5557349360385
 21
29.38906838881667
 31
0.0
  0
LINE
  5
D912
330
18
100
AcDbEntity
  8
DIM
  6
Continuous
 62
    22
100
AcDbLine
 10
608.5557349360385
 20
29.38906838881667
 30
0.0
 11
608.958214486521
 21
27.98038996203354
 31
0.0
  0
LINE
  5
D913
330
18
100
AcDbEntity
  8
DIM
  6
Continuous
 62
    22
100
AcDbLine
 10
608.958214486521
 20
27.98038996203354
 30
0.0
 11
607.9017056664038
 21
27.98038996203354
 31
0.0
  0
LINE
  5
D914
330
18
100
AcDbEntity
  8
DIM
  6
Continuous
 62
    22
100
AcDbLine
 10
607.9017056664038
 20
27.98038996203354
 30
0.0
 11
607.9017056664038
 21
25.86737232186056
 31
0.0
  0
LINE
  5
D915
330
18
100
AcDbEntity
  8
DIM
  6
Continuous
 62
    22
100
AcDbLine
 10
607.9017056664038
 20
25.86737232186056
 30
0.0
 11
612.479910553476
 21
25.86737232186056
 31
0.0
  0
LINE
  5
D916
330
18
100
AcDbEntity
  8
DIM
  6
Continuous
 62
    22
100
AcDbLine
 10
622.6928291476156
 20
20.58482822144333
 30
0.0
 11
622.6928291476156
 21
40.30632619636162
 31
0.0
  0
LINE
  5
D917
330
18
100
AcDbEntity
  8
DIM
  6
Continuous
 62
    22
100
AcDbLine
 10
622.6928291476156
 20
40.30632619636162
 30
0.0
 11
602.9713311727282
 21
40.30632619636162
 31
0.0
  0
LINE
  5
D918
330
18
100
AcDbEntity
  8
DIM
  6
Continuous
 62
    22
100
AcDbLine
 10
602.9713311727282
 20
40.30632619636162
 30
0.0
 11
602.9713311727282
 21
20.58482822144333
 31
0.0
  0
LINE
  5
D919
330
18
100
AcDbEntity
  8
DIM
  6
Continuous
 62
    22
100
AcDbLine
 10
602.9713311727282
 20
20.58482822144333
 30
0.0
 11
622.6928291476156
 21
20.58482822144333
 31
0.0
  0
LINE
  5
D91A
330
18
100
AcDbEntity
  8
DIM
  6
Continuous
 62
    22
100
AcDbLine
 10
607.0665605991226
 20
30.79774681559821
 30
0.0
 11
608.1532553854938
 21
30.79774681559821
 31
0.0
  0
LINE
  5
D91B
330
18
100
AcDbEntity
  8
DIM
  6
Continuous
 62
    22
100
AcDbLine
 10
608.1532553854938
 20
30.79774681559821
 30
0.0
 11
607.5495360597391
 21
32.91076445577164
 31
0.0
  0
LINE
  5
D91C
330
18
100
AcDbEntity
  8
DIM
  6
Continuous
 62
    22
100
AcDbLine
 10
607.5495360597391
 20
32.91076445577164
 30
0.0
 11
607.0665605991226
 21
30.79774681559821
 31
0.0
  0
LINE
  5
D91D
330
18
100
AcDbEntity
  8
DIM
  6
Continuous
 62
    22
100
AcDbLine
 10
584.2998173702449
 20
32.86002776289297
 30
0.0
 11
584.2998173702449
 21
27.98038996203354
 31
0.0
  0
LINE
  5
D91E
330
18
100
AcDbEntity
  8
DIM
  6
Continuous
 62
    22
100
AcDbLine
 10
584.2621011221021
 20
27.95462795369804
 30
0.0
 11
583.3229821709141
 21
27.95462795369804
 31
0.0
  0
LINE
  5
D91F
330
18
100
AcDbEntity
  8
DIM
  6
Continuous
 62
    22
100
AcDbLine
 10
583.3229821709141
 20
27.95462795369804
 30
0.0
 11
583.3131918248068
 21
25.86737232186056
 31
0.0
  0
LINE
  5
D920
330
18
100
AcDbEntity
  8
DIM
  6
Continuous
 62
    22
100
AcDbLine
 10
583.249833197779
 20
25.86737232186056
 30
0.0
 11
588.1802076915164
 21
25.86737232186056
 31
0.0
  0
LINE
  5
D921
330
18
100
AcDbEntity
  8
DIM
  6
Continuous
 62
    22
100
AcDbLine
 10
588.1802076915164
 20
25.86737232186056
 30
0.0
 11
588.1802076915164
 21
27.98038996203354
 31
0.0
  0
LINE
  5
D922
330
18
100
AcDbEntity
  8
DIM
  6
Continuous
 62
    22
100
AcDbLine
 10
588.1802076915164
 20
27.98038996203354
 30
0.0
 11
587.4758684781252
 21
27.98038996203354
 31
0.0
  0
LINE
  5
D923
330
18
100
AcDbEntity
  8
DIM
  6
Continuous
 62
    22
100
AcDbLine
 10
587.4758684781252
 20
27.98038996203354
 30
0.0
 11
587.4758684781252
 21
29.60037015283979
 31
0.0
  0
LINE
  5
D924
330
18
100
AcDbEntity
  8
DIM
  6
Continuous
 62
    22
100
AcDbLine
 10
587.4758684781252
 20
29.60037015283979
 30
0.0
 11
588.8845469049072
 21
29.60037015283979
 31
0.0
  0
LINE
  5
D925
330
18
100
AcDbEntity
  8
DIM
  6
Continuous
 62
    22
100
AcDbLine
 10
588.8845469049072
 20
29.60037015283979
 30
0.0
 11
588.8845469049072
 21
31.29078426496517
 31
0.0
  0
LINE
  5
D926
330
18
100
AcDbEntity
  8
DIM
  6
Continuous
 62
    22
100
AcDbLine
 10
588.8845469049072
 20
31.29078426496517
 30
0.0
 11
587.4758684781252
 21
31.29078426496517
 31
0.0
  0
LINE
  5
D927
330
18
100
AcDbEntity
  8
DIM
  6
Continuous
 62
    22
100
AcDbLine
 10
587.4758684781252
 20
31.29078426496517
 30
0.0
 11
587.4758684781252
 21
32.91076445577164
 31
0.0
  0
LINE
  5
D928
330
18
100
AcDbEntity
  8
DIM
  6
Continuous
 62
    22
100
AcDbLine
 10
587.4758684781252
 20
32.91076445577164
 30
0.0
 11
589.5888861182984
 21
32.91076445577164
 31
0.0
  0
LINE
  5
D929
330
18
100
AcDbEntity
  8
DIM
  6
Continuous
 62
    22
100
AcDbLine
 10
589.5888861182984
 20
32.91076445577164
 30
0.0
 11
589.5888861182984
 21
32.20642524237974
 31
0.0
  0
LINE
  5
D92A
330
18
100
AcDbEntity
  8
DIM
  6
Continuous
 62
    22
100
AcDbLine
 10
589.5888861182984
 20
32.20642524237974
 30
0.0
 11
591.7019037584714
 21
32.20642524237974
 31
0.0
  0
LINE
  5
D92B
330
18
100
AcDbEntity
  8
DIM
  6
Continuous
 62
    22
100
AcDbLine
 10
591.7019037584714
 20
32.20642524237974
 30
0.0
 11
591.7019037584714
 21
35.02378209592962
 31
0.0
  0
LINE
  5
D92C
330
18
100
AcDbEntity
  8
DIM
  6
Continuous
 62
    22
100
AcDbLine
 10
591.7019037584714
 20
35.02378209592962
 30
0.0
 11
583.249833197779
 21
35.02378209592962
 31
0.0
  0
LINE
  5
D92D
330
18
100
AcDbEntity
  8
DIM
  6
Continuous
 62
    22
100
AcDbLine
 10
583.2987471684841
 20
34.99638605292694
 30
0.0
 11
583.2987471684841
 21
32.91076445577164
 31
0.0
  0
LINE
  5
D92E
330
18
100
AcDbEntity
  8
DIM
  6
Continuous
 62
    22
100
AcDbLine
 10
583.3606984190569
 20
32.86002776289297
 30
0.0
 11
584.2998173702449
 21
32.86002776289297
 31
0.0
  0
ARC
  5
D92F
330
18
100
AcDbEntity
  8
DIM
  6
Continuous
 62
    22
100
AcDbCircle
 10
597.3366174655995
 20
32.20642524237974
 30
0.0
 40
0.7043392133903155
100
AcDbArc
 50
270.000019318661
 51
89.99998633946532
  0
LINE
  5
D930
330
18
100
AcDbEntity
  8
DIM
  6
Continuous
 62
    22
100
AcDbLine
 10
597.3366176335185
 20
32.91076445577164
 30
0.0
 11
596.6322782522088
 21
32.91076445577164
 31
0.0
  0
LINE
  5
D931
330
18
100
AcDbEntity
  8
DIM
  6
Continuous
 62
    22
100
AcDbLine
 10
596.6322782522088
 20
32.91076445577164
 30
0.0
 11
596.6322782522088
 21
31.50208602898988
 31
0.0
  0
LINE
  5
D932
330
18
100
AcDbEntity
  8
DIM
  6
Continuous
 62
    22
100
AcDbLine
 10
596.6322782522088
 20
31.50208602898988
 30
0.0
 11
597.3366174655995
 21
31.50208602898988
 31
0.0
  0
LINE
  5
D933
330
18
100
AcDbEntity
  8
DIM
  6
Continuous
 62
    22
100
AcDbLine
 10
593.1105821852534
 20
27.98038996203354
 30
0.0
 11
592.4062429718626
 21
27.98038996203354
 31
0.0
  0
LINE
  5
D934
330
18
100
AcDbEntity
  8
DIM
  6
Continuous
 62
    22
100
AcDbLine
 10
592.4062429718626
 20
27.98038996203354
 30
0.0
 11
593.1105821852534
 21
27.98038996203354
 31
0.0
  0
LINE
  5
D935
330
18
100
AcDbEntity
  8
DIM
  6
Continuous
 62
    22
100
AcDbLine
 10
593.1105821852534
 20
27.98038996203354
 30
0.0
 11
593.1105821852534
 21
32.91076445577164
 31
0.0
  0
LINE
  5
D936
330
18
100
AcDbEntity
  8
DIM
  6
Continuous
 62
    22
100
AcDbLine
 10
593.1105821852534
 20
32.91076445577164
 30
0.0
 11
592.4062429718626
 21
32.91076445577164
 31
0.0
  0
LINE
  5
D937
330
18
100
AcDbEntity
  8
DIM
  6
Continuous
 62
    22
100
AcDbLine
 10
592.4062429718626
 20
32.91076445577164
 30
0.0
 11
592.4062429718626
 21
35.02378209592962
 31
0.0
  0
LINE
  5
D938
330
18
100
AcDbEntity
  8
DIM
  6
Continuous
 62
    22
100
AcDbLine
 10
592.4062429718626
 20
35.02378209592962
 30
0.0
 11
598.9262175429978
 21
35.02378209592962
 31
0.0
  0
ARC
  5
D939
330
18
100
AcDbEntity
  8
DIM
  6
Continuous
 62
    22
100
AcDbCircle
 10
599.1634225649574
 20
32.46441994747056
 30
0.0
 40
2.570330879366269
100
AcDbArc
 50
299.3919370093868
 51
95.29512076164321
  0
LINE
  5
D93A
330
18
100
AcDbEntity
  8
DIM
  6
Continuous
 62
    22
100
AcDbLine
 10
600.4248925009979
 20
30.22493464276249
 30
0.0
 11
601.2104831392198
 21
27.98038996203354
 31
0.0
  0
LINE
  5
D93B
330
18
100
AcDbEntity
  8
DIM
  6
Continuous
 62
    22
100
AcDbLine
 10
601.2104831392198
 20
27.98038996203354
 30
0.0
 11
601.9148223526106
 21
27.98038996203354
 31
0.0
  0
LINE
  5
D93C
330
18
100
AcDbEntity
  8
DIM
  6
Continuous
 62
    22
100
AcDbLine
 10
601.9148223526106
 20
27.98038996203354
 30
0.0
 11
601.9148223526106
 21
25.86737232186056
 31
0.0
  0
LINE
  5
D93D
330
18
100
AcDbEntity
  8
DIM
  6
Continuous
 62
    22
100
AcDbLine
 10
601.9148223526106
 20
25.86737232186056
 30
0.0
 11
598.8157298137025
 21
25.86737232186056
 31
0.0
  0
LINE
  5
D93E
330
18
100
AcDbEntity
  8
DIM
  6
Continuous
 62
    22
100
AcDbLine
 10
598.8157298137025
 20
25.86737232186056
 30
0.0
 11
597.3366174655995
 21
30.09340760220676
 31
0.0
  0
LINE
  5
D93F
330
18
100
AcDbEntity
  8
DIM
  6
Continuous
 62
    22
100
AcDbLine
 10
597.3366174655995
 20
30.09340760220676
 30
0.0
 11
596.6322782522088
 21
30.09340760220676
 31
0.0
  0
LINE
  5
D940
330
18
100
AcDbEntity
  8
DIM
  6
Continuous
 62
    22
100
AcDbLine
 10
596.6322782522088
 20
30.09340760220676
 30
0.0
 11
596.6322782522088
 21
27.98038996203354
 31
0.0
  0
LINE
  5
D941
330
18
100
AcDbEntity
  8
DIM
  6
Continuous
 62
    22
100
AcDbLine
 10
596.6322782522088
 20
27.98038996203354
 30
0.0
 11
597.3366174655995
 21
27.98038996203354
 31
0.0
  0
LINE
  5
D942
330
18
100
AcDbEntity
  8
DIM
  6
Continuous
 62
    22
100
AcDbLine
 10
597.3366174655995
 20
27.98038996203354
 30
0.0
 11
597.3366174655995
 21
25.86737232186056
 31
0.0
  0
LINE
  5
D943
330
18
100
AcDbEntity
  8
DIM
  6
Continuous
 62
    22
100
AcDbLine
 10
597.3366174655995
 20
25.86737232186056
 30
0.0
 11
592.4062429718626
 21
25.86737232186056
 31
0.0
  0
LINE
  5
D944
330
18
100
AcDbEntity
  8
DIM
  6
Continuous
 62
    22
100
AcDbLine
 10
592.4062429718626
 20
25.86737232186056
 30
0.0
 11
592.4062429718626
 21
27.98038996203354
 31
0.0
  0
LINE
  5
D945
330
18
100
AcDbEntity
  8
DIM
  6
Continuous
 62
    22
100
AcDbLine
 10
582.5454939843877
 20
20.58482822144333
 30
0.0
 11
602.2669919593369
 21
20.58482822144333
 31
0.0
  0
LINE
  5
D946
330
18
100
AcDbEntity
  8
DIM
  6
Continuous
 62
    22
100
AcDbLine
 10
602.2669919593369
 20
20.58482822144333
 30
0.0
 11
602.2669919593369
 21
40.30632619636162
 31
0.0
  0
LINE
  5
D947
330
18
100
AcDbEntity
  8
DIM
  6
Continuous
 62
    22
100
AcDbLine
 10
602.2669919593369
 20
40.30632619636162
 30
0.0
 11
582.5454939843877
 21
40.30632619636162
 31
0.0
  0
LINE
  5
D948
330
18
100
AcDbEntity
  8
DIM
  6
Continuous
 62
    22
100
AcDbLine
 10
582.5454939843877
 20
40.30632619636162
 30
0.0
 11
582.5454939843877
 21
20.58482822144333
 31
0.0
  0
LINE
  5
D949
330
18
100
AcDbEntity
  8
DIM
  6
Continuous
 62
    22
100
AcDbLine
 10
623.7493379677328
 20
32.91076445577164
 30
0.0
 11
623.7493379677328
 21
35.02378209592962
 31
0.0
  0
LINE
  5
D94A
330
18
100
AcDbEntity
  8
DIM
  6
Continuous
 62
    22
100
AcDbLine
 10
623.7493379677328
 20
35.02378209592962
 30
0.0
 11
628.6797124614703
 21
35.02378209592962
 31
0.0
  0
LINE
  5
D94B
330
18
100
AcDbEntity
  8
DIM
  6
Continuous
 62
    22
100
AcDbLine
 10
628.6797124614703
 20
35.02378209592962
 30
0.0
 11
628.6797124614703
 21
32.91076445577164
 31
0.0
  0
LINE
  5
D94C
330
18
100
AcDbEntity
  8
DIM
  6
Continuous
 62
    22
100
AcDbLine
 10
628.6797124614703
 20
32.91076445577164
 30
0.0
 11
627.9753732480791
 21
32.91076445577164
 31
0.0
  0
LINE
  5
D94D
330
18
100
AcDbEntity
  8
DIM
  6
Continuous
 62
    22
100
AcDbLine
 10
627.9753732480791
 20
32.91076445577164
 30
0.0
 11
627.9753732480791
 21
30.99602562156543
 31
0.0
  0
LINE
  5
D94E
330
18
100
AcDbEntity
  8
DIM
  6
Continuous
 62
    22
100
AcDbLine
 10
627.9753732480791
 20
30.99602562156543
 30
0.0
 11
629.7362212815258
 21
32.91076445577164
 31
0.0
  0
LINE
  5
D94F
330
18
100
AcDbEntity
  8
DIM
  6
Continuous
 62
    22
100
AcDbLine
 10
629.7362212815258
 20
32.91076445577164
 30
0.0
 11
629.031882068135
 21
32.91076445577164
 31
0.0
  0
LINE
  5
D950
330
18
100
AcDbEntity
  8
DIM
  6
Continuous
 62
    22
100
AcDbLine
 10
629.031882068135
 20
32.91076445577164
 30
0.0
 11
629.031882068135
 21
35.02378209592962
 31
0.0
  0
LINE
  5
D951
330
18
100
AcDbEntity
  8
DIM
  6
Continuous
 62
    22
100
AcDbLine
 10
629.031882068135
 20
35.02378209592962
 30
0.0
 11
633.2579173484812
 21
35.02378209592962
 31
0.0
  0
LINE
  5
D952
330
18
100
AcDbEntity
  8
DIM
  6
Continuous
 62
    22
100
AcDbLine
 10
633.2579173484812
 20
35.02378209592962
 30
0.0
 11
633.2579173484812
 21
32.91076445577164
 31
0.0
  0
LINE
  5
D953
330
18
100
AcDbEntity
  8
DIM
  6
Continuous
 62
    22
100
AcDbLine
 10
633.2579173484812
 20
32.91076445577164
 30
0.0
 11
632.5535781350899
 21
32.91076445577164
 31
0.0
  0
LINE
  5
D954
330
18
100
AcDbEntity
  8
DIM
  6
Continuous
 62
    22
100
AcDbLine
 10
632.5535781350899
 20
32.91076445577164
 30
0.0
 11
630.8490366612318
 21
31.05725314050551
 31
0.0
  0
LINE
  5
D955
330
18
100
AcDbEntity
  8
DIM
  6
Continuous
 62
    22
100
AcDbLine
 10
630.8490366612318
 20
31.05725314050551
 30
0.0
 11
632.9057477417546
 21
27.98038996203354
 31
0.0
  0
LINE
  5
D956
330
18
100
AcDbEntity
  8
DIM
  6
Continuous
 62
    22
100
AcDbLine
 10
632.9057477417546
 20
27.98038996203354
 30
0.0
 11
633.6100869552076
 21
27.98038996203354
 31
0.0
  0
LINE
  5
D957
330
18
100
AcDbEntity
  8
DIM
  6
Continuous
 62
    22
100
AcDbLine
 10
633.6100869552076
 20
27.98038996203354
 30
0.0
 11
633.6100869552076
 21
25.86737232186056
 31
0.0
  0
LINE
  5
D958
330
18
100
AcDbEntity
  8
DIM
  6
Continuous
 62
    22
100
AcDbLine
 10
633.6100869552076
 20
25.86737232186056
 30
0.0
 11
629.031882068135
 21
25.86737232186056
 31
0.0
  0
LINE
  5
D959
330
18
100
AcDbEntity
  8
DIM
  6
Continuous
 62
    22
100
AcDbLine
 10
629.031882068135
 20
25.86737232186056
 30
0.0
 11
629.031882068135
 21
27.98038996203354
 31
0.0
  0
LINE
  5
D95A
330
18
100
AcDbEntity
  8
DIM
  6
Continuous
 62
    22
100
AcDbLine
 10
629.031882068135
 20
27.98038996203354
 30
0.0
 11
629.7362212815258
 21
27.98038996203354
 31
0.0
  0
LINE
  5
D95B
330
18
100
AcDbEntity
  8
DIM
  6
Continuous
 62
    22
100
AcDbLine
 10
629.7362212815258
 20
27.98038996203354
 30
0.0
 11
627.9753732480791
 21
30.61463865562632
 31
0.0
  0
LINE
  5
D95C
330
18
100
AcDbEntity
  8
DIM
  6
Continuous
 62
    22
100
AcDbLine
 10
627.9753732480791
 20
30.61463865562632
 30
0.0
 11
627.9753732480791
 21
27.98038996203354
 31
0.0
  0
LINE
  5
D95D
330
18
100
AcDbEntity
  8
DIM
  6
Continuous
 62
    22
100
AcDbLine
 10
627.9753732480791
 20
27.98038996203354
 30
0.0
 11
628.6797124614703
 21
27.98038996203354
 31
0.0
  0
LINE
  5
D95E
330
18
100
AcDbEntity
  8
DIM
  6
Continuous
 62
    22
100
AcDbLine
 10
628.6797124614703
 20
27.98038996203354
 30
0.0
 11
628.6797124614703
 21
25.86737232186056
 31
0.0
  0
LINE
  5
D95F
330
18
100
AcDbEntity
  8
DIM
  6
Continuous
 62
    22
100
AcDbLine
 10
628.6797124614703
 20
25.86737232186056
 30
0.0
 11
623.7493379677328
 21
25.86737232186056
 31
0.0
  0
LINE
  5
D960
330
18
100
AcDbEntity
  8
DIM
  6
Continuous
 62
    22
100
AcDbLine
 10
623.7493379677328
 20
25.86737232186056
 30
0.0
 11
623.7493379677328
 21
27.98038996203354
 31
0.0
  0
LINE
  5
D961
330
18
100
AcDbEntity
  8
DIM
  6
Continuous
 62
    22
100
AcDbLine
 10
623.7493379677328
 20
27.98038996203354
 30
0.0
 11
624.453677181124
 21
27.98038996203354
 31
0.0
  0
LINE
  5
D962
330
18
100
AcDbEntity
  8
DIM
  6
Continuous
 62
    22
100
AcDbLine
 10
624.453677181124
 20
27.98038996203354
 30
0.0
 11
624.453677181124
 21
32.91076445577164
 31
0.0
  0
LINE
  5
D963
330
18
100
AcDbEntity
  8
DIM
  6
Continuous
 62
    22
100
AcDbLine
 10
624.453677181124
 20
32.91076445577164
 30
0.0
 11
623.7493379677328
 21
32.91076445577164
 31
0.0
  0
LINE
  5
D964
330
18
100
AcDbEntity
  8
DIM
  6
Continuous
 62
    22
100
AcDbLine
 10
623.7493379677328
 20
32.91076445577164
 30
0.0
 11
624.453677181124
 21
32.91076445577164
 31
0.0
  0
LINE
  5
D965
330
18
100
AcDbEntity
  8
DIM
  6
Continuous
 62
    22
100
AcDbLine
 10
623.3971683610064
 20
40.30632619636162
 30
0.0
 11
623.3971683610064
 21
20.58482822144333
 31
0.0
  0
LINE
  5
D966
330
18
100
AcDbEntity
  8
DIM
  6
Continuous
 62
    22
100
AcDbLine
 10
623.3971683610064
 20
20.58482822144333
 30
0.0
 11
643.1186663359556
 21
20.58482822144333
 31
0.0
  0
LINE
  5
D967
330
18
100
AcDbEntity
  8
DIM
  6
Continuous
 62
    22
100
AcDbLine
 10
643.1186663359556
 20
20.58482822144333
 30
0.0
 11
643.1186663359556
 21
40.30632619636162
 31
0.0
  0
LINE
  5
D968
330
18
100
AcDbEntity
  8
DIM
  6
Continuous
 62
    22
100
AcDbLine
 10
643.1186663359556
 20
40.30632619636162
 30
0.0
 11
623.3971683610064
 21
40.30632619636162
 31
0.0
  0
LINE
  5
D969
330
18
100
AcDbEntity
  8
DIM
  6
Continuous
 62
    22
100
AcDbLine
 10
612.8320801601407
 20
32.91076445577164
 30
0.0
 11
612.8320801601407
 21
35.02378209592962
 31
0.0
  0
LINE
  5
D96A
330
18
100
AcDbEntity
  8
DIM
  6
Continuous
 62
    22
100
AcDbLine
 10
612.8320801601407
 20
35.02378209592962
 30
0.0
 11
616.1525364518857
 21
35.02378209592962
 31
0.0
  0
LINE
  5
D96B
330
18
100
AcDbEntity
  8
DIM
  6
Continuous
 62
    22
100
AcDbLine
 10
616.1525364518857
 20
35.02378209592962
 30
0.0
 11
619.1711330806602
 21
30.79774681559821
 31
0.0
  0
LINE
  5
D96C
330
18
100
AcDbEntity
  8
DIM
  6
Continuous
 62
    22
100
AcDbLine
 10
619.1711330806602
 20
30.79774681559821
 30
0.0
 11
619.1711330806602
 21
32.91076445577164
 31
0.0
  0
LINE
  5
D96D
330
18
100
AcDbEntity
  8
DIM
  6
Continuous
 62
    22
100
AcDbLine
 10
619.1711330806602
 20
32.91076445577164
 30
0.0
 11
618.4667938672694
 21
32.91076445577164
 31
0.0
  0
LINE
  5
D96E
330
18
100
AcDbEntity
  8
DIM
  6
Continuous
 62
    22
100
AcDbLine
 10
618.4667938672694
 20
32.91076445577164
 30
0.0
 11
618.4667938672694
 21
35.02378209592962
 31
0.0
  0
LINE
  5
D96F
330
18
100
AcDbEntity
  8
DIM
  6
Continuous
 62
    22
100
AcDbLine
 10
618.4667938672694
 20
35.02378209592962
 30
0.0
 11
621.9884899342243
 21
35.02378209592962
 31
0.0
  0
LINE
  5
D970
330
18
100
AcDbEntity
  8
DIM
  6
Continuous
 62
    22
100
AcDbLine
 10
621.9884899342243
 20
35.02378209592962
 30
0.0
 11
621.9884899342243
 21
32.91076445577164
 31
0.0
  0
LINE
  5
D971
330
18
100
AcDbEntity
  8
DIM
  6
Continuous
 62
    22
100
AcDbLine
 10
621.9884899342243
 20
32.91076445577164
 30
0.0
 11
621.2841507208331
 21
32.91076445577164
 31
0.0
  0
LINE
  5
D972
330
18
100
AcDbEntity
  8
DIM
  6
Continuous
 62
    22
100
AcDbLine
 10
621.2841507208331
 20
32.91076445577164
 30
0.0
 11
621.2841507208331
 21
25.86737232186056
 31
0.0
  0
LINE
  5
D973
330
18
100
AcDbEntity
  8
DIM
  6
Continuous
 62
    22
100
AcDbLine
 10
621.2841507208331
 20
25.86737232186056
 30
0.0
 11
619.1711330806602
 21
25.86737232186056
 31
0.0
  0
LINE
  5
D974
330
18
100
AcDbEntity
  8
DIM
  6
Continuous
 62
    22
100
AcDbLine
 10
619.1711330806602
 20
25.86737232186056
 30
0.0
 11
615.649437013705
 21
30.79774681559821
 31
0.0
  0
LINE
  5
D975
330
18
100
AcDbEntity
  8
DIM
  6
Continuous
 62
    22
100
AcDbLine
 10
615.649437013705
 20
30.79774681559821
 30
0.0
 11
615.649437013705
 21
27.98038996203354
 31
0.0
  0
LINE
  5
D976
330
18
100
AcDbEntity
  8
DIM
  6
Continuous
 62
    22
100
AcDbLine
 10
615.649437013705
 20
27.98038996203354
 30
0.0
 11
616.3537762270962
 21
27.98038996203354
 31
0.0
  0
LINE
  5
D977
330
18
100
AcDbEntity
  8
DIM
  6
Continuous
 62
    22
100
AcDbLine
 10
616.3537762270962
 20
27.98038996203354
 30
0.0
 11
616.3537762270962
 21
25.86737232186056
 31
0.0
  0
LINE
  5
D978
330
18
100
AcDbEntity
  8
DIM
  6
Continuous
 62
    22
100
AcDbLine
 10
616.3537762270962
 20
25.86737232186056
 30
0.0
 11
612.8320801601407
 21
25.86737232186056
 31
0.0
  0
LINE
  5
D979
330
18
100
AcDbEntity
  8
DIM
  6
Continuous
 62
    22
100
AcDbLine
 10
612.8320801601407
 20
25.86737232186056
 30
0.0
 11
612.8320801601407
 21
27.98038996203354
 31
0.0
  0
LINE
  5
D97A
330
18
100
AcDbEntity
  8
DIM
  6
Continuous
 62
    22
100
AcDbLine
 10
612.8320801601407
 20
27.98038996203354
 30
0.0
 11
613.5364193735319
 21
27.98038996203354
 31
0.0
  0
LINE
  5
D97B
330
18
100
AcDbEntity
  8
DIM
  6
Continuous
 62
    22
100
AcDbLine
 10
613.5364193735319
 20
27.98038996203354
 30
0.0
 11
613.5364193735319
 21
32.91076445577164
 31
0.0
  0
LINE
  5
D97C
330
18
100
AcDbEntity
  8
DIM
  6
Continuous
 62
    22
100
AcDbLine
 10
613.5364193735319
 20
32.91076445577164
 30
0.0
 11
612.8320801601407
 21
32.91076445577164
 31
0.0
  0
LINE
  5
D97D
330
18
100
AcDbEntity
  8
DIM
  6
Continuous
 62
    22
100
AcDbLine
 10
612.8320801601407
 20
32.91076445577164
 30
0.0
 11
613.5364193735319
 21
32.91076445577164
 31
0.0
  0
LINE
  5
D97E
330
18
100
AcDbEntity
  8
DIM
  6
Continuous
 62
    22
100
AcDbLine
 10
633.962256561872
 20
27.98038996203354
 30
0.0
 11
634.666595775263
 21
27.98038996203354
 31
0.0
  0
LINE
  5
D97F
330
18
100
AcDbEntity
  8
DIM
  6
Continuous
 62
    22
100
AcDbLine
 10
634.666595775263
 20
27.98038996203354
 30
0.0
 11
633.962256561872
 21
27.98038996203354
 31
0.0
  0
LINE
  5
D980
330
18
100
AcDbEntity
  8
DIM
  6
Continuous
 62
    22
100
AcDbLine
 10
633.962256561872
 20
27.98038996203354
 30
0.0
 11
633.962256561872
 21
25.86737232186056
 31
0.0
  0
LINE
  5
D981
330
18
100
AcDbEntity
  8
DIM
  6
Continuous
 62
    22
100
AcDbLine
 10
633.962256561872
 20
25.86737232186056
 30
0.0
 11
642.4143271225648
 21
25.86737232186056
 31
0.0
  0
LINE
  5
D982
330
18
100
AcDbEntity
  8
DIM
  6
Continuous
 62
    22
100
AcDbLine
 10
642.4143271225648
 20
25.86737232186056
 30
0.0
 11
642.4143271225648
 21
28.68472917542522
 31
0.0
  0
LINE
  5
D983
330
18
100
AcDbEntity
  8
DIM
  6
Continuous
 62
    22
100
AcDbLine
 10
642.4143271225648
 20
28.68472917542522
 30
0.0
 11
640.3013094823917
 21
28.68472917542522
 31
0.0
  0
LINE
  5
D984
330
18
100
AcDbEntity
  8
DIM
  6
Continuous
 62
    22
100
AcDbLine
 10
640.3013094823917
 20
28.68472917542522
 30
0.0
 11
640.3013094823917
 21
27.98038996203354
 31
0.0
  0
LINE
  5
D985
330
18
100
AcDbEntity
  8
DIM
  6
Continuous
 62
    22
100
AcDbLine
 10
640.3013094823917
 20
27.98038996203354
 30
0.0
 11
638.1882918422186
 21
27.98038996203354
 31
0.0
  0
LINE
  5
D986
330
18
100
AcDbEntity
  8
DIM
  6
Continuous
 62
    22
100
AcDbLine
 10
638.1882918422186
 20
27.98038996203354
 30
0.0
 11
638.1882918422186
 21
29.60037015283979
 31
0.0
  0
LINE
  5
D987
330
18
100
AcDbEntity
  8
DIM
  6
Continuous
 62
    22
100
AcDbLine
 10
638.1882918422186
 20
29.60037015283979
 30
0.0
 11
639.5969702690006
 21
29.60037015283979
 31
0.0
  0
LINE
  5
D988
330
18
100
AcDbEntity
  8
DIM
  6
Continuous
 62
    22
100
AcDbLine
 10
639.5969702690006
 20
29.60037015283979
 30
0.0
 11
639.5969702690006
 21
31.29078426496517
 31
0.0
  0
LINE
  5
D989
330
18
100
AcDbEntity
  8
DIM
  6
Continuous
 62
    22
100
AcDbLine
 10
639.5969702690006
 20
31.29078426496517
 30
0.0
 11
638.1882918422186
 21
31.29078426496517
 31
0.0
  0
LINE
  5
D98A
330
18
100
AcDbEntity
  8
DIM
  6
Continuous
 62
    22
100
AcDbLine
 10
638.1882918422186
 20
31.29078426496517
 30
0.0
 11
638.1882918422186
 21
32.91076445577164
 31
0.0
  0
LINE
  5
D98B
330
18
100
AcDbEntity
  8
DIM
  6
Continuous
 62
    22
100
AcDbLine
 10
638.1882918422186
 20
32.91076445577164
 30
0.0
 11
640.3013094823917
 21
32.91076445577164
 31
0.0
  0
LINE
  5
D98C
330
18
100
AcDbEntity
  8
DIM
  6
Continuous
 62
    22
100
AcDbLine
 10
640.3013094823917
 20
32.91076445577164
 30
0.0
 11
640.3013094823917
 21
32.20642524237974
 31
0.0
  0
LINE
  5
D98D
330
18
100
AcDbEntity
  8
DIM
  6
Continuous
 62
    22
100
AcDbLine
 10
640.3013094823917
 20
32.20642524237974
 30
0.0
 11
642.4143271225648
 21
32.20642524237974
 31
0.0
  0
LINE
  5
D98E
330
18
100
AcDbEntity
  8
DIM
  6
Continuous
 62
    22
100
AcDbLine
 10
642.4143271225648
 20
32.20642524237974
 30
0.0
 11
642.4143271225648
 21
35.02378209592962
 31
0.0
  0
LINE
  5
D98F
330
18
100
AcDbEntity
  8
DIM
  6
Continuous
 62
    22
100
AcDbLine
 10
642.4143271225648
 20
35.02378209592962
 30
0.0
 11
633.962256561872
 21
35.02378209592962
 31
0.0
  0
LINE
  5
D990
330
18
100
AcDbEntity
  8
DIM
  6
Continuous
 62
    22
100
AcDbLine
 10
633.962256561872
 20
35.02378209592962
 30
0.0
 11
633.962256561872
 21
32.91076445577164
 31
0.0
  0
LINE
  5
D991
330
18
100
AcDbEntity
  8
DIM
  6
Continuous
 62
    22
100
AcDbLine
 10
633.962256561872
 20
32.91076445577164
 30
0.0
 11
634.666595775263
 21
32.91076445577164
 31
0.0
  0
LINE
  5
D992
330
18
100
AcDbEntity
  8
DIM
  6
Continuous
 62
    22
100
AcDbLine
 10
634.666595775263
 20
32.91076445577164
 30
0.0
 11
634.666595775263
 21
27.98038996203354
 31
0.0
  0
TEXT
  5
D993
330
18
100
AcDbEntity
  8
P-0000
  6
Continuous
 62
    22
100
AcDbText
 10
549.8464840337546
 20
313.0968620064213
 30
0.0
 40
6.696526051202761
  1
CUT-OUT TEMPLATE FOR RBG110
  7
Franke
100
AcDbText
1001
TOP
1070
     1
  0
MTEXT
  5
D994
330
18
100
AcDbEntity
  8
DIM
  6
Continuous
 62
    22
100
AcDbMText
 10
584.009384350604
 20
-7.733647815956828
 30
0.0
 40
5.022394538402071
 41
74.09365619278912
 46
0.0
 71
     7
 72
     5
  1
Questions?  Call Franke Customer Service USA 1-800-626-5771
  7
Franke
 73
     2
 44
0.9035999999999999
1001
TOP
1070
    22
  0
CIRCLE
  5
DB52
330
18
100
AcDbEntity
  8
0
100
AcDbCircle
 10
613.3629562686232
 20
144.625753158874
 30
0.0
 40
201.61275
  0
DIMENSION
  5
DC36
330
18
100
AcDbEntity
  8
0
100
AcDbDimension
280
     0
  2
*D3
 10
826.9224726373321
 20
138.2593911619887
 30
0.0
 11
776.4186329227015
 21
138.2084622941093
 31
0.0
 70
    36
  1
D 15-7/8"
 71
     5
 42
11.99999999999988
 73
     0
 74
     0
 75
     0
  3
Lead of KS-STANDARD
100
AcDbRadialDimension
 15
814.9224787387417
 25
138.2472901790284
 35
0.0
 40
0.0
1001
ACAD_DSTYLE_DIMRADIAL_EXTENSION
1070
   387
1070
     1
1070
   388
1040
3.141592653589793
1070
   390
1040
4.712388980384689
1001
ACAD_DSTYLE_DIMINSPECT
1070
   396
1000
100%
1070
   395
1000

1070
   394
1070
    33
1070
   393
1070
     0
1001
ACAD
1000
DSTYLE
1002
{
1070
   140
1040
0.75
1070
   176
1070
     1
1070
   178
1070
     1
1070
   288
1070
     1
1002
}
  0
MTEXT
  5
DD82
330
18
100
AcDbEntity
  8
P-0000
  6
Continuous
 62
    22
100
AcDbMText
 10
594.2665933706507
 20
-46.75278567857731
 30
0.0
 40
5.022394538402071
 41
74.09365619278912
 46
0.0
 71
     7
 72
     5
  1
TEM-RBG110
  7
Franke
 73
     2
 44
0.9035999999999999
1001
TOP
1070
    22
  0
MTEXT
  5
DDBC
102
{ACAD_XDICTIONARY
360
DDBD
102
}
330
18
100
AcDbEntity
  8
P-0000
  6
Continuous
 62
    22
100
AcDbMText
 10
497.5090911542909
 20
276.2414140151038
 30
0.0
 40
5.5
 41
228.7030505324378
 46
0.0
 71
     1
 72
     5
  3
\pi-16.5,l16.5,t16.5;Any deviation from this template could prevent the homeowner from being able to\Puse the Franke custom fit accessories that match this sink, so we strongly\Precommend following this cutout template.\P\PClosely follow installation
  3
 instructions before making any cuts to countertop\P\PThis template file, like any template, is meant to be a guideline.  The actual sink\Pand accessories should ALWAYS be present to ensure a perfect cut.\P\pi0,l0,tz;\PFRANKE IS NOT RESPONSIBLE FOR A
  1
N IMPROPERLY CUT COUNTERTOP OR \PAN IMPROPER INSTALLATION\P
  7
Franke
 73
     1
 44
1.0
1001
ACAD
1000
ACAD_MTEXT_COLUMN_INFO_BEGIN
1070
    75
1070
     2
1070
    79
1070
     0
1070
    76
1070
     1
1070
    78
1070
     0
1070
    48
1040
228.7030505324378
1070
    49
1040
15.0
1070
    50
1070
     1
1040
163.6401225953889
1000
ACAD_MTEXT_COLUMN_INFO_END
  0
VIEWPORT
  5
3D
330
15
100
AcDbEntity
 67
     1
  8
0
100
AcDbViewport
 10
525.3574896388703
 20
279.7201830708076
 30
0.0
 40
1147.584716722809
 41
563.9100357200889
 68
     1
 69
     1
 12
525.3574896388703
 22
279.7201830708076
 13
0.0
 23
0.0
 14
0.5
 24
0.5
 15
0.5
 25
0.5
 16
0.0
 26
0.0
 36
1.0
 17
0.0
 27
0.0
 37
0.0
 42
50.0
 43
0.0
 44
0.0
 45
563.9100357200889
 50
0.0
 51
0.0
 72
   100
 90
    32800
  1

281
     0
 71
     1
 74
     0
110
0.0
120
0.0
130
0.0
111
1.0
121
0.0
131
0.0
112
0.0
122
1.0
132
0.0
 79
     0
146
0.0
170
     0
 61
     5
348
CD42
292
     1
282
     1
141
0.0
142
0.0
 63
   250
421
  3355443
1001
GENIUS_GENSCREG_15
1000
PF
1040
1.0
1000
DF
1040
1.0
1000
MIN
1011
-48.43486872253447
1021
-2.234834789236856
1031
0.0
1000
MAX
1011
1099.149848000275
1021
561.675200930852
1031
0.0
1000
FLAGS
1070
     4
1001
GENIUS_GENOBJ-N-SDF_13
1002
{
1000
OWNER
1000
GEN
1002
}
1001
GENIUS_GENODEF_13
1002
{
1000
HIER
1070
     0
1002
}
1002
{
1000
MANEDIT
1070
     0
1002
}
1002
{
1000
NOSEL
1070
     0
1002
}
1002
{
1000
BEHIND
1070
     0
1002
}
1002
{
1000
OTHER
1070
     0
1002
}
1002
{
1000
REACTOR
1002
}
  0
VIEWPORT
  5
91
330
15
100
AcDbEntity
 67
     1
  8
VP
100
AcDbViewport
 10
413.0
 20
268.0
 30
0.0
 40
826.0
 41
536.0
 68
     2
 69
     2
 12
809.9155162121803
 22
41.22690202141052
 13
0.0
 23
0.0
 14
0.5
 24
0.5
 15
0.5
 25
0.5
 16
0.0
 26
0.0
 36
1.0
 17
0.0
 27
0.0
 37
0.0
 42
50.0
 43
0.0
 44
0.0
 45
1072.000000219303
 50
0.0
 51
0.0
 72
   100
 90
    32800
  1

281
     0
 71
     1
 74
     0
110
0.0
120
0.0
130
0.0
111
1.0
121
0.0
131
0.0
112
0.0
122
1.0
132
0.0
 79
     0
146
0.0
170
     0
 61
     5
348
CD42
292
     1
282
     1
141
0.0
142
0.0
 63
   250
421
  3355443
1001
GENIUS_GENSCREG_15
1000
PF
1040
0.0
1000
DF
1040
0.0
1000
MIN
1011
0.0
1021
0.0
1031
0.0
1000
MAX
1011
826.0
1021
536.0
1031
0.0
1000
FLAGS
1070
     4
1001
GENIUS_GENOBJ-N-SDF_13
1002
{
1000
OWNER
1000
GEN
1002
}
1001
GENIUS_GENODEF_13
1002
{
1000
HIER
1070
     0
1002
}
1002
{
1000
MANEDIT
1070
     0
1002
}
1002
{
1000
NOSEL
1070
     0
1002
}
1002
{
1000
BEHIND
1070
     0
1002
}
1002
{
1000
OTHER
1070
     0
1002
}
1002
{
1000
REACTOR
1002
}
  0
TEXT
  5
C3
330
15
100
AcDbEntity
 67
     1
  8
SHEET
100
AcDbText
 10
643.6074401272232
 20
29.1462164538458
 30
0.0
 40
7.0
  1
CARRON PHOENIX LIMITED
 41
1.25
  7
TITLE
100
AcDbText
  0
TEXT
  5
C4
330
15
100
AcDbEntity
 67
     1
  8
SHEET
100
AcDbText
 10
686.277084038376
 20
9.996084583200172
 30
0.0
 40
3.0
  1
T. PATON
100
AcDbText
  0
TEXT
  5
C5
330
15
100
AcDbEntity
 67
     1
  8
SHEET
100
AcDbText
 10
632.8414978404748
 20
9.996084583200172
 30
0.0
 40
3.0
  1
SCALE
100
AcDbText
  0
TEXT
  5
C6
330
15
100
AcDbEntity
 67
     1
  8
SHEET
100
AcDbText
 10
661.9584781159993
 20
20.99891592694101
 30
0.0
 40
4.0
  1
FALKIRK
 41
1.25
  7
TITLE
100
AcDbText
  0
TEXT
  5
C7
330
15
100
AcDbEntity
 67
     1
  8
SHEET
100
AcDbText
 10
660.8840537883387
 20
9.996084583200172
 30
0.0
 40
3.0
  1
DRN.
100
AcDbText
  0
TEXT
  5
C8
330
15
100
AcDbEntity
 67
     1
  8
SHEET
100
AcDbText
 10
741.4796427340283
 20
20.99891592694101
 30
0.0
 40
4.0
  1
SCOTLAND
 41
1.25
  7
TITLE
100
AcDbText
  0
TEXT
  5
C9
330
15
100
AcDbEntity
 67
     1
  8
SHEET
100
AcDbText
 10
742.6114569712799
 20
9.996084583200172
 30
0.0
 40
3.0
  1
09/02/15
100
AcDbText
  0
TEXT
  5
CA
330
15
100
AcDbEntity
 67
     1
  8
SHEET
100
AcDbText
 10
718.9266097362026
 20
9.996084583200172
 30
0.0
 40
3.0
  1
DATE
100
AcDbText
  0
TEXT
  5
CB
330
15
100
AcDbEntity
 67
     1
  8
SHEET
100
AcDbText
 10
768.4372487231684
 20
9.996084583200172
 30
0.0
 40
3.0
  1
DWG. No.
100
AcDbText
  0
TEXT
  5
CD
330
15
100
AcDbEntity
 67
     1
  8
SHEET
100
AcDbText
 10
709.7100550756517
 20
55.45675693379303
 30
0.0
 40
8.0
  1
ROG 110
  7
TITLE
100
AcDbText
  0
TEXT
  5
CE
330
15
100
AcDbEntity
 67
     1
  8
SHEET
100
AcDbText
 10
628.4372487231686
 20
64.52122657551583
 30
0.0
 40
3.5
  1
TITLE
100
AcDbText
  0
LINE
  5
D0
330
15
100
AcDbEntity
 67
     1
  8
SHEET
100
AcDbLine
 10
626.0
 20
38.0
 30
0.0
 11
826.0
 21
38.0
 31
0.0
  0
LINE
  5
D1
330
15
100
AcDbEntity
 67
     1
  8
SHEET
100
AcDbLine
 10
626.0
 20
16.0
 30
0.0
 11
826.0
 21
16.0
 31
0.0
  0
LINE
  5
D2
330
15
100
AcDbEntity
 67
     1
  8
SHEET
100
AcDbLine
 10
626.0
 20
70.0
 30
0.0
 11
826.0
 21
70.0
 31
0.0
  0
LINE
  5
D3
330
15
100
AcDbEntity
 67
     1
  8
SHEET
100
AcDbLine
 10
626.0
 20
0.0
 30
0.0
 11
626.0
 21
70.0
 31
0.0
  0
LINE
  5
D4
330
15
100
AcDbEntity
 67
     1
  8
SHEET
100
AcDbLine
 10
766.0
 20
8.0
 30
0.0
 11
626.0
 21
8.0
 31
0.0
  0
TEXT
  5
D5
330
15
100
AcDbEntity
 67
     1
  8
SHEET
100
AcDbText
 10
636.0230835199595
 20
1.996084583200172
 30
0.0
 40
3.0
  1
1 : 2
100
AcDbText
  0
LINE
  5
D6
330
15
100
AcDbEntity
 67
     1
  8
SHEET
100
AcDbLine
 10
656.0
 20
16.0
 30
0.0
 11
656.0
 21
0.0
 31
0.0
  0
TEXT
  5
D7
330
15
100
AcDbEntity
 67
     1
  8
SHEET
100
AcDbText
 10
718.9266097362026
 20
1.996084583200172
 30
0.0
 40
3.0
  1
DATE
100
AcDbText
  0
LINE
  5
D8
330
15
100
AcDbEntity
 67
     1
  8
SHEET
100
AcDbLine
 10
716.0
 20
16.0
 30
0.0
 11
716.0
 21
0.0
 31
0.0
  0
LINE
  5
D9
330
15
100
AcDbEntity
 67
     1
  8
SHEET
100
AcDbLine
 10
736.0
 20
16.0
 30
0.0
 11
736.0
 21
0.0
 31
0.0
  0
LINE
  5
DA
330
15
100
AcDbEntity
 67
     1
  8
SHEET
100
AcDbLine
 10
766.0
 20
16.0
 30
0.0
 11
766.0
 21
0.0
 31
0.0
  0
TEXT
  5
14C
330
15
100
AcDbEntity
 67
     1
  8
SHEET
100
AcDbText
 10
394.3111155747608
 20
542.7165616792604
 30
0.0
 40
3.0
  1
UNTOLERANCED DIMENSIONS +/-2
  7
EUROROMAN
100
AcDbText
  0
TEXT
  5
14D
330
15
100
AcDbEntity
 67
     1
  8
SHEET
100
AcDbText
 10
394.3111155747608
 20
547.7165616792603
 30
0.0
 40
3.0
  1
UNLESS OTHERWISE SPECIFIED ALL
  7
EUROROMAN
100
AcDbText
  0
TEXT
  5
170
330
15
100
AcDbEntity
 67
     1
  8
SHEET
100
AcDbText
 10
645.7143374186281
 20
544.5964358029121
 30
0.0
 40
4.0
  1
THIRD ANGLE PROJECTION
 41
1.25
  7
TITLE
100
AcDbText
  0
TEXT
  5
171
330
15
100
AcDbEntity
 67
     1
  8
SHEET
100
AcDbText
 10
482.2548096935725
 20
542.0929519229177
 30
0.0
 40
3.0
  1
UNLESS OTHERWISE SPECIFIED
  7
TITLE
100
AcDbText
  0
TEXT
  5
172
330
15
100
AcDbEntity
 67
     1
  8
SHEET
100
AcDbText
 10
478.2731496697663
 20
547.7365066104174
 30
0.0
 40
3.0
  1
ALL DIMENSIONS IN MILLIMETRES
  7
TITLE
100
AcDbText
  0
TEXT
  5
173
330
15
100
AcDbEntity
 67
     1
  8
SHEET
100
AcDbText
 10
581.9291848841144
 20
542.0929519229177
 30
0.0
 40
3.0
  1
IF IN DOUBT ASK
  7
TITLE
100
AcDbText
  0
TEXT
  5
174
330
15
100
AcDbEntity
 67
     1
  8
SHEET
100
AcDbText
 10
560.6918259577939
 20
547.7365066104174
 30
0.0
 40
3.0
  1
DO NOT SCALE FROM THIS DRAWING
  7
TITLE
100
AcDbText
  0
LINE
  5
175
330
15
100
AcDbEntity
 67
     1
  8
SHEET
100
AcDbLine
 10
776.0
 20
551.4999604751336
 30
0.0
 11
811.0
 21
553.9999604751336
 31
0.0
  0
LINE
  5
176
330
15
100
AcDbEntity
 67
     1
  8
SHEET
  6
CENTER
100
AcDbLine
 10
741.0
 20
546.4999604751336
 30
0.0
 11
816.0
 21
546.4999604751336
 31
0.0
  0
LINE
  5
177
330
15
100
AcDbEntity
 67
     1
  8
SHEET
100
AcDbLine
 10
776.0
 20
541.4999604751336
 30
0.0
 11
811.0
 21
538.9999604751336
 31
0.0
  0
CIRCLE
  5
178
330
15
100
AcDbEntity
 67
     1
  8
SHEET
100
AcDbCircle
 10
751.0
 20
546.4999604751336
 30
0.0
 40
5.0
  0
CIRCLE
  5
179
330
15
100
AcDbEntity
 67
     1
  8
SHEET
100
AcDbCircle
 10
751.0
 20
546.4999604751336
 30
0.0
 40
7.5
  0
LINE
  5
17A
330
15
100
AcDbEntity
 67
     1
  8
SHEET
  6
CENTER
100
AcDbLine
 10
751.0
 20
536.4999604751337
 30
0.0
 11
751.0
 21
556.4999604751336
 31
0.0
  0
LINE
  5
17B
330
15
100
AcDbEntity
 67
     1
  8
SHEET
100
AcDbLine
 10
776.0
 20
541.4999604751336
 30
0.0
 11
776.0
 21
551.4999604751336
 31
0.0
  0
LINE
  5
17C
330
15
100
AcDbEntity
 67
     1
  8
SHEET
100
AcDbLine
 10
811.0
 20
538.9999604751336
 30
0.0
 11
811.0
 21
553.9999604751336
 31
0.0
  0
LINE
  5
1184
330
15
100
AcDbEntity
 67
     1
  8
SHEET
100
AcDbLine
 10
676.0
 20
16.0
 30
0.0
 11
676.0
 21
0.0
 31
0.0
  0
TEXT
  5
2F5D
330
15
100
AcDbEntity
 67
     1
  8
SHEET
100
AcDbText
 10
689.1696353061774
 20
45.22399627243316
 30
0.0
 40
5.0
  1
MACHINE DIMENSIONS
  7
TITLE
100
AcDbText
  0
LINE
  5
4B8C
330
15
100
AcDbEntity
 67
     1
  8
SHEET
100
AcDbLine
 10
48.10977352972173
 20
559.0
 30
0.0
 11
48.10977352972173
 21
534.0
 31
0.0
  0
TEXT
  5
4B8F
330
15
100
AcDbEntity
 67
     1
  8
SHEET
100
AcDbText
 10
0.8543636042879256
 20
544.3549735064748
 30
0.0
 40
4.5
  1
AMENDMENTS
  7
TITLE
100
AcDbText
  0
LINE
  5
4B90
330
15
100
AcDbEntity
 67
     1
  8
SHEET
100
AcDbLine
 10
0.0
 20
559.0
 30
0.0
 11
826.0
 21
559.0
 31
0.0
  0
LINE
  5
4B97
330
15
100
AcDbEntity
 67
     1
  8
SHEET
100
AcDbLine
 10
0.0
 20
534.0
 30
0.0
 11
826.0
 21
534.0
 31
0.0
  0
LINE
  5
4B98
330
15
100
AcDbEntity
 67
     1
  8
SHEET
100
AcDbLine
 10
0.0
 20
0.0
 30
0.0
 11
0.0
 21
559.0
 31
0.0
  0
LINE
  5
4B9A
330
15
100
AcDbEntity
 67
     1
  8
SHEET
100
AcDbLine
 10
826.0
 20
0.0
 30
0.0
 11
826.0
 21
559.0
 31
0.0
  0
LINE
  5
4B9B
330
15
100
AcDbEntity
 67
     1
  8
SHEET
100
AcDbLine
 10
0.0
 20
0.0
 30
0.0
 11
826.0
 21
0.0
 31
0.0
  0
LINE
  5
56E2
330
15
100
AcDbEntity
 67
     1
  8
SHEET
100
AcDbLine
 10
642.2710003186033
 20
533.9999999999998
 30
0.0
 11
642.2710003186031
 21
452.9746235608126
 31
0.0
  0
LINE
  5
577F
330
15
100
AcDbEntity
 67
     1
  8
SHEET
100
AcDbLine
 10
642.2710003186031
 20
452.9746235608126
 30
0.0
 11
826.0
 21
452.9722029394279
 31
0.0
  0
TEXT
  5
5799
330
15
100
AcDbEntity
 67
     1
  8
SHEET
  6
Continuous
100
AcDbText
 10
643.9168054606873
 20
455.4732569250147
 30
0.0
 40
5.0
  1
SCALE 1 : 1
 72
     1
 11
662.2710003186035
 21
455.4732569250147
 31
0.0
100
AcDbText
  0
TEXT
  5
57E6
330
15
100
AcDbEntity
 67
     1
  8
SHEET
100
AcDbText
 10
690.6379054581444
 20
457.6516382710296
 30
0.0
 40
3.75
  1
SECTION B-B
  7
ROMANS
 72
     4
 11
710.0129054581445
 21
459.5266382710295
 31
0.0
100
AcDbText
  0
TEXT
  5
57F3
330
15
100
AcDbEntity
 67
     1
  8
SHEET
100
AcDbText
 10
737.6398327002566
 20
457.7290711934103
 30
0.0
 40
2.5
  1
VIEW OF FOREDGE SECTION
  7
ROMANS
 72
     4
 11
763.7112612716852
 21
458.9790711934102
 31
0.0
100
AcDbText
  0
LINE
  5
5A42
330
15
100
AcDbEntity
 67
     1
  8
DIM
 62
     1
100
AcDbLine
 10
780.7042768091597
 20
509.7027864878675
 30
0.0
 11
794.5929035724154
 21
509.7027864878675
 31
0.0
  0
LINE
  5
5A43
330
15
100
AcDbEntity
 67
     1
  8
DIM
 62
     1
100
AcDbLine
 10
780.7042768091597
 20
501.7027864878675
 30
0.0
 11
794.5929035724154
 21
501.7027864878675
 31
0.0
  0
LINE
  5
5A44
330
15
100
AcDbEntity
 67
     1
  8
DIM
 62
     1
100
AcDbLine
 10
794.4129035724155
 20
514.7027864878675
 30
0.0
 11
794.4129035724155
 21
519.7027864878675
 31
0.0
  0
LINE
  5
5A45
330
15
100
AcDbEntity
 67
     1
  8
DIM
 62
     1
100
AcDbLine
 10
794.4129035724155
 20
496.7027864878676
 30
0.0
 11
794.4129035724155
 21
491.7027864878675
 31
0.0
  0
SOLID
  5
5A47
330
15
100
AcDbEntity
 67
     1
  8
DIM
 62
     1
100
AcDbTrace
 10
793.5795702390821
 20
514.7027864878675
 30
0.0
 11
795.2462369057489
 21
514.7027864878675
 31
0.0
 12
794.4129035724155
 22
509.7027864878675
 32
0.0
 13
794.4129035724155
 23
509.7027864878675
 33
0.0
  0
SOLID
  5
5A48
330
15
100
AcDbEntity
 67
     1
  8
DIM
 62
     1
100
AcDbTrace
 10
793.5795702390821
 20
496.7027864878676
 30
0.0
 11
795.2462369057489
 21
496.7027864878676
 31
0.0
 12
794.4129035724155
 22
501.7027864878675
 32
0.0
 13
794.4129035724155
 23
501.7027864878675
 33
0.0
  0
MTEXT
  5
5A49
330
15
100
AcDbEntity
 67
     1
  8
DIM
  6
ByBlock
 62
     1
100
AcDbMText
 10
795.9059938510781
 20
506.0279548961471
 30
0.0
 40
3.0
 41
0.0
 46
0.0
 71
     5
 72
     5
  1
\A1;8.00\S+2^ -0;
 73
     1
 44
1.0
  0
LINE
  5
5B7C
330
15
100
AcDbEntity
 67
     1
  8
SHEET
100
AcDbLine
 10
103.1097735297217
 20
559.0
 30
0.0
 11
103.1097735297217
 21
534.0
 31
0.0
  0
TEXT
  5
5B7D
330
15
100
AcDbEntity
 67
     1
  8
SHEET
100
AcDbText
 10
49.8179114701345
 20
542.5018345610635
 30
0.0
 40
3.0
  1
TP  ECNXXX  09/02/15
  7
EUROROMAN
100
AcDbText
  0
TEXT
  5
5B7E
330
15
100
AcDbEntity
 67
     1
  8
SHEET
100
AcDbText
 10
49.8179114701345
 20
547.5018345610635
 30
0.0
 40
3.0
  1
ISSUED TO PRODUCTION
  7
EUROROMAN
100
AcDbText
  0
TEXT
  5
5B7F
330
15
100
AcDbEntity
 67
     1
  8
SHEET
100
AcDbText
 10
48.9473677858723
 20
555.6444888966905
 30
0.0
 40
3.0
  1
A
  7
EUROROMAN
100
AcDbText
  0
LINE
  5
5B80
330
15
100
AcDbEntity
 67
     1
  8
SHEET
100
AcDbLine
 10
53.10977352972173
 20
559.0
 30
0.0
 11
53.10977352972173
 21
555.0
 31
0.0
  0
LINE
  5
5B81
330
15
100
AcDbEntity
 67
     1
  8
SHEET
100
AcDbLine
 10
53.10977352972173
 20
555.0
 30
0.0
 11
48.10977352972173
 21
555.0
 31
0.0
  0
TEXT
  5
B32E
330
15
100
AcDbEntity
 67
     1
  8
SHEET
100
AcDbText
 10
792.4529422835921
 20
10.21824047868972
 30
0.0
 40
2.5
  1
ROG110--X
100
AcDbText
  0
LINE
  5
C8C6
330
15
100
AcDbEntity
 67
     1
  8
SINK
100
AcDbLine
 39
0.4
 10
780.2511178163364
 20
503.918323731536
 30
0.0
 11
780.6417768091595
 21
501.7027864878676
 31
0.0
  0
ARC
  5
C8CA
330
15
100
AcDbEntity
 67
     1
  8
SINK
100
AcDbCircle
 39
0.4
 10
773.3574635452509
 20
502.7027864878676
 30
0.0
 40
7.0
100
AcDbArc
 50
9.999999999998609
 51
90.0
  0
LINE
  5
C8CB
330
15
100
AcDbEntity
 67
     1
  8
SINK
100
AcDbLine
 39
0.4
 10
758.2234326792465
 20
509.7027864878676
 30
0.0
 11
773.3574635452509
 21
509.7027864878676
 31
0.0
  0
LINE
  5
C8CC
330
15
100
AcDbEntity
 67
     1
  8
CL
100
AcDbLine
 39
0.4
 10
778.1417768091595
 20
509.7027864878677
 30
0.0
 11
783.1417768091595
 21
509.7027864878676
 31
0.0
  0
LINE
  5
C8CD
330
15
100
AcDbEntity
 67
     1
  8
CL
100
AcDbLine
 39
0.4
 10
780.6417768091595
 20
512.2027864878677
 30
0.0
 11
780.6417768091595
 21
507.2027864878676
 31
0.0
  0
LINE
  5
CFAA
330
15
100
AcDbEntity
 67
     1
  8
SHEET
100
AcDbLine
 10
158.1097735297217
 20
559.0
 30
0.0
 11
158.1097735297217
 21
534.0
 31
0.0
  0
TEXT
  5
CFAB
330
15
100
AcDbEntity
 67
     1
  8
SHEET
100
AcDbText
 10
104.8179114701345
 20
536.1709071481254
 30
0.0
 40
3.0
  1
TP  ECN321  18/02/15
  7
EUROROMAN
100
AcDbText
  0
TEXT
  5
CFAC
330
15
100
AcDbEntity
 67
     1
  8
SHEET
100
AcDbText
 10
104.8179114701345
 20
547.5018345610635
 30
0.0
 40
3.0
  1
FROM 45 DEGREES TO 
  7
EUROROMAN
100
AcDbText
  0
TEXT
  5
CFAD
330
15
100
AcDbEntity
 67
     1
  8
SHEET
100
AcDbText
 10
103.9473677858723
 20
555.6444888966905
 30
0.0
 40
3.0
  1
B
  7
EUROROMAN
100
AcDbText
  0
LINE
  5
CFAE
330
15
100
AcDbEntity
 67
     1
  8
SHEET
100
AcDbLine
 10
108.1097735297217
 20
559.0
 30
0.0
 11
108.1097735297217
 21
555.0
 31
0.0
  0
LINE
  5
CFAF
330
15
100
AcDbEntity
 67
     1
  8
SHEET
100
AcDbLine
 10
108.1097735297217
 20
555.0
 30
0.0
 11
103.1097735297217
 21
555.0
 31
0.0
  0
TEXT
  5
CFB0
330
15
100
AcDbEntity
 67
     1
  8
SHEET
100
AcDbText
 10
104.8179114701345
 20
542.0150312407882
 30
0.0
 40
3.0
  1
HORIZONTAL
  7
EUROROMAN
100
AcDbText
  0
TEXT
  5
CFB1
330
15
100
AcDbEntity
 67
     1
  8
SHEET
100
AcDbText
 10
110.5186936203174
 20
554.1493086728519
 30
0.0
 40
3.0
  1
FLASH CUT CHANGED
  7
EUROROMAN
100
AcDbText
  0
LINE
  5
CFE7
330
15
100
AcDbEntity
 67
     1
  8
SINK
100
AcDbLine
 39
0.4
 10
768.6417768091594
 20
501.7027864878676
 30
0.0
 11
768.6417768091594
 21
499.7027864878675
 31
0.0
  0
LINE
  5
CFEF
330
15
100
AcDbEntity
 67
     1
  8
SINK
100
AcDbLine
 39
0.4
 10
780.6417768091595
 20
501.7027864878676
 30
0.0
 11
768.6417768091595
 21
501.7027864878676
 31
0.0
  0
LINE
  5
CFFF
330
15
100
AcDbEntity
 67
     1
  8
SINK
100
AcDbLine
 39
0.4
 10
753.2424591887878
 20
505.1385652016059
 30
0.0
 11
750.1422302681223
 21
469.7027864878676
 31
0.0
  0
LINE
  5
D001
330
15
100
AcDbEntity
 67
     1
  8
SINK
100
AcDbLine
 39
0.4
 10
750.1422302681223
 20
469.7027864878676
 30
0.0
 11
756.1651492933826
 21
469.7027864878677
 31
0.0
  0
ARC
  5
D003
330
15
100
AcDbEntity
 67
     1
  8
SINK
100
AcDbCircle
 39
0.4
 10
763.3714650692474
 20
494.7027864878676
 30
0.0
 40
5.0
100
AcDbArc
 50
89.99999999999984
 51
175.0
  0
LINE
  5
D004
330
15
100
AcDbEntity
 67
     1
  8
SINK
100
AcDbLine
 39
0.4
 10
763.3714650692474
 20
499.7027864878676
 30
0.0
 11
768.6417768091595
 21
499.7027864878676
 31
0.0
  0
LINE
  5
D005
330
15
100
AcDbEntity
 67
     1
  8
SINK
100
AcDbLine
 39
0.4
 10
758.3904915787886
 20
495.1385652016059
 30
0.0
 11
756.1651492933824
 21
469.7027864878676
 31
0.0
  0
ARC
  5
D02C
330
15
100
AcDbEntity
 67
     1
  8
SINK
100
AcDbCircle
 39
0.4
 10
758.2234326792465
 20
504.7027864878677
 30
0.0
 40
5.0
100
AcDbArc
 50
90.0
 51
175.0
  0
HATCH
  5
D02D
330
15
100
AcDbEntity
 67
     1
  8
HATCH
100
AcDbHatch
 10
0.0
 20
0.0
 30
0.0
210
0.0
220
0.0
230
1.0
  2
ANSI34
 70
     0
 71
     0
 91
        1
 92
        1
 93
       11
 72
     2
 10
763.3714650692474
 20
494.7027864878676
 40
5.0
 50
89.99999999999984
 51
175.0
 73
     1
 72
     1
 10
758.3904915787886
 20
495.1385652016059
 11
756.1651492933824
 21
469.7027864878676
 72
     1
 10
756.1651492933826
 20
469.7027864878677
 11
750.1422302681223
 21
469.7027864878676
 72
     1
 10
750.1422302681223
 20
469.7027864878676
 11
753.2424591887878
 21
505.1385652016059
 72
     2
 10
758.2234326792465
 20
504.7027864878677
 40
5.0
 50
184.9999999999999
 51
270.0
 73
     0
 72
     1
 10
758.2234326792465
 20
509.7027864878676
 11
773.3574635452509
 21
509.7027864878676
 72
     2
 10
773.3574635452509
 20
502.7027864878676
 40
7.0
 50
270.0
 51
350.0000000000014
 73
     0
 72
     1
 10
780.2511178163364
 20
503.918323731536
 11
780.6417768091595
 21
501.7027864878676
 72
     1
 10
780.6417768091595
 20
501.7027864878676
 11
768.6417768091595
 21
501.7027864878676
 72
     1
 10
768.6417768091594
 20
501.7027864878676
 11
768.6417768091594
 21
499.7027864878675
 72
     1
 10
768.6417768091595
 20
499.7027864878676
 11
763.3714650692474
 21
499.7027864878676
 97
        0
 75
     1
 76
     1
 52
0.0
 41
10.0
 77
     0
 78
     4
 53
45.0
 43
0.0
 44
0.0
 45
-5.303300858899105
 46
5.303300858899106
 79
     0
 53
45.0
 43
1.76776695
 44
0.0
 45
-5.303300858899105
 46
5.303300858899106
 79
     0
 53
45.0
 43
3.535533909999999
 44
0.0
 45
-5.303300858899105
 46
5.303300858899106
 79
     0
 53
45.0
 43
5.30330086
 44
0.0
 45
-5.303300858899105
 46
5.303300858899106
 79
     0
 98
        1
 10
0.0
 20
0.0
1001
GradientColor1ACI
1070
     5
1001
GradientColor2ACI
1070
     2
1001
ACAD
1010
0.0
1020
0.0
1030
0.0
  0
ENDSEC
  0
SECTION
  2
OBJECTS
  0
DICTIONARY
  5
C
330
0
100
AcDbDictionary
281
     1
  3
ACAD_CIP_PREVIOUS_PRODUCT_INFO
350
CE3E
  3
ACAD_COLOR
350
CCCA
  3
ACAD_DETAILVIEWSTYLE
350
CE34
  3
ACAD_FIELDLIST
350
D293
  3
ACAD_GROUP
350
D
  3
ACAD_LAYOUT
350
5C1F
  3
ACAD_MATERIAL
350
CCC9
  3
ACAD_MLEADERSTYLE
350
CD72
  3
ACAD_MLINESTYLE
350
1B
  3
ACAD_PLOTSETTINGS
350
5C20
  3
ACAD_PLOTSTYLENAME
350
5C1D
  3
ACAD_SCALELIST
350
CD50
  3
ACAD_SECTIONVIEWSTYLE
350
CE32
  3
ACAD_TABLESTYLE
350
CCCB
  3
ACAD_VISUALSTYLE
350
CD3C
  3
ACDB_RECOMPOSE_DATA
350
DE08
  3
ACDBVARIABLEDICTIONARY
350
2C7C
  3
AcDsDecomposeData
350
DE0E
  3
AcmDictionary
350
D25B
  3
AMG
350
D243
  3
AMGSNAPSETTINGS
350
D2A3
  0
DICTIONARY
  5
CDA0
330
8
100
AcDbDictionary
280
     1
281
     1
  0
DICTIONARY
  5
CCD1
330
2
100
AcDbDictionary
280
     1
281
     1
  3
ACAD_LAYERSTATES
360
CCD2
  0
DICTIONARY
  5
CD7D
330
E
100
AcDbDictionary
280
     1
281
     1
  3
ADSK_XREC_LAYER_RECONCILED
360
CD7E
  0
DICTIONARY
  5
CD7F
330
34
100
AcDbDictionary
280
     1
281
     1
  3
ADSK_XREC_LAYER_RECONCILED
360
CD80
  0
DICTIONARY
  5
CD81
330
36
100
AcDbDictionary
280
     1
281
     1
  3
ADSK_XREC_LAYER_RECONCILED
360
CD82
  0
DICTIONARY
  5
CD83
330
38
100
AcDbDictionary
280
     1
281
     1
  3
ADSK_XREC_LAYER_RECONCILED
360
CD84
  0
DICTIONARY
  5
CD85
330
39
100
AcDbDictionary
280
     1
281
     1
  3
ADSK_XREC_LAYER_RECONCILED
360
CD86
  0
DICTIONARY
  5
CD87
330
1D50
100
AcDbDictionary
280
     1
281
     1
  3
ADSK_XREC_LAYER_RECONCILED
360
CD88
  0
DICTIONARY
  5
CD89
330
43B1
100
AcDbDictionary
280
     1
281
     1
  3
ADSK_XREC_LAYER_RECONCILED
360
CD8A
  0
DICTIONARY
  5
D82A
330
D829
100
AcDbDictionary
280
     1
281
     1
  0
DICTIONARY
  5
982C
330
18
100
AcDbDictionary
280
     1
281
     1
  3
ACAD_LAYOUTSELFREF
360
982D
  3
ACAD_SORTENTS
360
CF1F
  0
DICTIONARY
  5
982A
330
15
100
AcDbDictionary
280
     1
281
     1
  3
ACAD_LAYOUTSELFREF
360
982B
  3
ACAD_SORTENTS
360
CFE8
  0
DICTIONARY
  5
DDBD
330
DDBC
100
AcDbDictionary
280
     1
281
     1
  3
ACAD_MTEXT_2008_RT
360
DE07
  0
XRECORD
  5
CE3E
102
{ACAD_REACTORS
330
C
102
}
330
C
100
AcDbXrecord
280
     1
300
AMECH_PP
300
2014
300
PDSP_F_S
  0
DICTIONARY
  5
CCCA
102
{ACAD_REACTORS
330
C
102
}
330
C
100
AcDbDictionary
281
     1
  0
DICTIONARY
  5
CE34
102
{ACAD_REACTORS
330
C
102
}
330
C
100
AcDbDictionary
281
     1
  3
Imperial24
350
CE35
  3
Metric50
350
D843
  0
FIELDLIST
  5
D293
102
{ACAD_REACTORS
330
C
102
}
330
C
100
AcDbIdSet
 90
        7
330
D291
330
D292
330
D294
330
D295
330
D83C
330
D83D
330
D83E
100
AcDbFieldList
  0
DICTIONARY
  5
D
102
{ACAD_REACTORS
330
C
102
}
330
0
100
AcDbDictionary
281
     1
  0
DICTIONARY
  5
5C1F
102
{ACAD_REACTORS
330
C
102
}
330
C
100
AcDbDictionary
281
     1
  3
Layout1
350
5C22
  3
Model
350
5C21
  0
DICTIONARY
  5
CCC9
102
{ACAD_REACTORS
330
C
102
}
330
C
100
AcDbDictionary
281
     1
  3
ByBlock
350
CD2C
  3
ByLayer
350
CD24
  3
Global
350
CD34
  0
DICTIONARY
  5
CD72
102
{ACAD_REACTORS
330
C
102
}
330
C
100
AcDbDictionary
281
     1
  3
Standard
350
CD73
  0
DICTIONARY
  5
1B
102
{ACAD_REACTORS
330
C
102
}
330
0
100
AcDbDictionary
281
     1
  3
STANDARD
350
1C
  0
DICTIONARY
  5
5C20
102
{ACAD_REACTORS
330
C
102
}
330
C
100
AcDbDictionary
281
     1
  0
ACDBDICTIONARYWDFLT
  5
5C1D
102
{ACAD_REACTORS
330
C
102
}
330
C
100
AcDbDictionary
281
     1
  3
Normal
350
5C1E
100
AcDbDictionaryWithDefault
340
5C1E
  0
DICTIONARY
  5
CD50
102
{ACAD_REACTORS
330
C
102
}
330
C
100
AcDbDictionary
281
     1
  3
A0
350
CD51
  3
A1
350
CD52
  3
A2
350
CD53
  3
A3
350
CD54
  3
A4
350
CD55
  3
A5
350
CD56
  3
A6
350
CD57
  3
A7
350
CD58
  3
A8
350
CD59
  3
A9
350
CD5A
  3
B0
350
CD5B
  3
B1
350
CD5C
  3
B2
350
CD5D
  3
B3
350
CD5E
  3
B4
350
CD5F
  3
B5
350
CD60
  3
B6
350
CD61
  3
B7
350
CD62
  3
B8
350
CD63
  3
B9
350
CD64
  3
C0
350
CD65
  3
C1
350
CD66
  3
C2
350
CD67
  3
C3
350
CD68
  3
C4
350
CD69
  3
C5
350
CD6A
  3
C6
350
CD6B
  3
C7
350
CD6C
  3
C8
350
CD6D
  3
C9
350
CD6E
  3
D0
350
CD6F
  3
D1
350
CD70
  3
D2
350
CD71
  0
DICTIONARY
  5
CE32
102
{ACAD_REACTORS
330
C
102
}
330
C
100
AcDbDictionary
281
     1
  3
Imperial24
350
CE33
  3
Metric50
350
D83F
  0
DICTIONARY
  5
CCCB
102
{ACAD_REACTORS
330
C
102
}
330
C
100
AcDbDictionary
281
     1
  3
Standard
350
CCCC
  0
DICTIONARY
  5
CD3C
102
{ACAD_REACTORS
330
C
102
}
330
C
100
AcDbDictionary
281
     1
  3
2dWireframe
350
CD42
  3
3D Hidden
350
CD44
  3
3dWireframe
350
CD43
  3
Basic
350
CD41
  3
Brighten
350
CD48
  3
ColorChange
350
CD4C
  3
Conceptual
350
CD45
  3
Dim
350
CD47
  3
EdgeColorOff
350
CD4F
  3
Facepattern
350
CD4B
  3
Flat
350
CD3D
  3
FlatWithEdges
350
CD3E
  3
Gouraud
350
CD3F
  3
GouraudWithEdges
350
CD40
  3
Hidden
350
CE2C
  3
JitterOff
350
CD4D
  3
Linepattern
350
CD4A
  3
OverhangOff
350
CD4E
  3
Realistic
350
CD46
  3
Shaded
350
CE31
  3
Shaded with edges
350
CE30
  3
Shades of Gray
350
CE2D
  3
Sketchy
350
CE2E
  3
Thicken
350
CD49
  3
Wireframe
350
CE2B
  3
X-Ray
350
CE2F
  0
XRECORD
  5
DE08
102
{ACAD_REACTORS
330
C
102
}
330
C
100
AcDbXrecord
280
     1
 90
        1
330
CCCC
330
DDBC
  0
DICTIONARY
  5
2C7C
102
{ACAD_REACTORS
330
C
102
}
330
C
100
AcDbDictionary
281
     1
  3
CANNOSCALE
350
CDD8
  3
CMLEADERSTYLE
350
CDD7
  3
CTABLESTYLE
350
CD05
  3
CVIEWDETAILSTYLE
350
CF36
  3
CVIEWSECTIONSTYLE
350
CF37
  3
DIMASSOC
350
CCC6
  3
LAYEREVAL
350
CF3A
  3
LAYERNOTIFY
350
CF3B
  3
LIGHTINGUNITS
350
CF39
  3
MSLTSCALE
350
CF38
  3
SORTENTS
350
2C7D
  0
DICTIONARY
  5
DE0E
102
{ACAD_REACTORS
330
C
102
}
330
C
100
AcDbDictionary
281
     1
  3
AcDsRecords
350
DE10
  3
AcDsSchemas
350
DE0F
1001
ACAD
1070
     2
  0
DICTIONARY
  5
D25B
102
{ACAD_REACTORS
330
C
102
}
330
C
100
AcDbDictionary
281
     1
  3
AcmStdDictionary
350
D262
  0
DICTIONARY
  5
D243
102
{ACAD_REACTORS
330
C
102
}
330
C
100
AcDbDictionary
281
     1
  0
DICTIONARY
  5
D2A3
102
{ACAD_REACTORS
330
C
102
}
330
C
100
AcDbDictionary
281
     1
  0
DICTIONARY
  5
CCD2
102
{ACAD_REACTORS
330
CCD1
102
}
330
CCD1
100
AcDbDictionary
281
     1
  0
XRECORD
  5
CD7E
102
{ACAD_REACTORS
330
CD7D
102
}
330
CD7D
100
AcDbXrecord
280
     1
290
     1
  0
XRECORD
  5
CD80
102
{ACAD_REACTORS
330
CD7F
102
}
330
CD7F
100
AcDbXrecord
280
     1
290
     1
  0
XRECORD
  5
CD82
102
{ACAD_REACTORS
330
CD81
102
}
330
CD81
100
AcDbXrecord
280
     1
290
     1
  0
XRECORD
  5
CD84
102
{ACAD_REACTORS
330
CD83
102
}
330
CD83
100
AcDbXrecord
280
     1
290
     1
  0
XRECORD
  5
CD86
102
{ACAD_REACTORS
330
CD85
102
}
330
CD85
100
AcDbXrecord
280
     1
290
     1
  0
XRECORD
  5
CD88
102
{ACAD_REACTORS
330
CD87
102
}
330
CD87
100
AcDbXrecord
280
     1
290
     1
  0
XRECORD
  5
CD8A
102
{ACAD_REACTORS
330
CD89
102
}
330
CD89
100
AcDbXrecord
280
     1
290
     1
  0
XRECORD
  5
982D
102
{ACAD_REACTORS
330
982C
102
}
330
982C
100
AcDbXrecord
280
     1
340
18
  0
SORTENTSTABLE
  5
CF1F
102
{ACAD_REACTORS
330
982C
102
}
330
982C
100
AcDbSortentsTable
330
18
331
D964
  5
D965
331
D960
  5
D961
331
D925
  5
D926
331
D95C
  5
D95D
331
D921
  5
D922
331
D958
  5
D959
331
D91D
  5
D91E
331
D919
  5
D91A
331
D954
  5
D955
331
D993
  5
D994
331
D915
  5
D916
331
D950
  5
D951
331
D98F
  5
D990
331
D94C
  5
D94D
331
D98B
  5
D98C
331
D911
  5
D912
331
D948
  5
D949
331
D987
  5
D988
331
D90D
  5
D90E
331
D944
  5
D945
331
D983
  5
D984
331
D909
  5
D90A
331
D97F
  5
D980
331
D905
  5
D906
331
D940
  5
D941
331
D93C
  5
D93D
331
D97B
  5
D97C
331
D901
  5
D902
331
D938
  5
D939
331
D977
  5
D978
331
D934
  5
D935
331
D973
  5
D974
331
D96F
  5
D970
331
D930
  5
D931
331
D92C
  5
D92D
331
D96B
  5
D96C
331
D928
  5
D929
331
DB52
  5
D8FF
331
D967
  5
D968
331
D963
  5
D964
331
D95F
  5
D960
331
D924
  5
D925
331
D95B
  5
D95C
331
D920
  5
D921
331
D957
  5
D958
331
D91C
  5
D91D
331
D918
  5
D919
331
D953
  5
D954
331
D992
  5
D993
331
D914
  5
D915
331
D94F
  5
D950
331
D98E
  5
D98F
331
D910
  5
D911
331
D94B
  5
D94C
331
D98A
  5
D98B
331
D947
  5
D948
331
D986
  5
D987
331
D90C
  5
D90D
331
D982
  5
D983
331
D943
  5
D944
331
D908
  5
D909
331
D93F
  5
D940
331
D97E
  5
D97F
331
D904
  5
D905
331
D93B
  5
D93C
331
D97A
  5
D97B
331
D900
  5
D901
331
D976
  5
D977
331
D937
  5
D938
331
D933
  5
D934
331
D972
  5
D973
331
D92F
  5
D930
331
D96E
  5
D96F
331
D96A
  5
D96B
331
D92B
  5
D92C
331
D966
  5
D967
331
D962
  5
D963
331
D927
  5
D928
331
D95E
  5
D95F
331
D923
  5
D924
331
D95A
  5
D95B
331
D91F
  5
D920
331
D956
  5
D957
331
D91B
  5
D91C
331
D917
  5
D918
331
D952
  5
D953
331
D991
  5
D992
331
D913
  5
D914
331
D98D
  5
D98E
331
D94E
  5
D94F
331
D989
  5
D98A
331
D94A
  5
D94B
331
D90F
  5
D910
331
D946
  5
D947
331
D985
  5
D986
331
D90B
  5
D90C
331
D907
  5
D908
331
D942
  5
D943
331
D981
  5
D982
331
D93E
  5
D93F
331
D97D
  5
D97E
331
D903
  5
D904
331
D979
  5
D97A
331
D93A
  5
D93B
331
D936
  5
D937
331
D975
  5
D976
331
D932
  5
D933
331
D971
  5
D972
331
D96D
  5
D96E
331
D92E
  5
D92F
331
D92A
  5
D92B
331
D969
  5
D96A
331
D965
  5
D966
331
D961
  5
D962
331
D926
  5
D927
331
D95D
  5
D95E
331
D922
  5
D923
331
D959
  5
D95A
331
D91E
  5
D91F
331
D955
  5
D956
331
D994
  5
DAD8
331
D91A
  5
D91B
331
D916
  5
D917
331
D951
  5
D952
331
D990
  5
D991
331
D912
  5
D913
331
D94D
  5
D94E
331
D98C
  5
D98D
331
D949
  5
D94A
331
D988
  5
D989
331
D90E
  5
D90F
331
D945
  5
D946
331
D984
  5
D985
331
D90A
  5
D90B
331
D906
  5
D907
331
D941
  5
D942
331
D980
  5
D981
331
D97C
  5
D97D
331
D93D
  5
D93E
331
D902
  5
D903
331
D939
  5
D93A
331
D978
  5
D979
331
D935
  5
D936
331
D974
  5
D975
331
D931
  5
D932
331
D970
  5
D971
331
D92D
  5
D92E
331
D96C
  5
D96D
331
D929
  5
D92A
331
D968
  5
D969
  0
XRECORD
  5
982B
102
{ACAD_REACTORS
330
982A
102
}
330
982A
100
AcDbXrecord
280
     1
340
15
  0
SORTENTSTABLE
  5
CFE8
102
{ACAD_REACTORS
330
982A
102
}
330
982A
100
AcDbSortentsTable
330
15
331
D7
  5
D7
331
CFB1
  5
D002
331
5B80
  5
5B80
331
CFAE
  5
CFFF
331
5B7D
  5
5B7D
331
57E6
  5
57E6
331
D0
  5
D0
331
D02D
  5
C8C6
331
4B98
  5
4B98
331
C8CC
  5
CFAE
331
C9
  5
C9
331
C6
  5
C6
331
CFE7
  5
CFB0
331
5A44
  5
5A44
331
175
  5
175
331
D004
  5
C8CB
331
179
  5
179
331
3D
  5
3D
331
D4
  5
D4
331
CFAB
  5
CFE7
331
2F5D
  5
2F5D
331
CD
  5
CD
331
5799
  5
5799
331
C8C6
  5
C8CA
331
C3
  5
C3
331
172
  5
172
331
D001
  5
C8D1
331
5B81
  5
5B81
331
CFAF
  5
D000
331
5B7E
  5
5B7E
331
D1
  5
D1
331
CFEF
  5
D004
331
C8CD
  5
CFAF
331
CA
  5
CA
331
C7
  5
C7
331
5A48
  5
5A48
331
5A45
  5
5A45
331
4B8F
  5
4B8F
331
176
  5
176
331
D005
  5
D02C
331
17A
  5
17A
331
91
  5
91
331
D8
  5
D8
331
D5
  5
D5
331
14C
  5
14C
331
CFAC
  5
CFEF
331
CE
  5
CE
331
C8CA
  5
C8CC
331
C4
  5
C4
331
5A42
  5
5A42
331
4B8C
  5
4B8C
331
173
  5
173
331
57F3
  5
57F3
331
5B7F
  5
5B7F
331
D2
  5
D2
331
4B9A
  5
4B9A
331
1184
  5
1184
331
4B97
  5
4B97
331
CB
  5
CB
331
5A49
  5
5A49
331
4B90
  5
4B90
331
577F
  5
577F
331
177
  5
177
331
17B
  5
17B
331
D9
  5
D9
331
170
  5
170
331
CFB0
  5
D001
331
CFFF
  5
D005
331
D6
  5
D6
331
14D
  5
14D
331
CFAD
  5
CFFE
331
5B7C
  5
5B7C
331
D02C
  5
D006
331
C8CB
  5
C8CF
331
C8
  5
C8
331
C5
  5
C5
331
5A43
  5
5A43
331
174
  5
174
331
D003
  5
D02D
331
178
  5
178
331
56E2
  5
56E2
331
D3
  5
D3
331
CFAA
  5
CFB1
331
4B9B
  5
4B9B
331
5A47
  5
5A47
331
B32E
  5
B32E
331
17C
  5
17C
331
DA
  5
DA
331
171
  5
171
  0
XRECORD
  5
DE07
102
{ACAD_REACTORS
330
DDBD
102
}
330
DDBD
100
AcDbXrecord
280
     1
 40
13572559.0
  1
\pxi-3,l3,t3;Any deviation from this template could prevent the homeowner from being able to\Puse the Franke custom fit accessories that match this sink, so we strongly\Precommend following this cutout template.\P\PClosely follow installation instruc
  1
tions before making any cuts to countertop\P\PThis template file, like any template, is meant to be a guideline.  The actual sink\Pand accessories should ALWAYS be present to ensure a perfect cut.\P\pi0,l0,tz;\P\pr2.2207;FRANKE IS NOT RESPONSIBLE FOR
  1
 AN IMPROPERLY CUT COUNTERTOP OR AN IMPROPER INSTALLATION
  0
ACDBDETAILVIEWSTYLE
  5
CE35
102
{ACAD_XDICTIONARY
360
CF33
102
}
102
{ACAD_REACTORS
330
CE34
330
D283
102
}
330
CE34
100
AcDbModelDocViewStyle
 70
     0
  3
Imperial24
290
     0
100
AcDbDetailViewStyle
 70
     0
 71
     0
 90
        3
 71
     1
340
F
 62
   256
 40
0.24
340
0
 62
   256
 40
0.24
300

 40
0.36
280
     3
 71
     2
340
14
 90
       25
 62
   256
 71
     3
340
F
 62
   256
 40
0.24
 90
        1
 40
0.75
 90
        1
300
%<\AcVar ViewType \f "%tc1">% %<\AcVar ViewDetailId>%\PSCALE %<\AcVar ViewScale \f "%sn">%
 71
     4
340
14
 90
       25
 62
   256
340
14
 90
       25
 62
   256
280
     0
  0
ACDBDETAILVIEWSTYLE
  5
D843
102
{ACAD_XDICTIONARY
360
D844
102
}
102
{ACAD_REACTORS
330
D8E8
330
CE34
330
D8FC
102
}
330
CE34
100
AcDbModelDocViewStyle
 70
     0
  3
Metric50
290
     0
100
AcDbDetailViewStyle
 70
     0
 71
     0
 90
        3
 71
     1
340
F
 62
   256
 40
5.0
340
0
 62
   256
 40
5.0
300

 40
0.0
280
     1
 71
     2
340
14
 90
       25
 62
   256
 71
     3
340
F
 62
   256
 40
5.0
 90
        0
 40
15.0
 90
        1
300
%<\AcVar ViewDetailId>% (%<\AcVar ViewScale \f "%sn">%)
 71
     4
340
14
 90
       25
 62
   256
340
14
 90
       25
 62
   256
280
     0
  0
LAYOUT
  5
5C22
102
{ACAD_XDICTIONARY
360
CD02
102
}
102
{ACAD_REACTORS
330
5C1F
102
}
330
5C1F
100
AcDbPlotSettings
  1

  2
pdfFactory Pro
  4
A4
  6

 40
7.143749713897705
 41
7.143725872039794
 42
7.14373779296875
 43
7.14373779296875
 44
209.9733276367187
 45
297.0106506347656
 46
2.099437514849228
 47
0.0
 48
1.0
 49
1.0
140
283.535793
141
174.335932
142
1.0
143
2.921888704562564
 70
   692
 72
     1
 73
     1
 74
     1
  7
Carron Phoenix.ctb
 75
     0
147
0.3422443840651726
 76
     0
 77
     2
 78
   300
148
0.0626274153044051
149
0.031601140390876
100
AcDbLayout
  1
Layout1
 70
     1
 71
     1
 10
-20.9358341809365
 20
-27.03916549822349
 11
846.8962310435632
 21
586.4795287829195
 12
0.0
 22
0.0
 32
0.0
 14
0.0
 24
0.0
 34
0.0
 15
826.0
 25
559.4330351521971
 35
0.4
146
0.0
 13
0.0
 23
0.0
 33
0.0
 16
1.0
 26
0.0
 36
0.0
 17
0.0
 27
1.0
 37
0.0
 76
     0
330
15
331
3D
1001
ACAD_PSEXT
1000
pdfFactory Pro
1000
pdfFactory 2
1000
FPP2:
1000

1070
     0
  0
LAYOUT
  5
5C21
102
{ACAD_REACTORS
330
5C1F
102
}
330
5C1F
100
AcDbPlotSettings
  1

  2
\\FGP10G\FGP023P
  4
A4
  6
P
 40
4.233333110809326
 41
4.233306884765625
 42
4.233322143554687
 43
4.23333740234375
 44
209.9733276367187
 45
296.9683227539062
 46
0.0
 47
57.30738743126017
 48
253.7433382225181
 49
-367.8856403618854
140
1008.563748899632
141
506.8285908373354
142
1.0
143
4.340869812685252
 70
 11956
 72
     1
 73
     1
 74
     4
  7
Carron Phoenix.ctb
 75
     0
147
0.2303685766105485
 76
     0
 77
     2
 78
   300
148
-253.7433382225181
149
367.8856403618854
100
AcDbLayout
  1
Model
 70
     1
 71
     0
 10
0.0
 20
0.0
 11
12.0
 21
9.0
 12
0.0
 22
0.0
 32
0.0
 14
0.0
 24
0.0
 34
0.0
 15
0.0
 25
0.0
 35
0.0
146
0.0
 13
0.0
 23
0.0
 33
0.0
 16
1.0
 26
0.0
 36
0.0
 17
0.0
 27
1.0
 37
0.0
 76
     0
330
18
331
CCC7
1001
ACAD_PSEXT
1000
\\FGP10G\FGP023P
1000
HP Universal Printing PCL 6
1000
FGP/Product management
1000
HP 4015 PCL6 10.28.0.23 CNFY838268
1070
     0
  0
MATERIAL
  5
CD2C
102
{ACAD_XDICTIONARY
360
CD2D
102
}
102
{ACAD_REACTORS
330
CCC9
102
}
330
CCC9
100
AcDbMaterial
  1
ByBlock
 72
     0
 43
0.0208333333333333
 43
0.0
 43
0.0
 43
0.0
 43
0.0
 43
0.0208333333333333
 43
0.0
 43
0.0
 43
0.0
 43
0.0
 43
1.0
 43
0.0
 43
0.0
 43
0.0
 43
0.0
 43
1.0
 77
     0
 47
0.0208333333333333
 47
0.0
 47
0.0
 47
0.0
 47
0.0
 47
0.0208333333333333
 47
0.0
 47
0.0
 47
0.0
 47
0.0
 47
1.0
 47
0.0
 47
0.0
 47
0.0
 47
0.0
 47
1.0
171
     0
 49
0.0208333333333333
 49
0.0
 49
0.0
 49
0.0
 49
0.0
 49
0.0208333333333333
 49
0.0
 49
0.0
 49
0.0
 49
0.0
 49
1.0
 49
0.0
 49
0.0
 49
0.0
 49
0.0
 49
1.0
175
     0
142
0.0208333333333333
142
0.0
142
0.0
142
0.0
142
0.0
142
0.0208333333333333
142
0.0
142
0.0
142
0.0
142
0.0
142
1.0
142
0.0
142
0.0
142
0.0
142
0.0
142
1.0
179
     0
144
0.0208333333333333
144
0.0
144
0.0
144
0.0
144
0.0
144
0.0208333333333333
144
0.0
144
0.0
144
0.0
144
0.0
144
1.0
144
0.0
144
0.0
144
0.0
144
0.0
144
1.0
147
0.0208333333333333
147
0.0
147
0.0
147
0.0
147
0.0
147
0.0208333333333333
147
0.0
147
0.0
147
0.0
147
0.0
147
1.0
147
0.0
147
0.0
147
0.0
147
0.0
147
1.0
  0
MATERIAL
  5
CD24
102
{ACAD_XDICTIONARY
360
CD25
102
}
102
{ACAD_REACTORS
330
CCC9
102
}
330
CCC9
100
AcDbMaterial
  1
ByLayer
 72
     0
 43
0.0208333333333333
 43
0.0
 43
0.0
 43
0.0
 43
0.0
 43
0.0208333333333333
 43
0.0
 43
0.0
 43
0.0
 43
0.0
 43
1.0
 43
0.0
 43
0.0
 43
0.0
 43
0.0
 43
1.0
 77
     0
 47
0.0208333333333333
 47
0.0
 47
0.0
 47
0.0
 47
0.0
 47
0.0208333333333333
 47
0.0
 47
0.0
 47
0.0
 47
0.0
 47
1.0
 47
0.0
 47
0.0
 47
0.0
 47
0.0
 47
1.0
171
     0
 49
0.0208333333333333
 49
0.0
 49
0.0
 49
0.0
 49
0.0
 49
0.0208333333333333
 49
0.0
 49
0.0
 49
0.0
 49
0.0
 49
1.0
 49
0.0
 49
0.0
 49
0.0
 49
0.0
 49
1.0
175
     0
142
0.0208333333333333
142
0.0
142
0.0
142
0.0
142
0.0
142
0.0208333333333333
142
0.0
142
0.0
142
0.0
142
0.0
142
1.0
142
0.0
142
0.0
142
0.0
142
0.0
142
1.0
179
     0
144
0.0208333333333333
144
0.0
144
0.0
144
0.0
144
0.0
144
0.0208333333333333
144
0.0
144
0.0
144
0.0
144
0.0
144
1.0
144
0.0
144
0.0
144
0.0
144
0.0
144
1.0
147
0.0208333333333333
147
0.0
147
0.0
147
0.0
147
0.0
147
0.0208333333333333
147
0.0
147
0.0
147
0.0
147
0.0
147
1.0
147
0.0
147
0.0
147
0.0
147
0.0
147
1.0
  0
MATERIAL
  5
CD34
102
{ACAD_XDICTIONARY
360
CD35
102
}
102
{ACAD_REACTORS
330
CCC9
102
}
330
CCC9
100
AcDbMaterial
  1
Global
 72
     0
 43
0.0208333333333333
 43
0.0
 43
0.0
 43
0.0
 43
0.0
 43
0.0208333333333333
 43
0.0
 43
0.0
 43
0.0
 43
0.0
 43
1.0
 43
0.0
 43
0.0
 43
0.0
 43
0.0
 43
1.0
 77
     0
 47
0.0208333333333333
 47
0.0
 47
0.0
 47
0.0
 47
0.0
 47
0.0208333333333333
 47
0.0
 47
0.0
 47
0.0
 47
0.0
 47
1.0
 47
0.0
 47
0.0
 47
0.0
 47
0.0
 47
1.0
171
     0
 49
0.0208333333333333
 49
0.0
 49
0.0
 49
0.0
 49
0.0
 49
0.0208333333333333
 49
0.0
 49
0.0
 49
0.0
 49
0.0
 49
1.0
 49
0.0
 49
0.0
 49
0.0
 49
0.0
 49
1.0
175
     0
142
0.0208333333333333
142
0.0
142
0.0
142
0.0
142
0.0
142
0.0208333333333333
142
0.0
142
0.0
142
0.0
142
0.0
142
1.0
142
0.0
142
0.0
142
0.0
142
0.0
142
1.0
179
     0
144
0.0208333333333333
144
0.0
144
0.0
144
0.0
144
0.0
144
0.0208333333333333
144
0.0
144
0.0
144
0.0
144
0.0
144
1.0
144
0.0
144
0.0
144
0.0
144
0.0
144
1.0
147
0.0208333333333333
147
0.0
147
0.0
147
0.0
147
0.0
147
0.0208333333333333
147
0.0
147
0.0
147
0.0
147
0.0
147
1.0
147
0.0
147
0.0
147
0.0
147
0.0
147
1.0
  0
MLEADERSTYLE
  5
CD73
102
{ACAD_REACTORS
330
CD72
102
}
330
CD72
100
AcDbMLeaderStyle
179
     2
170
     2
171
     1
172
     0
 90
        2
 40
0.0
 41
0.0
173
     1
 91
-1056964608
340
12
 92
       -2
290
     1
 42
0.09
291
     1
 43
0.36
  3
Standard
 44
0.18
300

342
F
174
     1
178
     6
175
     1
176
     0
 93
-1056964608
 45
0.18
292
     0
297
     0
 46
0.18
 94
-1056964608
 47
1.0
 49
1.0
140
1.0
293
     1
141
0.0
294
     1
177
     0
142
1.0
295
     0
296
     0
143
0.125
271
     0
272
     9
273
     9
  0
MLINESTYLE
  5
1C
102
{ACAD_REACTORS
330
1B
102
}
330
0
100
AcDbMlineStyle
  2
STANDARD
 70
     0
  3

 62
   256
 51
90.0
 52
90.0
 71
     2
 49
0.5
 62
   256
  6
BYLAYER
 49
-0.5
 62
   256
  6
BYLAYER
  0
ACDBPLACEHOLDER
  5
5C1E
102
{ACAD_REACTORS
330
5C1D
102
}
330
5C1D
  0
SCALE
  5
CD51
102
{ACAD_REACTORS
330
CD50
102
}
330
CD50
100
AcDbScale
 70
     0
300
1:1
140
1.0
141
1.0
290
     1
  0
SCALE
  5
CD52
102
{ACAD_REACTORS
330
CD50
102
}
330
CD50
100
AcDbScale
 70
     0
300
1:2
140
1.0
141
2.0
290
     0
  0
SCALE
  5
CD53
102
{ACAD_REACTORS
330
CD50
102
}
330
CD50
100
AcDbScale
 70
     0
300
1:4
140
1.0
141
4.0
290
     0
  0
SCALE
  5
CD54
102
{ACAD_REACTORS
330
CD50
102
}
330
CD50
100
AcDbScale
 70
     0
300
1:5
140
1.0
141
5.0
290
     0
  0
SCALE
  5
CD55
102
{ACAD_REACTORS
330
CD50
102
}
330
CD50
100
AcDbScale
 70
     0
300
1:8
140
1.0
141
8.0
290
     0
  0
SCALE
  5
CD56
102
{ACAD_REACTORS
330
CD50
102
}
330
CD50
100
AcDbScale
 70
     0
300
1:10
140
1.0
141
10.0
290
     0
  0
SCALE
  5
CD57
102
{ACAD_REACTORS
330
CD50
102
}
330
CD50
100
AcDbScale
 70
     0
300
1:16
140
1.0
141
16.0
290
     0
  0
SCALE
  5
CD58
102
{ACAD_REACTORS
330
CD50
102
}
330
CD50
100
AcDbScale
 70
     0
300
1:20
140
1.0
141
20.0
290
     0
  0
SCALE
  5
CD59
102
{ACAD_REACTORS
330
CD50
102
}
330
CD50
100
AcDbScale
 70
     0
300
1:30
140
1.0
141
30.0
290
     0
  0
SCALE
  5
CD5A
102
{ACAD_REACTORS
330
CD50
102
}
330
CD50
100
AcDbScale
 70
     0
300
1:40
140
1.0
141
40.0
290
     0
  0
SCALE
  5
CD5B
102
{ACAD_REACTORS
330
CD50
102
}
330
CD50
100
AcDbScale
 70
     0
300
1:50
140
1.0
141
50.0
290
     0
  0
SCALE
  5
CD5C
102
{ACAD_REACTORS
330
CD50
102
}
330
CD50
100
AcDbScale
 70
     0
300
1:100
140
1.0
141
100.0
290
     0
  0
SCALE
  5
CD5D
102
{ACAD_REACTORS
330
CD50
102
}
330
CD50
100
AcDbScale
 70
     0
300
2:1
140
2.0
141
1.0
290
     0
  0
SCALE
  5
CD5E
102
{ACAD_REACTORS
330
CD50
102
}
330
CD50
100
AcDbScale
 70
     0
300
4:1
140
4.0
141
1.0
290
     0
  0
SCALE
  5
CD5F
102
{ACAD_REACTORS
330
CD50
102
}
330
CD50
100
AcDbScale
 70
     0
300
8:1
140
8.0
141
1.0
290
     0
  0
SCALE
  5
CD60
102
{ACAD_REACTORS
330
CD50
102
}
330
CD50
100
AcDbScale
 70
     0
300
10:1
140
10.0
141
1.0
290
     0
  0
SCALE
  5
CD61
102
{ACAD_REACTORS
330
CD50
102
}
330
CD50
100
AcDbScale
 70
     0
300
100:1
140
100.0
141
1.0
290
     0
  0
SCALE
  5
CD62
102
{ACAD_REACTORS
330
CD50
102
}
330
CD50
100
AcDbScale
 70
     0
300
1/128" = 1'-0"
140
0.0078125
141
12.0
290
     0
  0
SCALE
  5
CD63
102
{ACAD_REACTORS
330
CD50
102
}
330
CD50
100
AcDbScale
 70
     0
300
1/64" = 1'-0"
140
0.015625
141
12.0
290
     0
  0
SCALE
  5
CD64
102
{ACAD_REACTORS
330
CD50
102
}
330
CD50
100
AcDbScale
 70
     0
300
1/32" = 1'-0"
140
0.03125
141
12.0
290
     0
  0
SCALE
  5
CD65
102
{ACAD_REACTORS
330
CD50
102
}
330
CD50
100
AcDbScale
 70
     0
300
1/16" = 1'-0"
140
0.0625
141
12.0
290
     0
  0
SCALE
  5
CD66
102
{ACAD_REACTORS
330
CD50
102
}
330
CD50
100
AcDbScale
 70
     0
300
3/32" = 1'-0"
140
0.09375
141
12.0
290
     0
  0
SCALE
  5
CD67
102
{ACAD_REACTORS
330
CD50
102
}
330
CD50
100
AcDbScale
 70
     0
300
1/8" = 1'-0"
140
0.125
141
12.0
290
     0
  0
SCALE
  5
CD68
102
{ACAD_REACTORS
330
CD50
102
}
330
CD50
100
AcDbScale
 70
     0
300
3/16" = 1'-0"
140
0.1875
141
12.0
290
     0
  0
SCALE
  5
CD69
102
{ACAD_REACTORS
330
CD50
102
}
330
CD50
100
AcDbScale
 70
     0
300
1/4" = 1'-0"
140
0.25
141
12.0
290
     0
  0
SCALE
  5
CD6A
102
{ACAD_REACTORS
330
CD50
102
}
330
CD50
100
AcDbScale
 70
     0
300
3/8" = 1'-0"
140
0.375
141
12.0
290
     0
  0
SCALE
  5
CD6B
102
{ACAD_REACTORS
330
CD50
102
}
330
CD50
100
AcDbScale
 70
     0
300
1/2" = 1'-0"
140
0.5
141
12.0
290
     0
  0
SCALE
  5
CD6C
102
{ACAD_REACTORS
330
CD50
102
}
330
CD50
100
AcDbScale
 70
     0
300
3/4" = 1'-0"
140
0.75
141
12.0
290
     0
  0
SCALE
  5
CD6D
102
{ACAD_REACTORS
330
CD50
102
}
330
CD50
100
AcDbScale
 70
     0
300
1" = 1'-0"
140
1.0
141
12.0
290
     0
  0
SCALE
  5
CD6E
102
{ACAD_REACTORS
330
CD50
102
}
330
CD50
100
AcDbScale
 70
     0
300
1-1/2" = 1'-0"
140
1.5
141
12.0
290
     0
  0
SCALE
  5
CD6F
102
{ACAD_REACTORS
330
CD50
102
}
330
CD50
100
AcDbScale
 70
     0
300
3" = 1'-0"
140
3.0
141
12.0
290
     0
  0
SCALE
  5
CD70
102
{ACAD_REACTORS
330
CD50
102
}
330
CD50
100
AcDbScale
 70
     0
300
6" = 1'-0"
140
6.0
141
12.0
290
     0
  0
SCALE
  5
CD71
102
{ACAD_REACTORS
330
CD50
102
}
330
CD50
100
AcDbScale
 70
     0
300
1'-0" = 1'-0"
140
12.0
141
12.0
290
     0
  0
ACDBSECTIONVIEWSTYLE
  5
CE33
102
{ACAD_XDICTIONARY
360
CF31
102
}
102
{ACAD_REACTORS
330
CE32
330
D282
102
}
330
CE32
100
AcDbModelDocViewStyle
 70
     0
  3
Imperial24
290
     0
100
AcDbSectionViewStyle
 70
     0
 71
     0
 90
       78
 71
     1
340
F
 62
   256
 40
0.24
340
0
340
0
 62
   256
 40
0.24
300
I, O, Q, S, X, Z
 40
0.48
 90
        3
 40
0.18
 90
        1
 71
     2
340
14
 90
       25
 62
   256
340
14
 90
       50
 62
   256
 40
0.24
 40
0.0
 40
0.24
 71
     3
340
F
 62
   256
 40
0.24
 90
        1
 40
0.75
 90
        1
300
%<\AcVar ViewType \f "%tc1">% %<\AcVar ViewSectionStartId>%-%<\AcVar ViewSectionEndId>%\PSCALE %<\AcVar ViewScale \f "%sn">%
 71
     4
 62
   256
 62
   257
300
ANSI31
 40
1.0
 90
        0
290
     0
290
     0
 90
        6
 40
0.0
 40
1.570796326794896
 40
0.2617993877991494
 40
1.308996938995747
 40
-0.2617993877991494
 40
1.832595714594046
  0
ACDBSECTIONVIEWSTYLE
  5
D83F
102
{ACAD_XDICTIONARY
360
D840
102
}
102
{ACAD_REACTORS
330
D8EB
330
CE32
330
D8FD
102
}
330
CE32
100
AcDbModelDocViewStyle
 70
     0
  3
Metric50
290
     0
100
AcDbSectionViewStyle
 70
     0
 71
     0
 90
      102
 71
     1
340
F
 62
   256
 40
5.0
340
0
340
0
 62
   256
 40
5.0
300
I, O, Q, S, X, Z
 40
10.0
 90
        0
 40
2.5
 90
        0
 71
     2
340
14
 90
       25
 62
   256
340
14
 90
       50
 62
   256
 40
5.0
 40
2.5
 40
5.0
 71
     3
340
F
 62
   256
 40
5.0
 90
        0
 40
15.0
 90
        1
300
%<\AcVar ViewSectionStartId>%-%<\AcVar ViewSectionEndId>% (%<\AcVar ViewScale \f "%sn">%)
 71
     4
 62
   256
 62
   257
300
ANSI31
 40
1.0
 90
        0
290
     0
290
     0
 90
        6
 40
0.0
 40
1.570796326794896
 40
0.2617993877991494
 40
1.308996938995747
 40
-0.2617993877991494
 40
1.832595714594046
  0
TABLESTYLE
  5
CCCC
102
{ACAD_XDICTIONARY
360
CD9D
102
}
102
{ACAD_REACTORS
330
CCCB
102
}
330
CCCB
100
AcDbTableStyle
280
     0
  3
Standard
 70
     0
 71
     0
 40
0.06
 41
0.06
280
     0
281
     0
  7
STANDARD
140
0.18
170
     2
 62
     0
 63
     7
283
     0
 90
        4
 91
        0
  1

274
    -2
284
     1
 64
     0
275
    -2
285
     1
 65
     0
276
    -2
286
     1
 66
     0
277
    -2
287
     1
 67
     0
278
    -2
288
     1
 68
     0
279
    -2
289
     1
 69
     0
  7
STANDARD
140
0.25
170
     5
 62
     0
 63
     7
283
     0
 90
        4
 91
        0
  1

274
    -2
284
     1
 64
     0
275
    -2
285
     1
 65
     0
276
    -2
286
     1
 66
     0
277
    -2
287
     1
 67
     0
278
    -2
288
     1
 68
     0
279
    -2
289
     1
 69
     0
  7
STANDARD
140
0.18
170
     5
 62
     0
 63
     7
283
     0
 90
        4
 91
        0
  1

274
    -2
284
     1
 64
     0
275
    -2
285
     1
 65
     0
276
    -2
286
     1
 66
     0
277
    -2
287
     1
 67
     0
278
    -2
288
     1
 68
     0
279
    -2
289
     1
 69
     0
  0
VISUALSTYLE
  5
CD42
102
{ACAD_XDICTIONARY
360
DE1B
102
}
102
{ACAD_REACTORS
330
CD3C
102
}
330
CD3C
100
AcDbVisualStyle
  2
2dWireframe
 70
     4
177
     2
291
     0
 71
     0
176
     1
 72
     2
176
     1
 73
     0
176
     1
 90
        0
176
     1
 40
0.6
176
     1
 41
30.0
176
     1
 63
     7
421
 16777215
176
     1
 74
     1
176
     1
 91
        4
176
     1
 64
     7
176
     1
 65
   257
176
     1
 75
     1
176
     1
175
     1
176
     1
 42
1.0
176
     1
 92
        0
176
     1
 66
   257
176
     1
 43
1.0
176
     1
 76
     1
176
     1
 77
     6
176
     1
 78
     2
176
     1
 67
     7
176
     1
 79
     5
176
     1
170
     0
176
     1
171
     0
176
     1
290
     0
176
     1
 93
        1
176
     1
 44
0.0
176
     1
173
     0
176
     1
1001
ACAD
1000
AcDbSavedByObjectVersion
1070
     0
  0
VISUALSTYLE
  5
CD44
102
{ACAD_XDICTIONARY
360
DE1F
102
}
102
{ACAD_REACTORS
330
CD3C
102
}
330
CD3C
100
AcDbVisualStyle
  2
3D Hidden
 70
     6
177
     2
291
     0
 71
     1
176
     1
 72
     2
176
     1
 73
     2
176
     1
 90
        0
176
     1
 40
0.6
176
     1
 41
30.0
176
     1
 63
     7
421
 16777215
176
     1
 74
     2
176
     1
 91
        2
176
     1
 64
     7
176
     1
 65
   257
176
     1
 75
     2
176
     1
175
     1
176
     1
 42
179.0
176
     1
 92
        0
176
     1
 66
   257
176
     1
 43
1.0
176
     1
 76
     1
176
     1
 77
     6
176
     1
 78
     2
176
     1
 67
     7
176
     1
 79
     3
176
     1
170
     0
176
     1
171
     0
176
     1
290
     0
176
     1
 93
        1
176
     1
 44
0.0
176
     1
173
     0
176
     1
1001
ACAD
1000
AcDbSavedByObjectVersion
1070
     0
  0
VISUALSTYLE
  5
CD43
102
{ACAD_XDICTIONARY
360
DE1D
102
}
102
{ACAD_REACTORS
330
CD3C
102
}
330
CD3C
100
AcDbVisualStyle
  2
3dWireframe
 70
     5
177
     2
291
     0
 71
     0
176
     1
 72
     2
176
     1
 73
     0
176
     1
 90
        0
176
     1
 40
0.6
176
     1
 41
30.0
176
     1
 63
     7
421
 16777215
176
     1
 74
     1
176
     1
 91
        4
176
     1
 64
     7
176
     1
 65
   257
176
     1
 75
     1
176
     1
175
     1
176
     1
 42
1.0
176
     1
 92
        0
176
     1
 66
   257
176
     1
 43
1.0
176
     1
 76
     1
176
     1
 77
     6
176
     1
 78
     2
176
     1
 67
     7
176
     1
 79
     5
176
     1
170
     0
176
     1
171
     0
176
     1
290
     0
176
     1
 93
        1
176
     1
 44
0.0
176
     1
173
     0
176
     1
1001
ACAD
1000
AcDbSavedByObjectVersion
1070
     0
  0
VISUALSTYLE
  5
CD41
102
{ACAD_XDICTIONARY
360
DE19
102
}
102
{ACAD_REACTORS
330
CD3C
102
}
330
CD3C
100
AcDbVisualStyle
  2
Basic
 70
     7
177
     2
291
     1
 71
     1
176
     1
 72
     0
176
     1
 73
     1
176
     1
 90
        0
176
     1
 40
0.6
176
     1
 41
30.0
176
     1
 63
     7
421
 16777215
176
     1
 74
     0
176
     1
 91
        4
176
     1
 64
     7
176
     1
 65
   257
176
     1
 75
     1
176
     1
175
     1
176
     1
 42
1.0
176
     1
 92
        8
176
     1
 66
     7
176
     1
 43
1.0
176
     1
 76
     1
176
     1
 77
     6
176
     1
 78
     2
176
     1
 67
     7
176
     1
 79
     5
176
     1
170
     0
176
     1
171
     0
176
     1
290
     0
176
     1
 93
        1
176
     1
 44
0.0
176
     1
173
     0
176
     1
1001
ACAD
1000
AcDbSavedByObjectVersion
1070
     0
  0
VISUALSTYLE
  5
CD48
102
{ACAD_XDICTIONARY
360
DE27
102
}
102
{ACAD_REACTORS
330
CD3C
102
}
330
CD3C
100
AcDbVisualStyle
  2
Brighten
 70
    12
177
     2
291
     1
 71
     2
176
     1
 72
     2
176
     1
 73
     0
176
     1
 90
        0
176
     1
 40
0.6
176
     1
 41
30.0
176
     1
 63
     7
421
 16777215
176
     1
 74
     1
176
     1
 91
        4
176
     1
 64
     7
176
     1
 65
   257
176
     1
 75
     1
176
     1
175
     1
176
     1
 42
1.0
176
     1
 92
        8
176
     1
 66
     7
176
     1
 43
1.0
176
     1
 76
     1
176
     1
 77
     6
176
     1
 78
     2
176
     1
 67
     7
176
     1
 79
     5
176
     1
170
     0
176
     1
171
     0
176
     1
290
     0
176
     1
 93
        1
176
     1
 44
50.0
176
     1
173
     0
176
     1
1001
ACAD
1000
AcDbSavedByObjectVersion
1070
     0
  0
VISUALSTYLE
  5
CD4C
102
{ACAD_XDICTIONARY
360
DE2F
102
}
102
{ACAD_REACTORS
330
CD3C
102
}
330
CD3C
100
AcDbVisualStyle
  2
ColorChange
 70
    16
177
     2
291
     1
 71
     2
176
     1
 72
     2
176
     1
 73
     3
176
     1
 90
        0
176
     1
 40
0.6
176
     1
 41
30.0
176
     1
 63
     8
421
  8421504
176
     1
 74
     1
176
     1
 91
        4
176
     1
 64
     7
176
     1
 65
   257
176
     1
 75
     1
176
     1
175
     1
176
     1
 42
1.0
176
     1
 92
        8
176
     1
 66
     8
424
  8421504
176
     1
 43
1.0
176
     1
 76
     1
176
     1
 77
     6
176
     1
 78
     2
176
     1
 67
     7
176
     1
 79
     5
176
     1
170
     0
176
     1
171
     0
176
     1
290
     0
176
     1
 93
        1
176
     1
 44
0.0
176
     1
173
     0
176
     1
1001
ACAD
1000
AcDbSavedByObjectVersion
1070
     0
  0
VISUALSTYLE
  5
CD45
102
{ACAD_XDICTIONARY
360
DE21
102
}
102
{ACAD_REACTORS
330
CD3C
102
}
330
CD3C
100
AcDbVisualStyle
  2
Conceptual
 70
     9
177
     2
291
     0
 71
     3
176
     1
 72
     2
176
     1
 73
     0
176
     1
 90
        0
176
     1
 40
0.6
176
     1
 41
30.0
176
     1
 63
     7
421
 16777215
176
     1
 74
     2
176
     1
 91
        2
176
     1
 64
     7
176
     1
 65
   257
176
     1
 75
     1
176
     1
175
     1
176
     1
 42
179.0
176
     1
 92
        8
176
     1
 66
     7
176
     1
 43
1.0
176
     1
 76
     1
176
     1
 77
     6
176
     1
 78
     2
176
     1
 67
     7
176
     1
 79
     3
176
     1
170
     0
176
     1
171
     0
176
     1
290
     0
176
     1
 93
        1
176
     1
 44
0.0
176
     1
173
     0
176
     1
1001
ACAD
1000
AcDbSavedByObjectVersion
1070
     0
  0
VISUALSTYLE
  5
CD47
102
{ACAD_XDICTIONARY
360
DE25
102
}
102
{ACAD_REACTORS
330
CD3C
102
}
330
CD3C
100
AcDbVisualStyle
  2
Dim
 70
    11
177
     2
291
     1
 71
     2
176
     1
 72
     2
176
     1
 73
     0
176
     1
 90
        0
176
     1
 40
0.6
176
     1
 41
30.0
176
     1
 63
     7
421
 16777215
176
     1
 74
     1
176
     1
 91
        4
176
     1
 64
     7
176
     1
 65
   257
176
     1
 75
     1
176
     1
175
     1
176
     1
 42
1.0
176
     1
 92
        8
176
     1
 66
     7
176
     1
 43
1.0
176
     1
 76
     1
176
     1
 77
     6
176
     1
 78
     2
176
     1
 67
     7
176
     1
 79
     5
176
     1
170
     0
176
     1
171
     0
176
     1
290
     0
176
     1
 93
        1
176
     1
 44
-50.0
176
     1
173
     0
176
     1
1001
ACAD
1000
AcDbSavedByObjectVersion
1070
     0
  0
VISUALSTYLE
  5
CD4F
102
{ACAD_XDICTIONARY
360
DE35
102
}
102
{ACAD_REACTORS
330
CD3C
102
}
330
CD3C
100
AcDbVisualStyle
  2
EdgeColorOff
 70
    22
177
     2
291
     1
 71
     2
176
     0
 72
     2
176
     0
 73
     0
176
     0
 90
        0
176
     0
 40
0.6
176
     0
 41
30.0
176
     0
 63
     7
421
 16777215
176
     0
 74
     1
176
     0
 91
        4
176
     0
 64
     7
176
     0
 65
   257
176
     0
 75
     1
176
     0
175
     1
176
     0
 42
1.0
176
     0
 92
        8
176
     2
 66
     7
176
     0
 43
1.0
176
     0
 76
     1
176
     0
 77
     6
176
     0
 78
     2
176
     0
 67
     7
176
     0
 79
     5
176
     0
170
     0
176
     0
171
     0
176
     0
290
     0
176
     0
 93
        1
176
     0
 44
0.0
176
     0
173
     0
176
     0
1001
ACAD
1000
AcDbSavedByObjectVersion
1070
     0
  0
VISUALSTYLE
  5
CD4B
102
{ACAD_XDICTIONARY
360
DE2D
102
}
102
{ACAD_REACTORS
330
CD3C
102
}
330
CD3C
100
AcDbVisualStyle
  2
Facepattern
 70
    15
177
     2
291
     1
 71
     2
176
     1
 72
     2
176
     1
 73
     0
176
     1
 90
        0
176
     1
 40
0.6
176
     1
 41
30.0
176
     1
 63
     7
421
 16777215
176
     1
 74
     1
176
     1
 91
        4
176
     1
 64
     7
176
     1
 65
   257
176
     1
 75
     1
176
     1
175
     1
176
     1
 42
1.0
176
     1
 92
        8
176
     1
 66
     7
176
     1
 43
1.0
176
     1
 76
     1
176
     1
 77
     6
176
     1
 78
     2
176
     1
 67
     7
176
     1
 79
     5
176
     1
170
     0
176
     1
171
     0
176
     1
290
     0
176
     1
 93
        1
176
     1
 44
0.0
176
     1
173
     0
176
     1
1001
ACAD
1000
AcDbSavedByObjectVersion
1070
     0
  0
VISUALSTYLE
  5
CD3D
102
{ACAD_XDICTIONARY
360
DE11
102
}
102
{ACAD_REACTORS
330
CD3C
102
}
330
CD3C
100
AcDbVisualStyle
  2
Flat
 70
     0
177
     2
291
     1
 71
     2
176
     1
 72
     1
176
     1
 73
     1
176
     1
 90
        2
176
     1
 40
0.6
176
     1
 41
30.0
176
     1
 63
     7
421
 16777215
176
     1
 74
     0
176
     1
 91
        4
176
     1
 64
     7
176
     1
 65
   257
176
     1
 75
     1
176
     1
175
     1
176
     1
 42
1.0
176
     1
 92
        8
176
     1
 66
     7
176
     1
 43
1.0
176
     1
 76
     1
176
     1
 77
     6
176
     1
 78
     2
176
     1
 67
     7
176
     1
 79
     5
176
     1
170
     0
176
     1
171
     0
176
     1
290
     0
176
     1
 93
       13
176
     1
 44
0.0
176
     1
173
     0
176
     1
1001
ACAD
1000
AcDbSavedByObjectVersion
1070
     0
  0
VISUALSTYLE
  5
CD3E
102
{ACAD_XDICTIONARY
360
DE13
102
}
102
{ACAD_REACTORS
330
CD3C
102
}
330
CD3C
100
AcDbVisualStyle
  2
FlatWithEdges
 70
     1
177
     2
291
     1
 71
     2
176
     1
 72
     1
176
     1
 73
     1
176
     1
 90
        2
176
     1
 40
0.6
176
     1
 41
30.0
176
     1
 63
     7
421
 16777215
176
     1
 74
     1
176
     1
 91
        4
176
     1
 64
     7
176
     1
 65
   257
176
     1
 75
     1
176
     1
175
     1
176
     1
 42
1.0
176
     1
 92
        0
176
     1
 66
   257
176
     1
 43
1.0
176
     1
 76
     1
176
     1
 77
     6
176
     1
 78
     2
176
     1
 67
     7
176
     1
 79
     5
176
     1
170
     0
176
     1
171
     0
176
     1
290
     0
176
     1
 93
       13
176
     1
 44
0.0
176
     1
173
     0
176
     1
1001
ACAD
1000
AcDbSavedByObjectVersion
1070
     0
  0
VISUALSTYLE
  5
CD3F
102
{ACAD_XDICTIONARY
360
DE15
102
}
102
{ACAD_REACTORS
330
CD3C
102
}
330
CD3C
100
AcDbVisualStyle
  2
Gouraud
 70
     2
177
     2
291
     1
 71
     2
176
     1
 72
     2
176
     1
 73
     1
176
     1
 90
        2
176
     1
 40
0.6
176
     1
 41
30.0
176
     1
 63
     7
421
 16777215
176
     1
 74
     0
176
     1
 91
        4
176
     1
 64
     7
176
     1
 65
   257
176
     1
 75
     1
176
     1
175
     1
176
     1
 42
1.0
176
     1
 92
        0
176
     1
 66
     7
176
     1
 43
1.0
176
     1
 76
     1
176
     1
 77
     6
176
     1
 78
     2
176
     1
 67
     7
176
     1
 79
     5
176
     1
170
     0
176
     1
171
     0
176
     1
290
     0
176
     1
 93
       13
176
     1
 44
0.0
176
     1
173
     0
176
     1
1001
ACAD
1000
AcDbSavedByObjectVersion
1070
     0
  0
VISUALSTYLE
  5
CD40
102
{ACAD_XDICTIONARY
360
DE17
102
}
102
{ACAD_REACTORS
330
CD3C
102
}
330
CD3C
100
AcDbVisualStyle
  2
GouraudWithEdges
 70
     3
177
     2
291
     1
 71
     2
176
     1
 72
     2
176
     1
 73
     1
176
     1
 90
        2
176
     1
 40
0.6
176
     1
 41
30.0
176
     1
 63
     7
421
 16777215
176
     1
 74
     1
176
     1
 91
        4
176
     1
 64
     7
176
     1
 65
   257
176
     1
 75
     1
176
     1
175
     1
176
     1
 42
1.0
176
     1
 92
        0
176
     1
 66
   257
176
     1
 43
1.0
176
     1
 76
     1
176
     1
 77
     6
176
     1
 78
     2
176
     1
 67
     7
176
     1
 79
     5
176
     1
170
     0
176
     1
171
     0
176
     1
290
     0
176
     1
 93
       13
176
     1
 44
0.0
176
     1
173
     0
176
     1
1001
ACAD
1000
AcDbSavedByObjectVersion
1070
     0
  0
VISUALSTYLE
  5
CE2C
102
{ACAD_XDICTIONARY
360
DE39
102
}
102
{ACAD_REACTORS
330
CD3C
102
}
330
CD3C
100
AcDbVisualStyle
  2
Hidden
 70
     6
177
     2
291
     0
 71
     1
176
     1
 72
     2
176
     1
 73
     2
176
     1
 90
        0
176
     1
 40
0.6
176
     1
 41
30.0
176
     1
 63
     7
421
 16777215
176
     1
 74
     2
176
     1
 91
        2
176
     1
 64
     7
176
     1
 65
   257
176
     1
 75
     2
176
     1
175
     1
176
     1
 42
40.0
176
     1
 92
        0
176
     1
 66
   257
176
     1
 43
1.0
176
     1
 76
     1
176
     1
 77
     6
176
     1
 78
     2
176
     1
 67
     7
176
     1
 79
     3
176
     1
170
     0
176
     1
171
     0
176
     1
290
     0
176
     1
 93
        1
176
     1
 44
0.0
176
     1
173
     0
176
     1
1001
ACAD
1000
AcDbSavedByObjectVersion
1070
     0
  0
VISUALSTYLE
  5
CD4D
102
{ACAD_XDICTIONARY
360
DE31
102
}
102
{ACAD_REACTORS
330
CD3C
102
}
330
CD3C
100
AcDbVisualStyle
  2
JitterOff
 70
    20
177
     2
291
     1
 71
     2
176
     0
 72
     2
176
     0
 73
     0
176
     0
 90
        0
176
     0
 40
0.6
176
     0
 41
30.0
176
     0
 63
     7
421
 16777215
176
     0
 74
     1
176
     0
 91
        4
176
     0
 64
     7
176
     0
 65
   257
176
     0
 75
     1
176
     0
175
     1
176
     0
 42
1.0
176
     0
 92
       10
176
     2
 66
     7
176
     0
 43
1.0
176
     0
 76
     1
176
     0
 77
     6
176
     0
 78
     2
176
     0
 67
     7
176
     0
 79
     5
176
     0
170
     0
176
     0
171
     0
176
     0
290
     0
176
     0
 93
        1
176
     0
 44
0.0
176
     0
173
     0
176
     0
1001
ACAD
1000
AcDbSavedByObjectVersion
1070
     0
  0
VISUALSTYLE
  5
CD4A
102
{ACAD_XDICTIONARY
360
DE2B
102
}
102
{ACAD_REACTORS
330
CD3C
102
}
330
CD3C
100
AcDbVisualStyle
  2
Linepattern
 70
    14
177
     2
291
     1
 71
     2
176
     1
 72
     2
176
     1
 73
     0
176
     1
 90
        0
176
     1
 40
0.6
176
     1
 41
30.0
176
     1
 63
     7
421
 16777215
176
     1
 74
     1
176
     1
 91
        4
176
     1
 64
     7
176
     1
 65
   257
176
     1
 75
     7
176
     1
175
     7
176
     1
 42
1.0
176
     1
 92
        8
176
     1
 66
     7
176
     1
 43
1.0
176
     1
 76
     1
176
     1
 77
     6
176
     1
 78
     2
176
     1
 67
     7
176
     1
 79
     5
176
     1
170
     0
176
     1
171
     0
176
     1
290
     0
176
     1
 93
        1
176
     1
 44
0.0
176
     1
173
     0
176
     1
1001
ACAD
1000
AcDbSavedByObjectVersion
1070
     0
  0
VISUALSTYLE
  5
CD4E
102
{ACAD_XDICTIONARY
360
DE33
102
}
102
{ACAD_REACTORS
330
CD3C
102
}
330
CD3C
100
AcDbVisualStyle
  2
OverhangOff
 70
    21
177
     2
291
     1
 71
     2
176
     0
 72
     2
176
     0
 73
     0
176
     0
 90
        0
176
     0
 40
0.6
176
     0
 41
30.0
176
     0
 63
     7
421
 16777215
176
     0
 74
     1
176
     0
 91
        4
176
     0
 64
     7
176
     0
 65
   257
176
     0
 75
     1
176
     0
175
     1
176
     0
 42
1.0
176
     0
 92
        9
176
     2
 66
     7
176
     0
 43
1.0
176
     0
 76
     1
176
     0
 77
     6
176
     0
 78
     2
176
     0
 67
     7
176
     0
 79
     5
176
     0
170
     0
176
     0
171
     0
176
     0
290
     0
176
     0
 93
        1
176
     0
 44
0.0
176
     0
173
     0
176
     0
1001
ACAD
1000
AcDbSavedByObjectVersion
1070
     0
  0
VISUALSTYLE
  5
CD46
102
{ACAD_XDICTIONARY
360
DE23
102
}
102
{ACAD_REACTORS
330
CD3C
102
}
330
CD3C
100
AcDbVisualStyle
  2
Realistic
 70
     8
177
     2
291
     0
 71
     2
176
     1
 72
     2
176
     1
 73
     0
176
     1
 90
        0
176
     1
 40
0.6
176
     1
 41
30.0
176
     1
 63
     7
421
 16777215
176
     1
 74
     1
176
     1
 91
        0
176
     1
 64
     7
176
     1
 65
   257
176
     1
 75
     1
176
     1
175
     1
176
     1
 42
1.0
176
     1
 92
        8
176
     1
 66
     8
424
  7895160
176
     1
 43
1.0
176
     1
 76
     1
176
     1
 77
     6
176
     1
 78
     2
176
     1
 67
     7
176
     1
 79
     5
176
     1
170
     0
176
     1
171
     0
176
     1
290
     0
176
     1
 93
       13
176
     1
 44
0.0
176
     1
173
     0
176
     1
1001
ACAD
1000
AcDbSavedByObjectVersion
1070
     0
  0
VISUALSTYLE
  5
CE31
102
{ACAD_XDICTIONARY
360
DE43
102
}
102
{ACAD_REACTORS
330
CD3C
102
}
330
CD3C
100
AcDbVisualStyle
  2
Shaded
 70
    27
177
     2
291
     0
 71
     2
176
     1
 72
     2
176
     1
 73
     1
176
     1
 90
        2
176
     1
 40
0.6
176
     1
 41
30.0
176
     1
 63
     7
421
 16777215
176
     1
 74
     0
176
     1
 91
        4
176
     1
 64
     7
176
     1
 65
   257
176
     1
 75
     1
176
     1
175
     1
176
     1
 42
1.0
176
     1
 92
        8
176
     1
 66
   257
176
     1
 43
1.0
176
     1
 76
     1
176
     1
 77
     6
176
     1
 78
     2
176
     1
 67
     8
425
  7895160
176
     1
 79
     3
176
     1
170
     0
176
     1
171
     0
176
     1
290
     0
176
     1
 93
        5
176
     1
 44
0.0
176
     1
173
     0
176
     1
1001
ACAD
1000
AcDbSavedByObjectVersion
1070
     0
  0
VISUALSTYLE
  5
CE30
102
{ACAD_XDICTIONARY
360
DE41
102
}
102
{ACAD_REACTORS
330
CD3C
102
}
330
CD3C
100
AcDbVisualStyle
  2
Shaded with edges
 70
    26
177
     2
291
     0
 71
     2
176
     1
 72
     2
176
     1
 73
     1
176
     1
 90
        2
176
     1
 40
0.6
176
     1
 41
30.0
176
     1
 63
     7
421
 16777215
176
     1
 74
     1
176
     1
 91
       10
176
     1
 64
     7
176
     1
 65
   257
176
     1
 75
     2
176
     1
175
     1
176
     1
 42
1.0
176
     1
 92
        8
176
     1
 66
   257
176
     1
 43
1.0
176
     1
 76
     1
176
     1
 77
     6
176
     1
 78
     2
176
     1
 67
     7
176
     1
 79
     3
176
     1
170
     0
176
     1
171
     0
176
     1
290
     0
176
     1
 93
        5
176
     1
 44
0.0
176
     1
173
     0
176
     1
1001
ACAD
1000
AcDbSavedByObjectVersion
1070
     0
  0
VISUALSTYLE
  5
CE2D
102
{ACAD_XDICTIONARY
360
DE3B
102
}
102
{ACAD_REACTORS
330
CD3C
102
}
330
CD3C
100
AcDbVisualStyle
  2
Shades of Gray
 70
    23
177
     2
291
     0
 71
     2
176
     1
 72
     2
176
     1
 73
     3
176
     1
 90
        0
176
     1
 40
0.6
176
     1
 41
30.0
176
     1
 63
     7
421
 16777215
176
     1
 74
     2
176
     1
 91
        2
176
     1
 64
     7
176
     1
 65
     7
176
     1
 75
     1
176
     1
175
     1
176
     1
 42
40.0
176
     1
 92
        8
176
     1
 66
     7
176
     1
 43
1.0
176
     1
 76
     1
176
     1
 77
     6
176
     1
 78
     2
176
     1
 67
     7
176
     1
 79
     3
176
     1
170
     0
176
     1
171
     0
176
     1
290
     0
176
     1
 93
        1
176
     1
 44
0.0
176
     1
173
     0
176
     1
1001
ACAD
1000
AcDbSavedByObjectVersion
1070
     0
  0
VISUALSTYLE
  5
CE2E
102
{ACAD_XDICTIONARY
360
DE3D
102
}
102
{ACAD_REACTORS
330
CD3C
102
}
330
CD3C
100
AcDbVisualStyle
  2
Sketchy
 70
    24
177
     2
291
     0
 71
     1
176
     1
 72
     2
176
     1
 73
     2
176
     1
 90
        0
176
     1
 40
0.6
176
     1
 41
30.0
176
     1
 63
     7
421
 16777215
176
     1
 74
     2
176
     1
 91
        2
176
     1
 64
     7
176
     1
 65
     7
176
     1
 75
     1
176
     1
175
     1
176
     1
 42
40.0
176
     1
 92
       11
176
     1
 66
     7
176
     1
 43
1.0
176
     1
 76
     1
176
     1
 77
     6
176
     1
 78
     2
176
     1
 67
     7
176
     1
 79
     6
176
     1
170
     0
176
     1
171
     0
176
     1
290
     0
176
     1
 93
        1
176
     1
 44
0.0
176
     1
173
     0
176
     1
1001
ACAD
1000
AcDbSavedByObjectVersion
1070
     0
  0
VISUALSTYLE
  5
CD49
102
{ACAD_XDICTIONARY
360
DE29
102
}
102
{ACAD_REACTORS
330
CD3C
102
}
330
CD3C
100
AcDbVisualStyle
  2
Thicken
 70
    13
177
     2
291
     1
 71
     2
176
     1
 72
     2
176
     1
 73
     0
176
     1
 90
        0
176
     1
 40
0.6
176
     1
 41
30.0
176
     1
 63
     7
421
 16777215
176
     1
 74
     1
176
     1
 91
        4
176
     1
 64
     7
176
     1
 65
   257
176
     1
 75
     1
176
     1
175
     1
176
     1
 42
1.0
176
     1
 92
       12
176
     1
 66
     7
176
     1
 43
1.0
176
     1
 76
     1
176
     1
 77
     6
176
     1
 78
     2
176
     1
 67
     7
176
     1
 79
     5
176
     1
170
     0
176
     1
171
     0
176
     1
290
     0
176
     1
 93
        1
176
     1
 44
0.0
176
     1
173
     0
176
     1
1001
ACAD
1000
AcDbSavedByObjectVersion
1070
     0
  0
VISUALSTYLE
  5
CE2B
102
{ACAD_XDICTIONARY
360
DE37
102
}
102
{ACAD_REACTORS
330
CD3C
102
}
330
CD3C
100
AcDbVisualStyle
  2
Wireframe
 70
     5
177
     2
291
     0
 71
     0
176
     1
 72
     2
176
     1
 73
     0
176
     1
 90
        0
176
     1
 40
0.6
176
     1
 41
30.0
176
     1
 63
     7
421
 16777215
176
     1
 74
     1
176
     1
 91
        4
176
     1
 64
     7
176
     1
 65
   257
176
     1
 75
     1
176
     1
175
     1
176
     1
 42
1.0
176
     1
 92
        0
176
     1
 66
   257
176
     1
 43
1.0
176
     1
 76
     1
176
     1
 77
     6
176
     1
 78
     2
176
     1
 67
     7
176
     1
 79
     3
176
     1
170
     0
176
     1
171
     0
176
     1
290
     0
176
     1
 93
        1
176
     1
 44
0.0
176
     1
173
     0
176
     1
1001
ACAD
1000
AcDbSavedByObjectVersion
1070
     0
  0
VISUALSTYLE
  5
CE2F
102
{ACAD_XDICTIONARY
360
DE3F
102
}
102
{ACAD_REACTORS
330
CD3C
102
}
330
CD3C
100
AcDbVisualStyle
  2
X-Ray
 70
    25
177
     2
291
     0
 71
     2
176
     1
 72
     2
176
     1
 73
     1
176
     1
 90
        1
176
     1
 40
0.5
176
     1
 41
30.0
176
     1
 63
     7
421
 16777215
176
     1
 74
     1
176
     1
 91
        0
176
     1
 64
     7
176
     1
 65
   257
176
     1
 75
     1
176
     1
175
     1
176
     1
 42
1.0
176
     1
 92
        8
176
     1
 66
     7
176
     1
 43
1.0
176
     1
 76
     1
176
     1
 77
     6
176
     1
 78
     2
176
     1
 67
     7
176
     1
 79
     3
176
     1
170
     0
176
     1
171
     0
176
     1
290
     0
176
     1
 93
       13
176
     1
 44
0.0
176
     1
173
     0
176
     1
1001
ACAD
1000
AcDbSavedByObjectVersion
1070
     0
  0
DICTIONARYVAR
  5
CDD8
102
{ACAD_REACTORS
330
2C7C
102
}
330
2C7C
100
DictionaryVariables
280
     0
  1
1:1
  0
DICTIONARYVAR
  5
CDD7
102
{ACAD_REACTORS
330
2C7C
102
}
330
2C7C
100
DictionaryVariables
280
     0
  1
STANDARD
  0
DICTIONARYVAR
  5
CD05
102
{ACAD_REACTORS
330
2C7C
102
}
330
2C7C
100
DictionaryVariables
280
     0
  1
STANDARD
  0
DICTIONARYVAR
  5
CF36
102
{ACAD_REACTORS
330
2C7C
102
}
330
2C7C
100
DictionaryVariables
280
     0
  1
Metric50
  0
DICTIONARYVAR
  5
CF37
102
{ACAD_REACTORS
330
2C7C
102
}
330
2C7C
100
DictionaryVariables
280
     0
  1
Metric50
  0
DICTIONARYVAR
  5
CCC6
102
{ACAD_REACTORS
330
2C7C
102
}
330
2C7C
100
DictionaryVariables
280
     0
  1
1
  0
DICTIONARYVAR
  5
CF3A
102
{ACAD_REACTORS
330
2C7C
102
}
330
2C7C
100
DictionaryVariables
280
     0
  1
1
  0
DICTIONARYVAR
  5
CF3B
102
{ACAD_REACTORS
330
2C7C
102
}
330
2C7C
100
DictionaryVariables
280
     0
  1
15
  0
DICTIONARYVAR
  5
CF39
102
{ACAD_REACTORS
330
2C7C
102
}
330
2C7C
100
DictionaryVariables
280
     0
  1
0
  0
DICTIONARYVAR
  5
CF38
102
{ACAD_REACTORS
330
2C7C
102
}
330
2C7C
100
DictionaryVariables
280
     0
  1
0
  0
DICTIONARYVAR
  5
2C7D
102
{ACAD_REACTORS
330
2C7C
102
}
330
2C7C
100
DictionaryVariables
280
     0
  1
96
  0
DICTIONARY
  5
DE10
102
{ACAD_REACTORS
330
DE0E
102
}
330
DE0E
100
AcDbDictionary
281
     1
  0
DICTIONARY
  5
DE0F
102
{ACAD_REACTORS
330
DE0E
102
}
330
DE0E
100
AcDbDictionary
281
     1
  3
8796087827344
350
DE09
  3
8796087827360
350
DE0A
  3
8796087827376
350
DE0B
  3
8796087827392
350
DE0C
  3
8796087827408
350
DE0D
  0
DICTIONARY
  5
D262
102
{ACAD_REACTORS
330
D25B
102
}
330
D25B
100
AcDbDictionary
281
     1
  0
DICTIONARY
  5
CF33
330
CE35
100
AcDbDictionary
280
     1
281
     1
  3
ACAD_XREC_ROUNDTRIP
360
DE46
  0
DICTIONARY
  5
D844
330
D843
100
AcDbDictionary
280
     1
281
     1
  3
ACAD_XREC_ROUNDTRIP
360
DE48
  0
DICTIONARY
  5
CD02
330
5C22
100
AcDbDictionary
280
     1
281
     1
  0
DICTIONARY
  5
CD2D
330
CD2C
100
AcDbDictionary
280
     1
281
     1
  3
BUMPTILE
360
CD2F
  3
DIFFUSETILE
360
CD2E
  3
OPACITYTILE
360
CD32
  3
REFLECTIONTILE
360
CD31
  3
REFRACTIONTILE
360
CD33
  3
SPECULARTILE
360
CD30
  0
DICTIONARY
  5
CD25
330
CD24
100
AcDbDictionary
280
     1
281
     1
  3
BUMPTILE
360
CD27
  3
DIFFUSETILE
360
CD26
  3
OPACITYTILE
360
CD2A
  3
REFLECTIONTILE
360
CD29
  3
REFRACTIONTILE
360
CD2B
  3
SPECULARTILE
360
CD28
  0
DICTIONARY
  5
CD35
330
CD34
100
AcDbDictionary
280
     1
281
     1
  3
BUMPTILE
360
CD37
  3
DIFFUSETILE
360
CD36
  3
OPACITYTILE
360
CD3A
  3
REFLECTIONTILE
360
CD39
  3
REFRACTIONTILE
360
CD3B
  3
SPECULARTILE
360
CD38
  0
DICTIONARY
  5
CF31
330
CE33
100
AcDbDictionary
280
     1
281
     1
  3
ACAD_XREC_ROUNDTRIP
360
DE45
  0
DICTIONARY
  5
D840
330
D83F
100
AcDbDictionary
280
     1
281
     1
  3
ACAD_XREC_ROUNDTRIP
360
DE47
  0
DICTIONARY
  5
CD9D
330
CCCC
100
AcDbDictionary
280
     1
281
     1
  3
ACAD_ROUNDTRIP_2008_TABLESTYLE_CELLSTYLEMAP
360
DE06
  0
DICTIONARY
  5
DE1B
330
CD42
100
AcDbDictionary
280
     1
281
     1
  3
ACAD_XREC_ROUNDTRIP
360
DE1C
  0
DICTIONARY
  5
DE1F
330
CD44
100
AcDbDictionary
280
     1
281
     1
  3
ACAD_XREC_ROUNDTRIP
360
DE20
  0
DICTIONARY
  5
DE1D
330
CD43
100
AcDbDictionary
280
     1
281
     1
  3
ACAD_XREC_ROUNDTRIP
360
DE1E
  0
DICTIONARY
  5
DE19
330
CD41
100
AcDbDictionary
280
     1
281
     1
  3
ACAD_XREC_ROUNDTRIP
360
DE1A
  0
DICTIONARY
  5
DE27
330
CD48
100
AcDbDictionary
280
     1
281
     1
  3
ACAD_XREC_ROUNDTRIP
360
DE28
  0
DICTIONARY
  5
DE2F
330
CD4C
100
AcDbDictionary
280
     1
281
     1
  3
ACAD_XREC_ROUNDTRIP
360
DE30
  0
DICTIONARY
  5
DE21
330
CD45
100
AcDbDictionary
280
     1
281
     1
  3
ACAD_XREC_ROUNDTRIP
360
DE22
  0
DICTIONARY
  5
DE25
330
CD47
100
AcDbDictionary
280
     1
281
     1
  3
ACAD_XREC_ROUNDTRIP
360
DE26
  0
DICTIONARY
  5
DE35
330
CD4F
100
AcDbDictionary
280
     1
281
     1
  3
ACAD_XREC_ROUNDTRIP
360
DE36
  0
DICTIONARY
  5
DE2D
330
CD4B
100
AcDbDictionary
280
     1
281
     1
  3
ACAD_XREC_ROUNDTRIP
360
DE2E
  0
DICTIONARY
  5
DE11
330
CD3D
100
AcDbDictionary
280
     1
281
     1
  3
ACAD_XREC_ROUNDTRIP
360
DE12
  0
DICTIONARY
  5
DE13
330
CD3E
100
AcDbDictionary
280
     1
281
     1
  3
ACAD_XREC_ROUNDTRIP
360
DE14
  0
DICTIONARY
  5
DE15
330
CD3F
100
AcDbDictionary
280
     1
281
     1
  3
ACAD_XREC_ROUNDTRIP
360
DE16
  0
DICTIONARY
  5
DE17
330
CD40
100
AcDbDictionary
280
     1
281
     1
  3
ACAD_XREC_ROUNDTRIP
360
DE18
  0
DICTIONARY
  5
DE39
330
CE2C
100
AcDbDictionary
280
     1
281
     1
  3
ACAD_XREC_ROUNDTRIP
360
DE3A
  0
DICTIONARY
  5
DE31
330
CD4D
100
AcDbDictionary
280
     1
281
     1
  3
ACAD_XREC_ROUNDTRIP
360
DE32
  0
DICTIONARY
  5
DE2B
330
CD4A
100
AcDbDictionary
280
     1
281
     1
  3
ACAD_XREC_ROUNDTRIP
360
DE2C
  0
DICTIONARY
  5
DE33
330
CD4E
100
AcDbDictionary
280
     1
281
     1
  3
ACAD_XREC_ROUNDTRIP
360
DE34
  0
DICTIONARY
  5
DE23
330
CD46
100
AcDbDictionary
280
     1
281
     1
  3
ACAD_XREC_ROUNDTRIP
360
DE24
  0
DICTIONARY
  5
DE43
330
CE31
100
AcDbDictionary
280
     1
281
     1
  3
ACAD_XREC_ROUNDTRIP
360
DE44
  0
DICTIONARY
  5
DE41
330
CE30
100
AcDbDictionary
280
     1
281
     1
  3
ACAD_XREC_ROUNDTRIP
360
DE42
  0
DICTIONARY
  5
DE3B
330
CE2D
100
AcDbDictionary
280
     1
281
     1
  3
ACAD_XREC_ROUNDTRIP
360
DE3C
  0
DICTIONARY
  5
DE3D
330
CE2E
100
AcDbDictionary
280
     1
281
     1
  3
ACAD_XREC_ROUNDTRIP
360
DE3E
  0
DICTIONARY
  5
DE29
330
CD49
100
AcDbDictionary
280
     1
281
     1
  3
ACAD_XREC_ROUNDTRIP
360
DE2A
  0
DICTIONARY
  5
DE37
330
CE2B
100
AcDbDictionary
280
     1
281
     1
  3
ACAD_XREC_ROUNDTRIP
360
DE38
  0
DICTIONARY
  5
DE3F
330
CE2F
100
AcDbDictionary
280
     1
281
     1
  3
ACAD_XREC_ROUNDTRIP
360
DE40
  0
XRECORD
  5
DE09
102
{ACAD_REACTORS
330
DE0F
102
}
330
DE0F
100
AcDbXrecord
280
     1
  1
AcDb_Thumbnail_Schema
102
{ATTRRECORD
341
DE0A
  2
AcDbDs::TreatedAsObjectData
280
     1
291
     1
102
ATTRRECORD}
102
{ATTRRECORD
341
DE0B
  2
AcDbDs::Legacy
280
     1
291
     1
102
ATTRRECORD}
  2
AcDbDs::ID
280
    10
 91
        8
102
{ATTRRECORD
341
DE0C
  2
AcDs:Indexable
280
     1
291
     1
102
ATTRRECORD}
102
{ATTRRECORD
341
DE0D
  2
AcDbDs::HandleAttribute
280
     7
282
     1
102
ATTRRECORD}
  2
Thumbnail_Data
280
    15
 91
        0
  0
XRECORD
  5
DE0A
102
{ACAD_REACTORS
330
DE0F
102
}
330
DE0F
100
AcDbXrecord
280
     1
  1
AcDbDs::TreatedAsObjectDataSchema
  2
AcDbDs::TreatedAsObjectData
280
     1
 91
        0
  0
XRECORD
  5
DE0B
102
{ACAD_REACTORS
330
DE0F
102
}
330
DE0F
100
AcDbXrecord
280
     1
  1
AcDbDs::LegacySchema
  2
AcDbDs::Legacy
280
     1
 91
        0
  0
XRECORD
  5
DE0C
102
{ACAD_REACTORS
330
DE0F
102
}
330
DE0F
100
AcDbXrecord
280
     1
  1
AcDbDs::IndexedPropertySchema
  2
AcDs:Indexable
280
     1
 91
        0
  0
XRECORD
  5
DE0D
102
{ACAD_REACTORS
330
DE0F
102
}
330
DE0F
100
AcDbXrecord
280
     1
  1
AcDbDs::HandleAttributeSchema
  2
AcDbDs::HandleAttribute
280
     7
 91
        1
284
     1
  0
XRECORD
  5
DE46
102
{ACAD_REACTORS
330
CF33
102
}
330
CF33
100
AcDbXrecord
280
     1
102
DISPLAYNAME
  1
Imperial24
102
FLAGS
 90
        0
  0
XRECORD
  5
DE48
102
{ACAD_REACTORS
330
D844
102
}
330
D844
100
AcDbXrecord
280
     1
102
DISPLAYNAME
  1
Metric50
102
FLAGS
 90
        0
  0
XRECORD
  5
CD2F
102
{ACAD_REACTORS
330
CD2D
102
}
330
CD2D
100
AcDbXrecord
280
     1
270
     1
271
     1
  0
XRECORD
  5
CD2E
102
{ACAD_REACTORS
330
CD2D
102
}
330
CD2D
100
AcDbXrecord
280
     1
270
     1
271
     1
  0
XRECORD
  5
CD32
102
{ACAD_REACTORS
330
CD2D
102
}
330
CD2D
100
AcDbXrecord
280
     1
270
     1
271
     1
  0
XRECORD
  5
CD31
102
{ACAD_REACTORS
330
CD2D
102
}
330
CD2D
100
AcDbXrecord
280
     1
270
     1
271
     1
  0
XRECORD
  5
CD33
102
{ACAD_REACTORS
330
CD2D
102
}
330
CD2D
100
AcDbXrecord
280
     1
270
     1
271
     1
  0
XRECORD
  5
CD30
102
{ACAD_REACTORS
330
CD2D
102
}
330
CD2D
100
AcDbXrecord
280
     1
270
     1
271
     1
  0
XRECORD
  5
CD27
102
{ACAD_REACTORS
330
CD25
102
}
330
CD25
100
AcDbXrecord
280
     1
270
     1
271
     1
  0
XRECORD
  5
CD26
102
{ACAD_REACTORS
330
CD25
102
}
330
CD25
100
AcDbXrecord
280
     1
270
     1
271
     1
  0
XRECORD
  5
CD2A
102
{ACAD_REACTORS
330
CD25
102
}
330
CD25
100
AcDbXrecord
280
     1
270
     1
271
     1
  0
XRECORD
  5
CD29
102
{ACAD_REACTORS
330
CD25
102
}
330
CD25
100
AcDbXrecord
280
     1
270
     1
271
     1
  0
XRECORD
  5
CD2B
102
{ACAD_REACTORS
330
CD25
102
}
330
CD25
100
AcDbXrecord
280
     1
270
     1
271
     1
  0
XRECORD
  5
CD28
102
{ACAD_REACTORS
330
CD25
102
}
330
CD25
100
AcDbXrecord
280
     1
270
     1
271
     1
  0
XRECORD
  5
CD37
102
{ACAD_REACTORS
330
CD35
102
}
330
CD35
100
AcDbXrecord
280
     1
270
     1
271
     1
  0
XRECORD
  5
CD36
102
{ACAD_REACTORS
330
CD35
102
}
330
CD35
100
AcDbXrecord
280
     1
270
     1
271
     1
  0
XRECORD
  5
CD3A
102
{ACAD_REACTORS
330
CD35
102
}
330
CD35
100
AcDbXrecord
280
     1
270
     1
271
     1
  0
XRECORD
  5
CD39
102
{ACAD_REACTORS
330
CD35
102
}
330
CD35
100
AcDbXrecord
280
     1
270
     1
271
     1
  0
XRECORD
  5
CD3B
102
{ACAD_REACTORS
330
CD35
102
}
330
CD35
100
AcDbXrecord
280
     1
270
     1
271
     1
  0
XRECORD
  5
CD38
102
{ACAD_REACTORS
330
CD35
102
}
330
CD35
100
AcDbXrecord
280
     1
270
     1
271
     1
  0
XRECORD
  5
DE45
102
{ACAD_REACTORS
330
CF31
102
}
330
CF31
100
AcDbXrecord
280
     1
102
DISPLAYNAME
  1
Imperial24
102
FLAGS
 90
        0
  0
XRECORD
  5
DE47
102
{ACAD_REACTORS
330
D840
102
}
330
D840
100
AcDbXrecord
280
     1
102
DISPLAYNAME
  1
Metric50
102
FLAGS
 90
        0
  0
CELLSTYLEMAP
  5
DE06
102
{ACAD_REACTORS
330
CD9D
102
}
330
CD9D
100
AcDbCellStyleMap
 90
        3
300
CELLSTYLE
  1
TABLEFORMAT_BEGIN
 90
        5
170
     1
 91
        0
 92
    32768
 62
   257
 93
        1
300
CONTENTFORMAT
  1
CONTENTFORMAT_BEGIN
 90
        0
 91
        0
 92
        4
 93
        0
300

 40
0.0
140
1.0
 94
        5
 62
     0
340
F
144
0.25
309
CONTENTFORMAT_END
171
     0
 94
        6
 95
        1
302
GRIDFORMAT
  1
GRIDFORMAT_BEGIN
 90
        0
 91
        1
 62
     0
 92
       -2
340
0
 93
        0
 40
0.045
309
GRIDFORMAT_END
 95
        2
302
GRIDFORMAT
  1
GRIDFORMAT_BEGIN
 90
        0
 91
        1
 62
     0
 92
       -2
340
0
 93
        0
 40
0.045
309
GRIDFORMAT_END
 95
        4
302
GRIDFORMAT
  1
GRIDFORMAT_BEGIN
 90
        0
 91
        1
 62
     0
 92
       -2
340
0
 93
        0
 40
0.045
309
GRIDFORMAT_END
 95
        8
302
GRIDFORMAT
  1
GRIDFORMAT_BEGIN
 90
        0
 91
        1
 62
     0
 92
       -2
340
0
 93
        0
 40
0.045
309
GRIDFORMAT_END
 95
       16
302
GRIDFORMAT
  1
GRIDFORMAT_BEGIN
 90
        0
 91
        1
 62
     0
 92
       -2
340
0
 93
        0
 40
0.045
309
GRIDFORMAT_END
 95
       32
302
GRIDFORMAT
  1
GRIDFORMAT_BEGIN
 90
        0
 91
        1
 62
     0
 92
       -2
340
0
 93
        0
 40
0.045
309
GRIDFORMAT_END
309
TABLEFORMAT_END
  1
CELLSTYLE_BEGIN
 90
        1
 91
        1
300
_TITLE
309
CELLSTYLE_END
300
CELLSTYLE
  1
TABLEFORMAT_BEGIN
 90
        5
170
     1
 91
        0
 92
        0
 62
   257
 93
        1
300
CONTENTFORMAT
  1
CONTENTFORMAT_BEGIN
 90
        0
 91
        0
 92
        4
 93
        0
300

 40
0.0
140
1.0
 94
        5
 62
     0
340
F
144
0.18
309
CONTENTFORMAT_END
171
     0
 94
        6
 95
        1
302
GRIDFORMAT
  1
GRIDFORMAT_BEGIN
 90
        0
 91
        1
 62
     0
 92
       -2
340
0
 93
        0
 40
0.045
309
GRIDFORMAT_END
 95
        2
302
GRIDFORMAT
  1
GRIDFORMAT_BEGIN
 90
        0
 91
        1
 62
     0
 92
       -2
340
0
 93
        0
 40
0.045
309
GRIDFORMAT_END
 95
        4
302
GRIDFORMAT
  1
GRIDFORMAT_BEGIN
 90
        0
 91
        1
 62
     0
 92
       -2
340
0
 93
        0
 40
0.045
309
GRIDFORMAT_END
 95
        8
302
GRIDFORMAT
  1
GRIDFORMAT_BEGIN
 90
        0
 91
        1
 62
     0
 92
       -2
340
0
 93
        0
 40
0.045
309
GRIDFORMAT_END
 95
       16
302
GRIDFORMAT
  1
GRIDFORMAT_BEGIN
 90
        0
 91
        1
 62
     0
 92
       -2
340
0
 93
        0
 40
0.045
309
GRIDFORMAT_END
 95
       32
302
GRIDFORMAT
  1
GRIDFORMAT_BEGIN
 90
        0
 91
        1
 62
     0
 92
       -2
340
0
 93
        0
 40
0.045
309
GRIDFORMAT_END
309
TABLEFORMAT_END
  1
CELLSTYLE_BEGIN
 90
        2
 91
        1
300
_HEADER
309
CELLSTYLE_END
300
CELLSTYLE
  1
TABLEFORMAT_BEGIN
 90
        5
170
     1
 91
        0
 92
        0
 62
   257
 93
        1
300
CONTENTFORMAT
  1
CONTENTFORMAT_BEGIN
 90
        0
 91
        0
 92
        4
 93
        0
300

 40
0.0
140
1.0
 94
        2
 62
     0
340
F
144
0.18
309
CONTENTFORMAT_END
171
     0
 94
        6
 95
        1
302
GRIDFORMAT
  1
GRIDFORMAT_BEGIN
 90
        0
 91
        1
 62
     0
 92
       -2
340
0
 93
        0
 40
0.045
309
GRIDFORMAT_END
 95
        2
302
GRIDFORMAT
  1
GRIDFORMAT_BEGIN
 90
        0
 91
        1
 62
     0
 92
       -2
340
0
 93
        0
 40
0.045
309
GRIDFORMAT_END
 95
        4
302
GRIDFORMAT
  1
GRIDFORMAT_BEGIN
 90
        0
 91
        1
 62
     0
 92
       -2
340
0
 93
        0
 40
0.045
309
GRIDFORMAT_END
 95
        8
302
GRIDFORMAT
  1
GRIDFORMAT_BEGIN
 90
        0
 91
        1
 62
     0
 92
       -2
340
0
 93
        0
 40
0.045
309
GRIDFORMAT_END
 95
       16
302
GRIDFORMAT
  1
GRIDFORMAT_BEGIN
 90
        0
 91
        1
 62
     0
 92
       -2
340
0
 93
        0
 40
0.045
309
GRIDFORMAT_END
 95
       32
302
GRIDFORMAT
  1
GRIDFORMAT_BEGIN
 90
        0
 91
        1
 62
     0
 92
       -2
340
0
 93
        0
 40
0.045
309
GRIDFORMAT_END
309
TABLEFORMAT_END
  1
CELLSTYLE_BEGIN
 90
        3
 91
        2
300
_DATA
309
CELLSTYLE_END
  0
XRECORD
  5
DE1C
102
{ACAD_REACTORS
330
DE1B
102
}
330
DE1B
100
AcDbXrecord
280
     1
102
RTVSPost2010Prop28
280
     1
102
RTVSPost2010PropOp28
 70
     1
102
RTVSPost2010Prop29
280
     1
102
RTVSPost2010PropOp29
 70
     1
102
RTVSPost2010Prop30
280
     0
102
RTVSPost2010PropOp30
 70
     1
102
RTVSPost2010Prop31
280
     0
102
RTVSPost2010PropOp31
 70
     1
102
RTVSPost2010Prop32
280
     0
102
RTVSPost2010PropOp32
 70
     1
102
RTVSPost2010Prop33
280
     0
102
RTVSPost2010PropOp33
 70
     1
102
RTVSPost2010Prop34
280
     0
102
RTVSPost2010PropOp34
 70
     1
102
RTVSPost2010Prop35
280
     0
102
RTVSPost2010PropOp35
 70
     1
102
RTVSPost2010Prop36
280
     0
102
RTVSPost2010PropOp36
 70
     1
102
RTVSPost2010Prop37
 90
       50
102
RTVSPost2010PropOp37
 70
     1
102
RTVSPost2010Prop38
140
0.0
102
RTVSPost2010PropOp38
 70
     1
102
RTVSPost2010Prop39
140
1.0
102
RTVSPost2010PropOp39
 70
     1
102
RTVSPost2010Prop40
 90
        0
102
RTVSPost2010PropOp40
 70
     1
102
RTVSPost2010Prop41ColorIndex
 90
       18
102
RTVSPost2010Prop41ColorRGB
 90
        0
102
RTVSPost2010PropOp41
 70
     1
102
RTVSPost2010Prop42
 90
       50
102
RTVSPost2010PropOp42
 70
     1
102
RTVSPost2010Prop43
 90
        3
102
RTVSPost2010PropOp43
 70
     1
102
RTVSPost2010Prop44ColorIndex
 90
        5
102
RTVSPost2010Prop44ColorRGB
 90
      255
102
RTVSPost2010PropOp44
 70
     1
102
RTVSPost2010Prop45
280
     0
102
RTVSPost2010PropOp45
 70
     1
102
RTVSPost2010Prop46
 90
       50
102
RTVSPost2010PropOp46
 70
     1
102
RTVSPost2010Prop47
 90
       50
102
RTVSPost2010PropOp47
 70
     1
102
RTVSPost2010Prop48
 90
       50
102
RTVSPost2010PropOp48
 70
     1
102
RTVSPost2010Prop49
280
     0
102
RTVSPost2010PropOp49
 70
     1
102
RTVSPost2010Prop50
 90
       50
102
RTVSPost2010PropOp50
 70
     1
102
RTVSPost2010Prop51ColorIndex
 90
      256
102
RTVSPost2010Prop51ColorRGB
 90
-16777216
102
RTVSPost2010PropOp51
 70
     0
102
RTVSPost2010Prop52
140
1.0
102
RTVSPost2010PropOp52
 70
     0
102
RTVSPost2010Prop53
 90
        2
102
RTVSPost2010PropOp53
 70
     1
102
RTVSPost2010Prop54
  1
strokes_ogs.tif
102
RTVSPost2010PropOp54
 70
     1
102
RTVSPost2010Prop55
280
     0
102
RTVSPost2010PropOp55
 70
     1
102
RTVSPost2010Prop56
140
1.0
102
RTVSPost2010PropOp56
 70
     1
102
RTVSPost2010Prop57
140
1.0
102
RTVSPost2010PropOp57
 70
     1
  0
XRECORD
  5
DE20
102
{ACAD_REACTORS
330
DE1F
102
}
330
DE1F
100
AcDbXrecord
280
     1
102
RTVSPost2010Prop28
280
     0
102
RTVSPost2010PropOp28
 70
     1
102
RTVSPost2010Prop29
280
     1
102
RTVSPost2010PropOp29
 70
     1
102
RTVSPost2010Prop30
280
     1
102
RTVSPost2010PropOp30
 70
     1
102
RTVSPost2010Prop31
280
     0
102
RTVSPost2010PropOp31
 70
     1
102
RTVSPost2010Prop32
280
     0
102
RTVSPost2010PropOp32
 70
     1
102
RTVSPost2010Prop33
280
     0
102
RTVSPost2010PropOp33
 70
     1
102
RTVSPost2010Prop34
280
     0
102
RTVSPost2010PropOp34
 70
     1
102
RTVSPost2010Prop35
280
     0
102
RTVSPost2010PropOp35
 70
     1
102
RTVSPost2010Prop36
280
     0
102
RTVSPost2010PropOp36
 70
     1
102
RTVSPost2010Prop37
 90
       50
102
RTVSPost2010PropOp37
 70
     1
102
RTVSPost2010Prop38
140
0.0
102
RTVSPost2010PropOp38
 70
     1
102
RTVSPost2010Prop39
140
1.0
102
RTVSPost2010PropOp39
 70
     1
102
RTVSPost2010Prop40
 90
        0
102
RTVSPost2010PropOp40
 70
     1
102
RTVSPost2010Prop41ColorIndex
 90
       18
102
RTVSPost2010Prop41ColorRGB
 90
        0
102
RTVSPost2010PropOp41
 70
     1
102
RTVSPost2010Prop42
 90
       50
102
RTVSPost2010PropOp42
 70
     1
102
RTVSPost2010Prop43
 90
        3
102
RTVSPost2010PropOp43
 70
     1
102
RTVSPost2010Prop44ColorIndex
 90
        5
102
RTVSPost2010Prop44ColorRGB
 90
      255
102
RTVSPost2010PropOp44
 70
     1
102
RTVSPost2010Prop45
280
     0
102
RTVSPost2010PropOp45
 70
     1
102
RTVSPost2010Prop46
 90
       50
102
RTVSPost2010PropOp46
 70
     1
102
RTVSPost2010Prop47
 90
       50
102
RTVSPost2010PropOp47
 70
     1
102
RTVSPost2010Prop48
 90
       50
102
RTVSPost2010PropOp48
 70
     1
102
RTVSPost2010Prop49
280
     0
102
RTVSPost2010PropOp49
 70
     1
102
RTVSPost2010Prop50
 90
       50
102
RTVSPost2010PropOp50
 70
     1
102
RTVSPost2010Prop51ColorIndex
 90
      256
102
RTVSPost2010Prop51ColorRGB
 90
-16777216
102
RTVSPost2010PropOp51
 70
     0
102
RTVSPost2010Prop52
140
1.0
102
RTVSPost2010PropOp52
 70
     0
102
RTVSPost2010Prop53
 90
        2
102
RTVSPost2010PropOp53
 70
     1
102
RTVSPost2010Prop54
  1
strokes_ogs.tif
102
RTVSPost2010PropOp54
 70
     1
102
RTVSPost2010Prop55
280
     0
102
RTVSPost2010PropOp55
 70
     1
102
RTVSPost2010Prop56
140
1.0
102
RTVSPost2010PropOp56
 70
     1
102
RTVSPost2010Prop57
140
1.0
102
RTVSPost2010PropOp57
 70
     1
  0
XRECORD
  5
DE1E
102
{ACAD_REACTORS
330
DE1D
102
}
330
DE1D
100
AcDbXrecord
280
     1
102
RTVSPost2010Prop28
280
     0
102
RTVSPost2010PropOp28
 70
     1
102
RTVSPost2010Prop29
280
     1
102
RTVSPost2010PropOp29
 70
     1
102
RTVSPost2010Prop30
280
     1
102
RTVSPost2010PropOp30
 70
     1
102
RTVSPost2010Prop31
280
     0
102
RTVSPost2010PropOp31
 70
     1
102
RTVSPost2010Prop32
280
     0
102
RTVSPost2010PropOp32
 70
     1
102
RTVSPost2010Prop33
280
     0
102
RTVSPost2010PropOp33
 70
     1
102
RTVSPost2010Prop34
280
     0
102
RTVSPost2010PropOp34
 70
     1
102
RTVSPost2010Prop35
280
     0
102
RTVSPost2010PropOp35
 70
     1
102
RTVSPost2010Prop36
280
     0
102
RTVSPost2010PropOp36
 70
     1
102
RTVSPost2010Prop37
 90
       50
102
RTVSPost2010PropOp37
 70
     1
102
RTVSPost2010Prop38
140
0.0
102
RTVSPost2010PropOp38
 70
     1
102
RTVSPost2010Prop39
140
1.0
102
RTVSPost2010PropOp39
 70
     1
102
RTVSPost2010Prop40
 90
        0
102
RTVSPost2010PropOp40
 70
     1
102
RTVSPost2010Prop41ColorIndex
 90
       18
102
RTVSPost2010Prop41ColorRGB
 90
        0
102
RTVSPost2010PropOp41
 70
     1
102
RTVSPost2010Prop42
 90
       50
102
RTVSPost2010PropOp42
 70
     1
102
RTVSPost2010Prop43
 90
        3
102
RTVSPost2010PropOp43
 70
     1
102
RTVSPost2010Prop44ColorIndex
 90
        5
102
RTVSPost2010Prop44ColorRGB
 90
      255
102
RTVSPost2010PropOp44
 70
     1
102
RTVSPost2010Prop45
280
     0
102
RTVSPost2010PropOp45
 70
     1
102
RTVSPost2010Prop46
 90
       50
102
RTVSPost2010PropOp46
 70
     1
102
RTVSPost2010Prop47
 90
       50
102
RTVSPost2010PropOp47
 70
     1
102
RTVSPost2010Prop48
 90
       50
102
RTVSPost2010PropOp48
 70
     1
102
RTVSPost2010Prop49
280
     0
102
RTVSPost2010PropOp49
 70
     1
102
RTVSPost2010Prop50
 90
       50
102
RTVSPost2010PropOp50
 70
     1
102
RTVSPost2010Prop51ColorIndex
 90
      256
102
RTVSPost2010Prop51ColorRGB
 90
-16777216
102
RTVSPost2010PropOp51
 70
     0
102
RTVSPost2010Prop52
140
1.0
102
RTVSPost2010PropOp52
 70
     0
102
RTVSPost2010Prop53
 90
        2
102
RTVSPost2010PropOp53
 70
     1
102
RTVSPost2010Prop54
  1
strokes_ogs.tif
102
RTVSPost2010PropOp54
 70
     1
102
RTVSPost2010Prop55
280
     0
102
RTVSPost2010PropOp55
 70
     1
102
RTVSPost2010Prop56
140
1.0
102
RTVSPost2010PropOp56
 70
     1
102
RTVSPost2010Prop57
140
1.0
102
RTVSPost2010PropOp57
 70
     1
  0
XRECORD
  5
DE1A
102
{ACAD_REACTORS
330
DE19
102
}
330
DE19
100
AcDbXrecord
280
     1
102
RTVSPost2010Prop28
280
     0
102
RTVSPost2010PropOp28
 70
     1
102
RTVSPost2010Prop29
280
     1
102
RTVSPost2010PropOp29
 70
     1
102
RTVSPost2010Prop30
280
     1
102
RTVSPost2010PropOp30
 70
     1
102
RTVSPost2010Prop31
280
     0
102
RTVSPost2010PropOp31
 70
     1
102
RTVSPost2010Prop32
280
     0
102
RTVSPost2010PropOp32
 70
     1
102
RTVSPost2010Prop33
280
     0
102
RTVSPost2010PropOp33
 70
     1
102
RTVSPost2010Prop34
280
     0
102
RTVSPost2010PropOp34
 70
     1
102
RTVSPost2010Prop35
280
     0
102
RTVSPost2010PropOp35
 70
     1
102
RTVSPost2010Prop36
280
     0
102
RTVSPost2010PropOp36
 70
     1
102
RTVSPost2010Prop37
 90
       50
102
RTVSPost2010PropOp37
 70
     1
102
RTVSPost2010Prop38
140
0.0
102
RTVSPost2010PropOp38
 70
     1
102
RTVSPost2010Prop39
140
1.0
102
RTVSPost2010PropOp39
 70
     1
102
RTVSPost2010Prop40
 90
        0
102
RTVSPost2010PropOp40
 70
     1
102
RTVSPost2010Prop41ColorIndex
 90
       18
102
RTVSPost2010Prop41ColorRGB
 90
        0
102
RTVSPost2010PropOp41
 70
     1
102
RTVSPost2010Prop42
 90
       50
102
RTVSPost2010PropOp42
 70
     1
102
RTVSPost2010Prop43
 90
        3
102
RTVSPost2010PropOp43
 70
     1
102
RTVSPost2010Prop44ColorIndex
 90
        5
102
RTVSPost2010Prop44ColorRGB
 90
      255
102
RTVSPost2010PropOp44
 70
     1
102
RTVSPost2010Prop45
280
     0
102
RTVSPost2010PropOp45
 70
     1
102
RTVSPost2010Prop46
 90
       50
102
RTVSPost2010PropOp46
 70
     1
102
RTVSPost2010Prop47
 90
       50
102
RTVSPost2010PropOp47
 70
     1
102
RTVSPost2010Prop48
 90
       50
102
RTVSPost2010PropOp48
 70
     1
102
RTVSPost2010Prop49
280
     0
102
RTVSPost2010PropOp49
 70
     1
102
RTVSPost2010Prop50
 90
       50
102
RTVSPost2010PropOp50
 70
     1
102
RTVSPost2010Prop51ColorIndex
 90
      256
102
RTVSPost2010Prop51ColorRGB
 90
-16777216
102
RTVSPost2010PropOp51
 70
     0
102
RTVSPost2010Prop52
140
1.0
102
RTVSPost2010PropOp52
 70
     0
102
RTVSPost2010Prop53
 90
        2
102
RTVSPost2010PropOp53
 70
     1
102
RTVSPost2010Prop54
  1
strokes_ogs.tif
102
RTVSPost2010PropOp54
 70
     1
102
RTVSPost2010Prop55
280
     0
102
RTVSPost2010PropOp55
 70
     1
102
RTVSPost2010Prop56
140
1.0
102
RTVSPost2010PropOp56
 70
     1
102
RTVSPost2010Prop57
140
1.0
102
RTVSPost2010PropOp57
 70
     1
  0
XRECORD
  5
DE28
102
{ACAD_REACTORS
330
DE27
102
}
330
DE27
100
AcDbXrecord
280
     1
102
RTVSPost2010Prop28
280
     0
102
RTVSPost2010PropOp28
 70
     1
102
RTVSPost2010Prop29
280
     1
102
RTVSPost2010PropOp29
 70
     1
102
RTVSPost2010Prop30
280
     1
102
RTVSPost2010PropOp30
 70
     1
102
RTVSPost2010Prop31
280
     0
102
RTVSPost2010PropOp31
 70
     1
102
RTVSPost2010Prop32
280
     0
102
RTVSPost2010PropOp32
 70
     1
102
RTVSPost2010Prop33
280
     0
102
RTVSPost2010PropOp33
 70
     1
102
RTVSPost2010Prop34
280
     0
102
RTVSPost2010PropOp34
 70
     1
102
RTVSPost2010Prop35
280
     0
102
RTVSPost2010PropOp35
 70
     1
102
RTVSPost2010Prop36
280
     0
102
RTVSPost2010PropOp36
 70
     1
102
RTVSPost2010Prop37
 90
       50
102
RTVSPost2010PropOp37
 70
     1
102
RTVSPost2010Prop38
140
0.0
102
RTVSPost2010PropOp38
 70
     1
102
RTVSPost2010Prop39
140
1.0
102
RTVSPost2010PropOp39
 70
     1
102
RTVSPost2010Prop40
 90
        0
102
RTVSPost2010PropOp40
 70
     1
102
RTVSPost2010Prop41ColorIndex
 90
       18
102
RTVSPost2010Prop41ColorRGB
 90
        0
102
RTVSPost2010PropOp41
 70
     1
102
RTVSPost2010Prop42
 90
       50
102
RTVSPost2010PropOp42
 70
     1
102
RTVSPost2010Prop43
 90
        3
102
RTVSPost2010PropOp43
 70
     1
102
RTVSPost2010Prop44ColorIndex
 90
        5
102
RTVSPost2010Prop44ColorRGB
 90
      255
102
RTVSPost2010PropOp44
 70
     1
102
RTVSPost2010Prop45
280
     0
102
RTVSPost2010PropOp45
 70
     1
102
RTVSPost2010Prop46
 90
       50
102
RTVSPost2010PropOp46
 70
     1
102
RTVSPost2010Prop47
 90
       50
102
RTVSPost2010PropOp47
 70
     1
102
RTVSPost2010Prop48
 90
       50
102
RTVSPost2010PropOp48
 70
     1
102
RTVSPost2010Prop49
280
     0
102
RTVSPost2010PropOp49
 70
     1
102
RTVSPost2010Prop50
 90
       50
102
RTVSPost2010PropOp50
 70
     1
102
RTVSPost2010Prop51ColorIndex
 90
      256
102
RTVSPost2010Prop51ColorRGB
 90
-16777216
102
RTVSPost2010PropOp51
 70
     0
102
RTVSPost2010Prop52
140
1.0
102
RTVSPost2010PropOp52
 70
     0
102
RTVSPost2010Prop53
 90
        2
102
RTVSPost2010PropOp53
 70
     1
102
RTVSPost2010Prop54
  1
strokes_ogs.tif
102
RTVSPost2010PropOp54
 70
     1
102
RTVSPost2010Prop55
280
     0
102
RTVSPost2010PropOp55
 70
     1
102
RTVSPost2010Prop56
140
1.0
102
RTVSPost2010PropOp56
 70
     1
102
RTVSPost2010Prop57
140
1.0
102
RTVSPost2010PropOp57
 70
     1
  0
XRECORD
  5
DE30
102
{ACAD_REACTORS
330
DE2F
102
}
330
DE2F
100
AcDbXrecord
280
     1
102
RTVSPost2010Prop28
280
     0
102
RTVSPost2010PropOp28
 70
     1
102
RTVSPost2010Prop29
280
     1
102
RTVSPost2010PropOp29
 70
     1
102
RTVSPost2010Prop30
280
     1
102
RTVSPost2010PropOp30
 70
     1
102
RTVSPost2010Prop31
280
     0
102
RTVSPost2010PropOp31
 70
     1
102
RTVSPost2010Prop32
280
     0
102
RTVSPost2010PropOp32
 70
     1
102
RTVSPost2010Prop33
280
     0
102
RTVSPost2010PropOp33
 70
     1
102
RTVSPost2010Prop34
280
     0
102
RTVSPost2010PropOp34
 70
     1
102
RTVSPost2010Prop35
280
     0
102
RTVSPost2010PropOp35
 70
     1
102
RTVSPost2010Prop36
280
     0
102
RTVSPost2010PropOp36
 70
     1
102
RTVSPost2010Prop37
 90
       50
102
RTVSPost2010PropOp37
 70
     1
102
RTVSPost2010Prop38
140
0.0
102
RTVSPost2010PropOp38
 70
     1
102
RTVSPost2010Prop39
140
1.0
102
RTVSPost2010PropOp39
 70
     1
102
RTVSPost2010Prop40
 90
        0
102
RTVSPost2010PropOp40
 70
     1
102
RTVSPost2010Prop41ColorIndex
 90
       18
102
RTVSPost2010Prop41ColorRGB
 90
        0
102
RTVSPost2010PropOp41
 70
     1
102
RTVSPost2010Prop42
 90
       50
102
RTVSPost2010PropOp42
 70
     1
102
RTVSPost2010Prop43
 90
        3
102
RTVSPost2010PropOp43
 70
     1
102
RTVSPost2010Prop44ColorIndex
 90
        5
102
RTVSPost2010Prop44ColorRGB
 90
      255
102
RTVSPost2010PropOp44
 70
     1
102
RTVSPost2010Prop45
280
     0
102
RTVSPost2010PropOp45
 70
     1
102
RTVSPost2010Prop46
 90
       50
102
RTVSPost2010PropOp46
 70
     1
102
RTVSPost2010Prop47
 90
       50
102
RTVSPost2010PropOp47
 70
     1
102
RTVSPost2010Prop48
 90
       50
102
RTVSPost2010PropOp48
 70
     1
102
RTVSPost2010Prop49
280
     0
102
RTVSPost2010PropOp49
 70
     1
102
RTVSPost2010Prop50
 90
       50
102
RTVSPost2010PropOp50
 70
     1
102
RTVSPost2010Prop51ColorIndex
 90
      256
102
RTVSPost2010Prop51ColorRGB
 90
-16777216
102
RTVSPost2010PropOp51
 70
     0
102
RTVSPost2010Prop52
140
1.0
102
RTVSPost2010PropOp52
 70
     0
102
RTVSPost2010Prop53
 90
        2
102
RTVSPost2010PropOp53
 70
     1
102
RTVSPost2010Prop54
  1
strokes_ogs.tif
102
RTVSPost2010PropOp54
 70
     1
102
RTVSPost2010Prop55
280
     0
102
RTVSPost2010PropOp55
 70
     1
102
RTVSPost2010Prop56
140
1.0
102
RTVSPost2010PropOp56
 70
     1
102
RTVSPost2010Prop57
140
1.0
102
RTVSPost2010PropOp57
 70
     1
  0
XRECORD
  5
DE22
102
{ACAD_REACTORS
330
DE21
102
}
330
DE21
100
AcDbXrecord
280
     1
102
RTVSPost2010Prop28
280
     0
102
RTVSPost2010PropOp28
 70
     1
102
RTVSPost2010Prop29
280
     1
102
RTVSPost2010PropOp29
 70
     1
102
RTVSPost2010Prop30
280
     1
102
RTVSPost2010PropOp30
 70
     1
102
RTVSPost2010Prop31
280
     0
102
RTVSPost2010PropOp31
 70
     1
102
RTVSPost2010Prop32
280
     0
102
RTVSPost2010PropOp32
 70
     1
102
RTVSPost2010Prop33
280
     0
102
RTVSPost2010PropOp33
 70
     1
102
RTVSPost2010Prop34
280
     0
102
RTVSPost2010PropOp34
 70
     1
102
RTVSPost2010Prop35
280
     0
102
RTVSPost2010PropOp35
 70
     1
102
RTVSPost2010Prop36
280
     0
102
RTVSPost2010PropOp36
 70
     1
102
RTVSPost2010Prop37
 90
       50
102
RTVSPost2010PropOp37
 70
     1
102
RTVSPost2010Prop38
140
0.0
102
RTVSPost2010PropOp38
 70
     1
102
RTVSPost2010Prop39
140
1.0
102
RTVSPost2010PropOp39
 70
     1
102
RTVSPost2010Prop40
 90
        0
102
RTVSPost2010PropOp40
 70
     1
102
RTVSPost2010Prop41ColorIndex
 90
       18
102
RTVSPost2010Prop41ColorRGB
 90
        0
102
RTVSPost2010PropOp41
 70
     1
102
RTVSPost2010Prop42
 90
       50
102
RTVSPost2010PropOp42
 70
     1
102
RTVSPost2010Prop43
 90
        3
102
RTVSPost2010PropOp43
 70
     1
102
RTVSPost2010Prop44ColorIndex
 90
        5
102
RTVSPost2010Prop44ColorRGB
 90
      255
102
RTVSPost2010PropOp44
 70
     1
102
RTVSPost2010Prop45
280
     0
102
RTVSPost2010PropOp45
 70
     1
102
RTVSPost2010Prop46
 90
       50
102
RTVSPost2010PropOp46
 70
     1
102
RTVSPost2010Prop47
 90
       50
102
RTVSPost2010PropOp47
 70
     1
102
RTVSPost2010Prop48
 90
       50
102
RTVSPost2010PropOp48
 70
     1
102
RTVSPost2010Prop49
280
     0
102
RTVSPost2010PropOp49
 70
     1
102
RTVSPost2010Prop50
 90
       50
102
RTVSPost2010PropOp50
 70
     1
102
RTVSPost2010Prop51ColorIndex
 90
      256
102
RTVSPost2010Prop51ColorRGB
 90
-16777216
102
RTVSPost2010PropOp51
 70
     0
102
RTVSPost2010Prop52
140
1.0
102
RTVSPost2010PropOp52
 70
     0
102
RTVSPost2010Prop53
 90
        2
102
RTVSPost2010PropOp53
 70
     1
102
RTVSPost2010Prop54
  1
strokes_ogs.tif
102
RTVSPost2010PropOp54
 70
     1
102
RTVSPost2010Prop55
280
     0
102
RTVSPost2010PropOp55
 70
     1
102
RTVSPost2010Prop56
140
1.0
102
RTVSPost2010PropOp56
 70
     1
102
RTVSPost2010Prop57
140
1.0
102
RTVSPost2010PropOp57
 70
     1
  0
XRECORD
  5
DE26
102
{ACAD_REACTORS
330
DE25
102
}
330
DE25
100
AcDbXrecord
280
     1
102
RTVSPost2010Prop28
280
     0
102
RTVSPost2010PropOp28
 70
     1
102
RTVSPost2010Prop29
280
     1
102
RTVSPost2010PropOp29
 70
     1
102
RTVSPost2010Prop30
280
     1
102
RTVSPost2010PropOp30
 70
     1
102
RTVSPost2010Prop31
280
     0
102
RTVSPost2010PropOp31
 70
     1
102
RTVSPost2010Prop32
280
     0
102
RTVSPost2010PropOp32
 70
     1
102
RTVSPost2010Prop33
280
     0
102
RTVSPost2010PropOp33
 70
     1
102
RTVSPost2010Prop34
280
     0
102
RTVSPost2010PropOp34
 70
     1
102
RTVSPost2010Prop35
280
     0
102
RTVSPost2010PropOp35
 70
     1
102
RTVSPost2010Prop36
280
     0
102
RTVSPost2010PropOp36
 70
     1
102
RTVSPost2010Prop37
 90
       50
102
RTVSPost2010PropOp37
 70
     1
102
RTVSPost2010Prop38
140
0.0
102
RTVSPost2010PropOp38
 70
     1
102
RTVSPost2010Prop39
140
1.0
102
RTVSPost2010PropOp39
 70
     1
102
RTVSPost2010Prop40
 90
        0
102
RTVSPost2010PropOp40
 70
     1
102
RTVSPost2010Prop41ColorIndex
 90
       18
102
RTVSPost2010Prop41ColorRGB
 90
        0
102
RTVSPost2010PropOp41
 70
     1
102
RTVSPost2010Prop42
 90
       50
102
RTVSPost2010PropOp42
 70
     1
102
RTVSPost2010Prop43
 90
        3
102
RTVSPost2010PropOp43
 70
     1
102
RTVSPost2010Prop44ColorIndex
 90
        5
102
RTVSPost2010Prop44ColorRGB
 90
      255
102
RTVSPost2010PropOp44
 70
     1
102
RTVSPost2010Prop45
280
     0
102
RTVSPost2010PropOp45
 70
     1
102
RTVSPost2010Prop46
 90
       50
102
RTVSPost2010PropOp46
 70
     1
102
RTVSPost2010Prop47
 90
       50
102
RTVSPost2010PropOp47
 70
     1
102
RTVSPost2010Prop48
 90
       50
102
RTVSPost2010PropOp48
 70
     1
102
RTVSPost2010Prop49
280
     0
102
RTVSPost2010PropOp49
 70
     1
102
RTVSPost2010Prop50
 90
       50
102
RTVSPost2010PropOp50
 70
     1
102
RTVSPost2010Prop51ColorIndex
 90
      256
102
RTVSPost2010Prop51ColorRGB
 90
-16777216
102
RTVSPost2010PropOp51
 70
     0
102
RTVSPost2010Prop52
140
1.0
102
RTVSPost2010PropOp52
 70
     0
102
RTVSPost2010Prop53
 90
        2
102
RTVSPost2010PropOp53
 70
     1
102
RTVSPost2010Prop54
  1
strokes_ogs.tif
102
RTVSPost2010PropOp54
 70
     1
102
RTVSPost2010Prop55
280
     0
102
RTVSPost2010PropOp55
 70
     1
102
RTVSPost2010Prop56
140
1.0
102
RTVSPost2010PropOp56
 70
     1
102
RTVSPost2010Prop57
140
1.0
102
RTVSPost2010PropOp57
 70
     1
  0
XRECORD
  5
DE36
102
{ACAD_REACTORS
330
DE35
102
}
330
DE35
100
AcDbXrecord
280
     1
102
RTVSPost2010Prop28
280
     0
102
RTVSPost2010PropOp28
 70
     1
102
RTVSPost2010Prop29
280
     1
102
RTVSPost2010PropOp29
 70
     1
102
RTVSPost2010Prop30
280
     1
102
RTVSPost2010PropOp30
 70
     1
102
RTVSPost2010Prop31
280
     0
102
RTVSPost2010PropOp31
 70
     1
102
RTVSPost2010Prop32
280
     0
102
RTVSPost2010PropOp32
 70
     1
102
RTVSPost2010Prop33
280
     0
102
RTVSPost2010PropOp33
 70
     1
102
RTVSPost2010Prop34
280
     0
102
RTVSPost2010PropOp34
 70
     1
102
RTVSPost2010Prop35
280
     0
102
RTVSPost2010PropOp35
 70
     1
102
RTVSPost2010Prop36
280
     0
102
RTVSPost2010PropOp36
 70
     1
102
RTVSPost2010Prop37
 90
       50
102
RTVSPost2010PropOp37
 70
     1
102
RTVSPost2010Prop38
140
0.0
102
RTVSPost2010PropOp38
 70
     1
102
RTVSPost2010Prop39
140
1.0
102
RTVSPost2010PropOp39
 70
     1
102
RTVSPost2010Prop40
 90
        0
102
RTVSPost2010PropOp40
 70
     1
102
RTVSPost2010Prop41ColorIndex
 90
       18
102
RTVSPost2010Prop41ColorRGB
 90
        0
102
RTVSPost2010PropOp41
 70
     1
102
RTVSPost2010Prop42
 90
       50
102
RTVSPost2010PropOp42
 70
     1
102
RTVSPost2010Prop43
 90
        3
102
RTVSPost2010PropOp43
 70
     1
102
RTVSPost2010Prop44ColorIndex
 90
        5
102
RTVSPost2010Prop44ColorRGB
 90
      255
102
RTVSPost2010PropOp44
 70
     1
102
RTVSPost2010Prop45
280
     0
102
RTVSPost2010PropOp45
 70
     1
102
RTVSPost2010Prop46
 90
       50
102
RTVSPost2010PropOp46
 70
     1
102
RTVSPost2010Prop47
 90
       50
102
RTVSPost2010PropOp47
 70
     1
102
RTVSPost2010Prop48
 90
       50
102
RTVSPost2010PropOp48
 70
     1
102
RTVSPost2010Prop49
280
     0
102
RTVSPost2010PropOp49
 70
     1
102
RTVSPost2010Prop50
 90
       50
102
RTVSPost2010PropOp50
 70
     1
102
RTVSPost2010Prop51ColorIndex
 90
      256
102
RTVSPost2010Prop51ColorRGB
 90
-16777216
102
RTVSPost2010PropOp51
 70
     0
102
RTVSPost2010Prop52
140
1.0
102
RTVSPost2010PropOp52
 70
     0
102
RTVSPost2010Prop53
 90
        2
102
RTVSPost2010PropOp53
 70
     1
102
RTVSPost2010Prop54
  1
strokes_ogs.tif
102
RTVSPost2010PropOp54
 70
     1
102
RTVSPost2010Prop55
280
     0
102
RTVSPost2010PropOp55
 70
     1
102
RTVSPost2010Prop56
140
1.0
102
RTVSPost2010PropOp56
 70
     1
102
RTVSPost2010Prop57
140
1.0
102
RTVSPost2010PropOp57
 70
     1
  0
XRECORD
  5
DE2E
102
{ACAD_REACTORS
330
DE2D
102
}
330
DE2D
100
AcDbXrecord
280
     1
102
RTVSPost2010Prop28
280
     0
102
RTVSPost2010PropOp28
 70
     1
102
RTVSPost2010Prop29
280
     1
102
RTVSPost2010PropOp29
 70
     1
102
RTVSPost2010Prop30
280
     1
102
RTVSPost2010PropOp30
 70
     1
102
RTVSPost2010Prop31
280
     0
102
RTVSPost2010PropOp31
 70
     1
102
RTVSPost2010Prop32
280
     0
102
RTVSPost2010PropOp32
 70
     1
102
RTVSPost2010Prop33
280
     0
102
RTVSPost2010PropOp33
 70
     1
102
RTVSPost2010Prop34
280
     0
102
RTVSPost2010PropOp34
 70
     1
102
RTVSPost2010Prop35
280
     0
102
RTVSPost2010PropOp35
 70
     1
102
RTVSPost2010Prop36
280
     0
102
RTVSPost2010PropOp36
 70
     1
102
RTVSPost2010Prop37
 90
       50
102
RTVSPost2010PropOp37
 70
     1
102
RTVSPost2010Prop38
140
0.0
102
RTVSPost2010PropOp38
 70
     1
102
RTVSPost2010Prop39
140
1.0
102
RTVSPost2010PropOp39
 70
     1
102
RTVSPost2010Prop40
 90
        0
102
RTVSPost2010PropOp40
 70
     1
102
RTVSPost2010Prop41ColorIndex
 90
       18
102
RTVSPost2010Prop41ColorRGB
 90
        0
102
RTVSPost2010PropOp41
 70
     1
102
RTVSPost2010Prop42
 90
       50
102
RTVSPost2010PropOp42
 70
     1
102
RTVSPost2010Prop43
 90
        3
102
RTVSPost2010PropOp43
 70
     1
102
RTVSPost2010Prop44ColorIndex
 90
        5
102
RTVSPost2010Prop44ColorRGB
 90
      255
102
RTVSPost2010PropOp44
 70
     1
102
RTVSPost2010Prop45
280
     0
102
RTVSPost2010PropOp45
 70
     1
102
RTVSPost2010Prop46
 90
       50
102
RTVSPost2010PropOp46
 70
     1
102
RTVSPost2010Prop47
 90
       50
102
RTVSPost2010PropOp47
 70
     1
102
RTVSPost2010Prop48
 90
       50
102
RTVSPost2010PropOp48
 70
     1
102
RTVSPost2010Prop49
280
     0
102
RTVSPost2010PropOp49
 70
     1
102
RTVSPost2010Prop50
 90
       50
102
RTVSPost2010PropOp50
 70
     1
102
RTVSPost2010Prop51ColorIndex
 90
      256
102
RTVSPost2010Prop51ColorRGB
 90
-16777216
102
RTVSPost2010PropOp51
 70
     0
102
RTVSPost2010Prop52
140
1.0
102
RTVSPost2010PropOp52
 70
     0
102
RTVSPost2010Prop53
 90
        2
102
RTVSPost2010PropOp53
 70
     1
102
RTVSPost2010Prop54
  1
strokes_ogs.tif
102
RTVSPost2010PropOp54
 70
     1
102
RTVSPost2010Prop55
280
     0
102
RTVSPost2010PropOp55
 70
     1
102
RTVSPost2010Prop56
140
1.0
102
RTVSPost2010PropOp56
 70
     1
102
RTVSPost2010Prop57
140
1.0
102
RTVSPost2010PropOp57
 70
     1
  0
XRECORD
  5
DE12
102
{ACAD_REACTORS
330
DE11
102
}
330
DE11
100
AcDbXrecord
280
     1
102
RTVSPost2010Prop28
280
     0
102
RTVSPost2010PropOp28
 70
     1
102
RTVSPost2010Prop29
280
     1
102
RTVSPost2010PropOp29
 70
     1
102
RTVSPost2010Prop30
280
     1
102
RTVSPost2010PropOp30
 70
     1
102
RTVSPost2010Prop31
280
     0
102
RTVSPost2010PropOp31
 70
     1
102
RTVSPost2010Prop32
280
     0
102
RTVSPost2010PropOp32
 70
     1
102
RTVSPost2010Prop33
280
     0
102
RTVSPost2010PropOp33
 70
     1
102
RTVSPost2010Prop34
280
     0
102
RTVSPost2010PropOp34
 70
     1
102
RTVSPost2010Prop35
280
     0
102
RTVSPost2010PropOp35
 70
     1
102
RTVSPost2010Prop36
280
     0
102
RTVSPost2010PropOp36
 70
     1
102
RTVSPost2010Prop37
 90
       50
102
RTVSPost2010PropOp37
 70
     1
102
RTVSPost2010Prop38
140
0.0
102
RTVSPost2010PropOp38
 70
     1
102
RTVSPost2010Prop39
140
1.0
102
RTVSPost2010PropOp39
 70
     1
102
RTVSPost2010Prop40
 90
        0
102
RTVSPost2010PropOp40
 70
     1
102
RTVSPost2010Prop41ColorIndex
 90
       18
102
RTVSPost2010Prop41ColorRGB
 90
        0
102
RTVSPost2010PropOp41
 70
     1
102
RTVSPost2010Prop42
 90
       50
102
RTVSPost2010PropOp42
 70
     1
102
RTVSPost2010Prop43
 90
        3
102
RTVSPost2010PropOp43
 70
     1
102
RTVSPost2010Prop44ColorIndex
 90
        5
102
RTVSPost2010Prop44ColorRGB
 90
      255
102
RTVSPost2010PropOp44
 70
     1
102
RTVSPost2010Prop45
280
     0
102
RTVSPost2010PropOp45
 70
     1
102
RTVSPost2010Prop46
 90
       50
102
RTVSPost2010PropOp46
 70
     1
102
RTVSPost2010Prop47
 90
       50
102
RTVSPost2010PropOp47
 70
     1
102
RTVSPost2010Prop48
 90
       50
102
RTVSPost2010PropOp48
 70
     1
102
RTVSPost2010Prop49
280
     0
102
RTVSPost2010PropOp49
 70
     1
102
RTVSPost2010Prop50
 90
       50
102
RTVSPost2010PropOp50
 70
     1
102
RTVSPost2010Prop51ColorIndex
 90
      256
102
RTVSPost2010Prop51ColorRGB
 90
-16777216
102
RTVSPost2010PropOp51
 70
     0
102
RTVSPost2010Prop52
140
1.0
102
RTVSPost2010PropOp52
 70
     0
102
RTVSPost2010Prop53
 90
        2
102
RTVSPost2010PropOp53
 70
     1
102
RTVSPost2010Prop54
  1
strokes_ogs.tif
102
RTVSPost2010PropOp54
 70
     1
102
RTVSPost2010Prop55
280
     0
102
RTVSPost2010PropOp55
 70
     1
102
RTVSPost2010Prop56
140
1.0
102
RTVSPost2010PropOp56
 70
     1
102
RTVSPost2010Prop57
140
1.0
102
RTVSPost2010PropOp57
 70
     1
  0
XRECORD
  5
DE14
102
{ACAD_REACTORS
330
DE13
102
}
330
DE13
100
AcDbXrecord
280
     1
102
RTVSPost2010Prop28
280
     0
102
RTVSPost2010PropOp28
 70
     1
102
RTVSPost2010Prop29
280
     1
102
RTVSPost2010PropOp29
 70
     1
102
RTVSPost2010Prop30
280
     1
102
RTVSPost2010PropOp30
 70
     1
102
RTVSPost2010Prop31
280
     0
102
RTVSPost2010PropOp31
 70
     1
102
RTVSPost2010Prop32
280
     0
102
RTVSPost2010PropOp32
 70
     1
102
RTVSPost2010Prop33
280
     0
102
RTVSPost2010PropOp33
 70
     1
102
RTVSPost2010Prop34
280
     0
102
RTVSPost2010PropOp34
 70
     1
102
RTVSPost2010Prop35
280
     0
102
RTVSPost2010PropOp35
 70
     1
102
RTVSPost2010Prop36
280
     0
102
RTVSPost2010PropOp36
 70
     1
102
RTVSPost2010Prop37
 90
       50
102
RTVSPost2010PropOp37
 70
     1
102
RTVSPost2010Prop38
140
0.0
102
RTVSPost2010PropOp38
 70
     1
102
RTVSPost2010Prop39
140
1.0
102
RTVSPost2010PropOp39
 70
     1
102
RTVSPost2010Prop40
 90
        0
102
RTVSPost2010PropOp40
 70
     1
102
RTVSPost2010Prop41ColorIndex
 90
       18
102
RTVSPost2010Prop41ColorRGB
 90
        0
102
RTVSPost2010PropOp41
 70
     1
102
RTVSPost2010Prop42
 90
       50
102
RTVSPost2010PropOp42
 70
     1
102
RTVSPost2010Prop43
 90
        3
102
RTVSPost2010PropOp43
 70
     1
102
RTVSPost2010Prop44ColorIndex
 90
        5
102
RTVSPost2010Prop44ColorRGB
 90
      255
102
RTVSPost2010PropOp44
 70
     1
102
RTVSPost2010Prop45
280
     0
102
RTVSPost2010PropOp45
 70
     1
102
RTVSPost2010Prop46
 90
       50
102
RTVSPost2010PropOp46
 70
     1
102
RTVSPost2010Prop47
 90
       50
102
RTVSPost2010PropOp47
 70
     1
102
RTVSPost2010Prop48
 90
       50
102
RTVSPost2010PropOp48
 70
     1
102
RTVSPost2010Prop49
280
     0
102
RTVSPost2010PropOp49
 70
     1
102
RTVSPost2010Prop50
 90
       50
102
RTVSPost2010PropOp50
 70
     1
102
RTVSPost2010Prop51ColorIndex
 90
      256
102
RTVSPost2010Prop51ColorRGB
 90
-16777216
102
RTVSPost2010PropOp51
 70
     0
102
RTVSPost2010Prop52
140
1.0
102
RTVSPost2010PropOp52
 70
     0
102
RTVSPost2010Prop53
 90
        2
102
RTVSPost2010PropOp53
 70
     1
102
RTVSPost2010Prop54
  1
strokes_ogs.tif
102
RTVSPost2010PropOp54
 70
     1
102
RTVSPost2010Prop55
280
     0
102
RTVSPost2010PropOp55
 70
     1
102
RTVSPost2010Prop56
140
1.0
102
RTVSPost2010PropOp56
 70
     1
102
RTVSPost2010Prop57
140
1.0
102
RTVSPost2010PropOp57
 70
     1
  0
XRECORD
  5
DE16
102
{ACAD_REACTORS
330
DE15
102
}
330
DE15
100
AcDbXrecord
280
     1
102
RTVSPost2010Prop28
280
     0
102
RTVSPost2010PropOp28
 70
     1
102
RTVSPost2010Prop29
280
     1
102
RTVSPost2010PropOp29
 70
     1
102
RTVSPost2010Prop30
280
     1
102
RTVSPost2010PropOp30
 70
     1
102
RTVSPost2010Prop31
280
     0
102
RTVSPost2010PropOp31
 70
     1
102
RTVSPost2010Prop32
280
     0
102
RTVSPost2010PropOp32
 70
     1
102
RTVSPost2010Prop33
280
     0
102
RTVSPost2010PropOp33
 70
     1
102
RTVSPost2010Prop34
280
     0
102
RTVSPost2010PropOp34
 70
     1
102
RTVSPost2010Prop35
280
     0
102
RTVSPost2010PropOp35
 70
     1
102
RTVSPost2010Prop36
280
     0
102
RTVSPost2010PropOp36
 70
     1
102
RTVSPost2010Prop37
 90
       50
102
RTVSPost2010PropOp37
 70
     1
102
RTVSPost2010Prop38
140
0.0
102
RTVSPost2010PropOp38
 70
     1
102
RTVSPost2010Prop39
140
1.0
102
RTVSPost2010PropOp39
 70
     1
102
RTVSPost2010Prop40
 90
        0
102
RTVSPost2010PropOp40
 70
     1
102
RTVSPost2010Prop41ColorIndex
 90
       18
102
RTVSPost2010Prop41ColorRGB
 90
        0
102
RTVSPost2010PropOp41
 70
     1
102
RTVSPost2010Prop42
 90
       50
102
RTVSPost2010PropOp42
 70
     1
102
RTVSPost2010Prop43
 90
        3
102
RTVSPost2010PropOp43
 70
     1
102
RTVSPost2010Prop44ColorIndex
 90
        5
102
RTVSPost2010Prop44ColorRGB
 90
      255
102
RTVSPost2010PropOp44
 70
     1
102
RTVSPost2010Prop45
280
     0
102
RTVSPost2010PropOp45
 70
     1
102
RTVSPost2010Prop46
 90
       50
102
RTVSPost2010PropOp46
 70
     1
102
RTVSPost2010Prop47
 90
       50
102
RTVSPost2010PropOp47
 70
     1
102
RTVSPost2010Prop48
 90
       50
102
RTVSPost2010PropOp48
 70
     1
102
RTVSPost2010Prop49
280
     0
102
RTVSPost2010PropOp49
 70
     1
102
RTVSPost2010Prop50
 90
       50
102
RTVSPost2010PropOp50
 70
     1
102
RTVSPost2010Prop51ColorIndex
 90
      256
102
RTVSPost2010Prop51ColorRGB
 90
-16777216
102
RTVSPost2010PropOp51
 70
     0
102
RTVSPost2010Prop52
140
1.0
102
RTVSPost2010PropOp52
 70
     0
102
RTVSPost2010Prop53
 90
        2
102
RTVSPost2010PropOp53
 70
     1
102
RTVSPost2010Prop54
  1
strokes_ogs.tif
102
RTVSPost2010PropOp54
 70
     1
102
RTVSPost2010Prop55
280
     0
102
RTVSPost2010PropOp55
 70
     1
102
RTVSPost2010Prop56
140
1.0
102
RTVSPost2010PropOp56
 70
     1
102
RTVSPost2010Prop57
140
1.0
102
RTVSPost2010PropOp57
 70
     1
  0
XRECORD
  5
DE18
102
{ACAD_REACTORS
330
DE17
102
}
330
DE17
100
AcDbXrecord
280
     1
102
RTVSPost2010Prop28
280
     0
102
RTVSPost2010PropOp28
 70
     1
102
RTVSPost2010Prop29
280
     1
102
RTVSPost2010PropOp29
 70
     1
102
RTVSPost2010Prop30
280
     1
102
RTVSPost2010PropOp30
 70
     1
102
RTVSPost2010Prop31
280
     0
102
RTVSPost2010PropOp31
 70
     1
102
RTVSPost2010Prop32
280
     0
102
RTVSPost2010PropOp32
 70
     1
102
RTVSPost2010Prop33
280
     0
102
RTVSPost2010PropOp33
 70
     1
102
RTVSPost2010Prop34
280
     0
102
RTVSPost2010PropOp34
 70
     1
102
RTVSPost2010Prop35
280
     0
102
RTVSPost2010PropOp35
 70
     1
102
RTVSPost2010Prop36
280
     0
102
RTVSPost2010PropOp36
 70
     1
102
RTVSPost2010Prop37
 90
       50
102
RTVSPost2010PropOp37
 70
     1
102
RTVSPost2010Prop38
140
0.0
102
RTVSPost2010PropOp38
 70
     1
102
RTVSPost2010Prop39
140
1.0
102
RTVSPost2010PropOp39
 70
     1
102
RTVSPost2010Prop40
 90
        0
102
RTVSPost2010PropOp40
 70
     1
102
RTVSPost2010Prop41ColorIndex
 90
       18
102
RTVSPost2010Prop41ColorRGB
 90
        0
102
RTVSPost2010PropOp41
 70
     1
102
RTVSPost2010Prop42
 90
       50
102
RTVSPost2010PropOp42
 70
     1
102
RTVSPost2010Prop43
 90
        3
102
RTVSPost2010PropOp43
 70
     1
102
RTVSPost2010Prop44ColorIndex
 90
        5
102
RTVSPost2010Prop44ColorRGB
 90
      255
102
RTVSPost2010PropOp44
 70
     1
102
RTVSPost2010Prop45
280
     0
102
RTVSPost2010PropOp45
 70
     1
102
RTVSPost2010Prop46
 90
       50
102
RTVSPost2010PropOp46
 70
     1
102
RTVSPost2010Prop47
 90
       50
102
RTVSPost2010PropOp47
 70
     1
102
RTVSPost2010Prop48
 90
       50
102
RTVSPost2010PropOp48
 70
     1
102
RTVSPost2010Prop49
280
     0
102
RTVSPost2010PropOp49
 70
     1
102
RTVSPost2010Prop50
 90
       50
102
RTVSPost2010PropOp50
 70
     1
102
RTVSPost2010Prop51ColorIndex
 90
      256
102
RTVSPost2010Prop51ColorRGB
 90
-16777216
102
RTVSPost2010PropOp51
 70
     0
102
RTVSPost2010Prop52
140
1.0
102
RTVSPost2010PropOp52
 70
     0
102
RTVSPost2010Prop53
 90
        2
102
RTVSPost2010PropOp53
 70
     1
102
RTVSPost2010Prop54
  1
strokes_ogs.tif
102
RTVSPost2010PropOp54
 70
     1
102
RTVSPost2010Prop55
280
     0
102
RTVSPost2010PropOp55
 70
     1
102
RTVSPost2010Prop56
140
1.0
102
RTVSPost2010PropOp56
 70
     1
102
RTVSPost2010Prop57
140
1.0
102
RTVSPost2010PropOp57
 70
     1
  0
XRECORD
  5
DE3A
102
{ACAD_REACTORS
330
DE39
102
}
330
DE39
100
AcDbXrecord
280
     1
102
RTVSPost2010Prop28
280
     0
102
RTVSPost2010PropOp28
 70
     1
102
RTVSPost2010Prop29
280
     1
102
RTVSPost2010PropOp29
 70
     1
102
RTVSPost2010Prop30
280
     1
102
RTVSPost2010PropOp30
 70
     1
102
RTVSPost2010Prop31
280
     0
102
RTVSPost2010PropOp31
 70
     1
102
RTVSPost2010Prop32
280
     0
102
RTVSPost2010PropOp32
 70
     1
102
RTVSPost2010Prop33
280
     0
102
RTVSPost2010PropOp33
 70
     1
102
RTVSPost2010Prop34
280
     0
102
RTVSPost2010PropOp34
 70
     1
102
RTVSPost2010Prop35
280
     0
102
RTVSPost2010PropOp35
 70
     1
102
RTVSPost2010Prop36
280
     0
102
RTVSPost2010PropOp36
 70
     1
102
RTVSPost2010Prop37
 90
       50
102
RTVSPost2010PropOp37
 70
     1
102
RTVSPost2010Prop38
140
0.0
102
RTVSPost2010PropOp38
 70
     1
102
RTVSPost2010Prop39
140
1.0
102
RTVSPost2010PropOp39
 70
     1
102
RTVSPost2010Prop40
 90
        0
102
RTVSPost2010PropOp40
 70
     1
102
RTVSPost2010Prop41ColorIndex
 90
       18
102
RTVSPost2010Prop41ColorRGB
 90
        0
102
RTVSPost2010PropOp41
 70
     1
102
RTVSPost2010Prop42
 90
       50
102
RTVSPost2010PropOp42
 70
     1
102
RTVSPost2010Prop43
 90
        3
102
RTVSPost2010PropOp43
 70
     1
102
RTVSPost2010Prop44ColorIndex
 90
        5
102
RTVSPost2010Prop44ColorRGB
 90
      255
102
RTVSPost2010PropOp44
 70
     1
102
RTVSPost2010Prop45
280
     0
102
RTVSPost2010PropOp45
 70
     1
102
RTVSPost2010Prop46
 90
       50
102
RTVSPost2010PropOp46
 70
     1
102
RTVSPost2010Prop47
 90
       50
102
RTVSPost2010PropOp47
 70
     1
102
RTVSPost2010Prop48
 90
       50
102
RTVSPost2010PropOp48
 70
     1
102
RTVSPost2010Prop49
280
     0
102
RTVSPost2010PropOp49
 70
     1
102
RTVSPost2010Prop50
 90
       50
102
RTVSPost2010PropOp50
 70
     1
102
RTVSPost2010Prop51ColorIndex
 90
      256
102
RTVSPost2010Prop51ColorRGB
 90
-16777216
102
RTVSPost2010PropOp51
 70
     0
102
RTVSPost2010Prop52
140
1.0
102
RTVSPost2010PropOp52
 70
     0
102
RTVSPost2010Prop53
 90
        2
102
RTVSPost2010PropOp53
 70
     1
102
RTVSPost2010Prop54
  1
strokes_ogs.tif
102
RTVSPost2010PropOp54
 70
     1
102
RTVSPost2010Prop55
280
     0
102
RTVSPost2010PropOp55
 70
     1
102
RTVSPost2010Prop56
140
1.0
102
RTVSPost2010PropOp56
 70
     1
102
RTVSPost2010Prop57
140
1.0
102
RTVSPost2010PropOp57
 70
     1
  0
XRECORD
  5
DE32
102
{ACAD_REACTORS
330
DE31
102
}
330
DE31
100
AcDbXrecord
280
     1
102
RTVSPost2010Prop28
280
     0
102
RTVSPost2010PropOp28
 70
     1
102
RTVSPost2010Prop29
280
     1
102
RTVSPost2010PropOp29
 70
     1
102
RTVSPost2010Prop30
280
     1
102
RTVSPost2010PropOp30
 70
     1
102
RTVSPost2010Prop31
280
     0
102
RTVSPost2010PropOp31
 70
     1
102
RTVSPost2010Prop32
280
     0
102
RTVSPost2010PropOp32
 70
     1
102
RTVSPost2010Prop33
280
     0
102
RTVSPost2010PropOp33
 70
     1
102
RTVSPost2010Prop34
280
     0
102
RTVSPost2010PropOp34
 70
     1
102
RTVSPost2010Prop35
280
     0
102
RTVSPost2010PropOp35
 70
     1
102
RTVSPost2010Prop36
280
     0
102
RTVSPost2010PropOp36
 70
     1
102
RTVSPost2010Prop37
 90
       50
102
RTVSPost2010PropOp37
 70
     1
102
RTVSPost2010Prop38
140
0.0
102
RTVSPost2010PropOp38
 70
     1
102
RTVSPost2010Prop39
140
1.0
102
RTVSPost2010PropOp39
 70
     1
102
RTVSPost2010Prop40
 90
        0
102
RTVSPost2010PropOp40
 70
     1
102
RTVSPost2010Prop41ColorIndex
 90
       18
102
RTVSPost2010Prop41ColorRGB
 90
        0
102
RTVSPost2010PropOp41
 70
     1
102
RTVSPost2010Prop42
 90
       50
102
RTVSPost2010PropOp42
 70
     1
102
RTVSPost2010Prop43
 90
        3
102
RTVSPost2010PropOp43
 70
     1
102
RTVSPost2010Prop44ColorIndex
 90
        5
102
RTVSPost2010Prop44ColorRGB
 90
      255
102
RTVSPost2010PropOp44
 70
     1
102
RTVSPost2010Prop45
280
     0
102
RTVSPost2010PropOp45
 70
     1
102
RTVSPost2010Prop46
 90
       50
102
RTVSPost2010PropOp46
 70
     1
102
RTVSPost2010Prop47
 90
       50
102
RTVSPost2010PropOp47
 70
     1
102
RTVSPost2010Prop48
 90
       50
102
RTVSPost2010PropOp48
 70
     1
102
RTVSPost2010Prop49
280
     0
102
RTVSPost2010PropOp49
 70
     1
102
RTVSPost2010Prop50
 90
       50
102
RTVSPost2010PropOp50
 70
     1
102
RTVSPost2010Prop51ColorIndex
 90
      256
102
RTVSPost2010Prop51ColorRGB
 90
-16777216
102
RTVSPost2010PropOp51
 70
     0
102
RTVSPost2010Prop52
140
1.0
102
RTVSPost2010PropOp52
 70
     0
102
RTVSPost2010Prop53
 90
        2
102
RTVSPost2010PropOp53
 70
     1
102
RTVSPost2010Prop54
  1
strokes_ogs.tif
102
RTVSPost2010PropOp54
 70
     1
102
RTVSPost2010Prop55
280
     0
102
RTVSPost2010PropOp55
 70
     1
102
RTVSPost2010Prop56
140
1.0
102
RTVSPost2010PropOp56
 70
     1
102
RTVSPost2010Prop57
140
1.0
102
RTVSPost2010PropOp57
 70
     1
  0
XRECORD
  5
DE2C
102
{ACAD_REACTORS
330
DE2B
102
}
330
DE2B
100
AcDbXrecord
280
     1
102
RTVSPost2010Prop28
280
     0
102
RTVSPost2010PropOp28
 70
     1
102
RTVSPost2010Prop29
280
     1
102
RTVSPost2010PropOp29
 70
     1
102
RTVSPost2010Prop30
280
     1
102
RTVSPost2010PropOp30
 70
     1
102
RTVSPost2010Prop31
280
     0
102
RTVSPost2010PropOp31
 70
     1
102
RTVSPost2010Prop32
280
     0
102
RTVSPost2010PropOp32
 70
     1
102
RTVSPost2010Prop33
280
     0
102
RTVSPost2010PropOp33
 70
     1
102
RTVSPost2010Prop34
280
     0
102
RTVSPost2010PropOp34
 70
     1
102
RTVSPost2010Prop35
280
     0
102
RTVSPost2010PropOp35
 70
     1
102
RTVSPost2010Prop36
280
     0
102
RTVSPost2010PropOp36
 70
     1
102
RTVSPost2010Prop37
 90
       50
102
RTVSPost2010PropOp37
 70
     1
102
RTVSPost2010Prop38
140
0.0
102
RTVSPost2010PropOp38
 70
     1
102
RTVSPost2010Prop39
140
1.0
102
RTVSPost2010PropOp39
 70
     1
102
RTVSPost2010Prop40
 90
        0
102
RTVSPost2010PropOp40
 70
     1
102
RTVSPost2010Prop41ColorIndex
 90
       18
102
RTVSPost2010Prop41ColorRGB
 90
        0
102
RTVSPost2010PropOp41
 70
     1
102
RTVSPost2010Prop42
 90
       50
102
RTVSPost2010PropOp42
 70
     1
102
RTVSPost2010Prop43
 90
        3
102
RTVSPost2010PropOp43
 70
     1
102
RTVSPost2010Prop44ColorIndex
 90
        5
102
RTVSPost2010Prop44ColorRGB
 90
      255
102
RTVSPost2010PropOp44
 70
     1
102
RTVSPost2010Prop45
280
     0
102
RTVSPost2010PropOp45
 70
     1
102
RTVSPost2010Prop46
 90
       50
102
RTVSPost2010PropOp46
 70
     1
102
RTVSPost2010Prop47
 90
       50
102
RTVSPost2010PropOp47
 70
     1
102
RTVSPost2010Prop48
 90
       50
102
RTVSPost2010PropOp48
 70
     1
102
RTVSPost2010Prop49
280
     0
102
RTVSPost2010PropOp49
 70
     1
102
RTVSPost2010Prop50
 90
       50
102
RTVSPost2010PropOp50
 70
     1
102
RTVSPost2010Prop51ColorIndex
 90
      256
102
RTVSPost2010Prop51ColorRGB
 90
-16777216
102
RTVSPost2010PropOp51
 70
     0
102
RTVSPost2010Prop52
140
1.0
102
RTVSPost2010PropOp52
 70
     0
102
RTVSPost2010Prop53
 90
        2
102
RTVSPost2010PropOp53
 70
     1
102
RTVSPost2010Prop54
  1
strokes_ogs.tif
102
RTVSPost2010PropOp54
 70
     1
102
RTVSPost2010Prop55
280
     0
102
RTVSPost2010PropOp55
 70
     1
102
RTVSPost2010Prop56
140
1.0
102
RTVSPost2010PropOp56
 70
     1
102
RTVSPost2010Prop57
140
1.0
102
RTVSPost2010PropOp57
 70
     1
  0
XRECORD
  5
DE34
102
{ACAD_REACTORS
330
DE33
102
}
330
DE33
100
AcDbXrecord
280
     1
102
RTVSPost2010Prop28
280
     0
102
RTVSPost2010PropOp28
 70
     1
102
RTVSPost2010Prop29
280
     1
102
RTVSPost2010PropOp29
 70
     1
102
RTVSPost2010Prop30
280
     1
102
RTVSPost2010PropOp30
 70
     1
102
RTVSPost2010Prop31
280
     0
102
RTVSPost2010PropOp31
 70
     1
102
RTVSPost2010Prop32
280
     0
102
RTVSPost2010PropOp32
 70
     1
102
RTVSPost2010Prop33
280
     0
102
RTVSPost2010PropOp33
 70
     1
102
RTVSPost2010Prop34
280
     0
102
RTVSPost2010PropOp34
 70
     1
102
RTVSPost2010Prop35
280
     0
102
RTVSPost2010PropOp35
 70
     1
102
RTVSPost2010Prop36
280
     0
102
RTVSPost2010PropOp36
 70
     1
102
RTVSPost2010Prop37
 90
       50
102
RTVSPost2010PropOp37
 70
     1
102
RTVSPost2010Prop38
140
0.0
102
RTVSPost2010PropOp38
 70
     1
102
RTVSPost2010Prop39
140
1.0
102
RTVSPost2010PropOp39
 70
     1
102
RTVSPost2010Prop40
 90
        0
102
RTVSPost2010PropOp40
 70
     1
102
RTVSPost2010Prop41ColorIndex
 90
       18
102
RTVSPost2010Prop41ColorRGB
 90
        0
102
RTVSPost2010PropOp41
 70
     1
102
RTVSPost2010Prop42
 90
       50
102
RTVSPost2010PropOp42
 70
     1
102
RTVSPost2010Prop43
 90
        3
102
RTVSPost2010PropOp43
 70
     1
102
RTVSPost2010Prop44ColorIndex
 90
        5
102
RTVSPost2010Prop44ColorRGB
 90
      255
102
RTVSPost2010PropOp44
 70
     1
102
RTVSPost2010Prop45
280
     0
102
RTVSPost2010PropOp45
 70
     1
102
RTVSPost2010Prop46
 90
       50
102
RTVSPost2010PropOp46
 70
     1
102
RTVSPost2010Prop47
 90
       50
102
RTVSPost2010PropOp47
 70
     1
102
RTVSPost2010Prop48
 90
       50
102
RTVSPost2010PropOp48
 70
     1
102
RTVSPost2010Prop49
280
     0
102
RTVSPost2010PropOp49
 70
     1
102
RTVSPost2010Prop50
 90
       50
102
RTVSPost2010PropOp50
 70
     1
102
RTVSPost2010Prop51ColorIndex
 90
      256
102
RTVSPost2010Prop51ColorRGB
 90
-16777216
102
RTVSPost2010PropOp51
 70
     0
102
RTVSPost2010Prop52
140
1.0
102
RTVSPost2010PropOp52
 70
     0
102
RTVSPost2010Prop53
 90
        2
102
RTVSPost2010PropOp53
 70
     1
102
RTVSPost2010Prop54
  1
strokes_ogs.tif
102
RTVSPost2010PropOp54
 70
     1
102
RTVSPost2010Prop55
280
     0
102
RTVSPost2010PropOp55
 70
     1
102
RTVSPost2010Prop56
140
1.0
102
RTVSPost2010PropOp56
 70
     1
102
RTVSPost2010Prop57
140
1.0
102
RTVSPost2010PropOp57
 70
     1
  0
XRECORD
  5
DE24
102
{ACAD_REACTORS
330
DE23
102
}
330
DE23
100
AcDbXrecord
280
     1
102
RTVSPost2010Prop28
280
     0
102
RTVSPost2010PropOp28
 70
     1
102
RTVSPost2010Prop29
280
     1
102
RTVSPost2010PropOp29
 70
     1
102
RTVSPost2010Prop30
280
     1
102
RTVSPost2010PropOp30
 70
     1
102
RTVSPost2010Prop31
280
     0
102
RTVSPost2010PropOp31
 70
     1
102
RTVSPost2010Prop32
280
     0
102
RTVSPost2010PropOp32
 70
     1
102
RTVSPost2010Prop33
280
     0
102
RTVSPost2010PropOp33
 70
     1
102
RTVSPost2010Prop34
280
     0
102
RTVSPost2010PropOp34
 70
     1
102
RTVSPost2010Prop35
280
     0
102
RTVSPost2010PropOp35
 70
     1
102
RTVSPost2010Prop36
280
     0
102
RTVSPost2010PropOp36
 70
     1
102
RTVSPost2010Prop37
 90
       50
102
RTVSPost2010PropOp37
 70
     1
102
RTVSPost2010Prop38
140
0.0
102
RTVSPost2010PropOp38
 70
     1
102
RTVSPost2010Prop39
140
1.0
102
RTVSPost2010PropOp39
 70
     1
102
RTVSPost2010Prop40
 90
        0
102
RTVSPost2010PropOp40
 70
     1
102
RTVSPost2010Prop41ColorIndex
 90
       18
102
RTVSPost2010Prop41ColorRGB
 90
        0
102
RTVSPost2010PropOp41
 70
     1
102
RTVSPost2010Prop42
 90
       50
102
RTVSPost2010PropOp42
 70
     1
102
RTVSPost2010Prop43
 90
        3
102
RTVSPost2010PropOp43
 70
     1
102
RTVSPost2010Prop44ColorIndex
 90
        5
102
RTVSPost2010Prop44ColorRGB
 90
      255
102
RTVSPost2010PropOp44
 70
     1
102
RTVSPost2010Prop45
280
     0
102
RTVSPost2010PropOp45
 70
     1
102
RTVSPost2010Prop46
 90
       50
102
RTVSPost2010PropOp46
 70
     1
102
RTVSPost2010Prop47
 90
       50
102
RTVSPost2010PropOp47
 70
     1
102
RTVSPost2010Prop48
 90
       50
102
RTVSPost2010PropOp48
 70
     1
102
RTVSPost2010Prop49
280
     0
102
RTVSPost2010PropOp49
 70
     1
102
RTVSPost2010Prop50
 90
       50
102
RTVSPost2010PropOp50
 70
     1
102
RTVSPost2010Prop51ColorIndex
 90
      256
102
RTVSPost2010Prop51ColorRGB
 90
-16777216
102
RTVSPost2010PropOp51
 70
     0
102
RTVSPost2010Prop52
140
1.0
102
RTVSPost2010PropOp52
 70
     0
102
RTVSPost2010Prop53
 90
        2
102
RTVSPost2010PropOp53
 70
     1
102
RTVSPost2010Prop54
  1
strokes_ogs.tif
102
RTVSPost2010PropOp54
 70
     1
102
RTVSPost2010Prop55
280
     0
102
RTVSPost2010PropOp55
 70
     1
102
RTVSPost2010Prop56
140
1.0
102
RTVSPost2010PropOp56
 70
     1
102
RTVSPost2010Prop57
140
1.0
102
RTVSPost2010PropOp57
 70
     1
  0
XRECORD
  5
DE44
102
{ACAD_REACTORS
330
DE43
102
}
330
DE43
100
AcDbXrecord
280
     1
102
RTVSPost2010Prop28
280
     0
102
RTVSPost2010PropOp28
 70
     1
102
RTVSPost2010Prop29
280
     1
102
RTVSPost2010PropOp29
 70
     1
102
RTVSPost2010Prop30
280
     1
102
RTVSPost2010PropOp30
 70
     1
102
RTVSPost2010Prop31
280
     0
102
RTVSPost2010PropOp31
 70
     1
102
RTVSPost2010Prop32
280
     0
102
RTVSPost2010PropOp32
 70
     1
102
RTVSPost2010Prop33
280
     0
102
RTVSPost2010PropOp33
 70
     1
102
RTVSPost2010Prop34
280
     0
102
RTVSPost2010PropOp34
 70
     1
102
RTVSPost2010Prop35
280
     0
102
RTVSPost2010PropOp35
 70
     1
102
RTVSPost2010Prop36
280
     0
102
RTVSPost2010PropOp36
 70
     1
102
RTVSPost2010Prop37
 90
       50
102
RTVSPost2010PropOp37
 70
     1
102
RTVSPost2010Prop38
140
0.0
102
RTVSPost2010PropOp38
 70
     1
102
RTVSPost2010Prop39
140
1.0
102
RTVSPost2010PropOp39
 70
     1
102
RTVSPost2010Prop40
 90
        0
102
RTVSPost2010PropOp40
 70
     1
102
RTVSPost2010Prop41ColorIndex
 90
       18
102
RTVSPost2010Prop41ColorRGB
 90
        0
102
RTVSPost2010PropOp41
 70
     1
102
RTVSPost2010Prop42
 90
       50
102
RTVSPost2010PropOp42
 70
     1
102
RTVSPost2010Prop43
 90
        3
102
RTVSPost2010PropOp43
 70
     1
102
RTVSPost2010Prop44ColorIndex
 90
        5
102
RTVSPost2010Prop44ColorRGB
 90
      255
102
RTVSPost2010PropOp44
 70
     1
102
RTVSPost2010Prop45
280
     0
102
RTVSPost2010PropOp45
 70
     1
102
RTVSPost2010Prop46
 90
       50
102
RTVSPost2010PropOp46
 70
     1
102
RTVSPost2010Prop47
 90
       50
102
RTVSPost2010PropOp47
 70
     1
102
RTVSPost2010Prop48
 90
       50
102
RTVSPost2010PropOp48
 70
     1
102
RTVSPost2010Prop49
280
     0
102
RTVSPost2010PropOp49
 70
     1
102
RTVSPost2010Prop50
 90
       50
102
RTVSPost2010PropOp50
 70
     1
102
RTVSPost2010Prop51ColorIndex
 90
      256
102
RTVSPost2010Prop51ColorRGB
 90
-16777216
102
RTVSPost2010PropOp51
 70
     0
102
RTVSPost2010Prop52
140
1.0
102
RTVSPost2010PropOp52
 70
     0
102
RTVSPost2010Prop53
 90
        2
102
RTVSPost2010PropOp53
 70
     1
102
RTVSPost2010Prop54
  1
strokes_ogs.tif
102
RTVSPost2010PropOp54
 70
     1
102
RTVSPost2010Prop55
280
     0
102
RTVSPost2010PropOp55
 70
     1
102
RTVSPost2010Prop56
140
1.0
102
RTVSPost2010PropOp56
 70
     1
102
RTVSPost2010Prop57
140
1.0
102
RTVSPost2010PropOp57
 70
     1
  0
XRECORD
  5
DE42
102
{ACAD_REACTORS
330
DE41
102
}
330
DE41
100
AcDbXrecord
280
     1
102
RTVSPost2010Prop28
280
     0
102
RTVSPost2010PropOp28
 70
     1
102
RTVSPost2010Prop29
280
     1
102
RTVSPost2010PropOp29
 70
     1
102
RTVSPost2010Prop30
280
     1
102
RTVSPost2010PropOp30
 70
     1
102
RTVSPost2010Prop31
280
     0
102
RTVSPost2010PropOp31
 70
     1
102
RTVSPost2010Prop32
280
     0
102
RTVSPost2010PropOp32
 70
     1
102
RTVSPost2010Prop33
280
     0
102
RTVSPost2010PropOp33
 70
     1
102
RTVSPost2010Prop34
280
     0
102
RTVSPost2010PropOp34
 70
     1
102
RTVSPost2010Prop35
280
     0
102
RTVSPost2010PropOp35
 70
     1
102
RTVSPost2010Prop36
280
     0
102
RTVSPost2010PropOp36
 70
     1
102
RTVSPost2010Prop37
 90
       50
102
RTVSPost2010PropOp37
 70
     1
102
RTVSPost2010Prop38
140
0.0
102
RTVSPost2010PropOp38
 70
     1
102
RTVSPost2010Prop39
140
1.0
102
RTVSPost2010PropOp39
 70
     1
102
RTVSPost2010Prop40
 90
        0
102
RTVSPost2010PropOp40
 70
     1
102
RTVSPost2010Prop41ColorIndex
 90
       18
102
RTVSPost2010Prop41ColorRGB
 90
        0
102
RTVSPost2010PropOp41
 70
     1
102
RTVSPost2010Prop42
 90
       50
102
RTVSPost2010PropOp42
 70
     1
102
RTVSPost2010Prop43
 90
        3
102
RTVSPost2010PropOp43
 70
     1
102
RTVSPost2010Prop44ColorIndex
 90
        5
102
RTVSPost2010Prop44ColorRGB
 90
      255
102
RTVSPost2010PropOp44
 70
     1
102
RTVSPost2010Prop45
280
     0
102
RTVSPost2010PropOp45
 70
     1
102
RTVSPost2010Prop46
 90
       50
102
RTVSPost2010PropOp46
 70
     1
102
RTVSPost2010Prop47
 90
       50
102
RTVSPost2010PropOp47
 70
     1
102
RTVSPost2010Prop48
 90
       50
102
RTVSPost2010PropOp48
 70
     1
102
RTVSPost2010Prop49
280
     0
102
RTVSPost2010PropOp49
 70
     1
102
RTVSPost2010Prop50
 90
       50
102
RTVSPost2010PropOp50
 70
     1
102
RTVSPost2010Prop51ColorIndex
 90
      256
102
RTVSPost2010Prop51ColorRGB
 90
-16777216
102
RTVSPost2010PropOp51
 70
     0
102
RTVSPost2010Prop52
140
1.0
102
RTVSPost2010PropOp52
 70
     0
102
RTVSPost2010Prop53
 90
        2
102
RTVSPost2010PropOp53
 70
     1
102
RTVSPost2010Prop54
  1
strokes_ogs.tif
102
RTVSPost2010PropOp54
 70
     1
102
RTVSPost2010Prop55
280
     0
102
RTVSPost2010PropOp55
 70
     1
102
RTVSPost2010Prop56
140
1.0
102
RTVSPost2010PropOp56
 70
     1
102
RTVSPost2010Prop57
140
1.0
102
RTVSPost2010PropOp57
 70
     1
  0
XRECORD
  5
DE3C
102
{ACAD_REACTORS
330
DE3B
102
}
330
DE3B
100
AcDbXrecord
280
     1
102
RTVSPost2010Prop28
280
     0
102
RTVSPost2010PropOp28
 70
     1
102
RTVSPost2010Prop29
280
     1
102
RTVSPost2010PropOp29
 70
     1
102
RTVSPost2010Prop30
280
     1
102
RTVSPost2010PropOp30
 70
     1
102
RTVSPost2010Prop31
280
     0
102
RTVSPost2010PropOp31
 70
     1
102
RTVSPost2010Prop32
280
     0
102
RTVSPost2010PropOp32
 70
     1
102
RTVSPost2010Prop33
280
     0
102
RTVSPost2010PropOp33
 70
     1
102
RTVSPost2010Prop34
280
     0
102
RTVSPost2010PropOp34
 70
     1
102
RTVSPost2010Prop35
280
     0
102
RTVSPost2010PropOp35
 70
     1
102
RTVSPost2010Prop36
280
     0
102
RTVSPost2010PropOp36
 70
     1
102
RTVSPost2010Prop37
 90
       50
102
RTVSPost2010PropOp37
 70
     1
102
RTVSPost2010Prop38
140
0.0
102
RTVSPost2010PropOp38
 70
     1
102
RTVSPost2010Prop39
140
1.0
102
RTVSPost2010PropOp39
 70
     1
102
RTVSPost2010Prop40
 90
        0
102
RTVSPost2010PropOp40
 70
     1
102
RTVSPost2010Prop41ColorIndex
 90
       18
102
RTVSPost2010Prop41ColorRGB
 90
        0
102
RTVSPost2010PropOp41
 70
     1
102
RTVSPost2010Prop42
 90
       50
102
RTVSPost2010PropOp42
 70
     1
102
RTVSPost2010Prop43
 90
        3
102
RTVSPost2010PropOp43
 70
     1
102
RTVSPost2010Prop44ColorIndex
 90
        5
102
RTVSPost2010Prop44ColorRGB
 90
      255
102
RTVSPost2010PropOp44
 70
     1
102
RTVSPost2010Prop45
280
     0
102
RTVSPost2010PropOp45
 70
     1
102
RTVSPost2010Prop46
 90
       50
102
RTVSPost2010PropOp46
 70
     1
102
RTVSPost2010Prop47
 90
       50
102
RTVSPost2010PropOp47
 70
     1
102
RTVSPost2010Prop48
 90
       50
102
RTVSPost2010PropOp48
 70
     1
102
RTVSPost2010Prop49
280
     0
102
RTVSPost2010PropOp49
 70
     1
102
RTVSPost2010Prop50
 90
       50
102
RTVSPost2010PropOp50
 70
     1
102
RTVSPost2010Prop51ColorIndex
 90
      256
102
RTVSPost2010Prop51ColorRGB
 90
-16777216
102
RTVSPost2010PropOp51
 70
     0
102
RTVSPost2010Prop52
140
1.0
102
RTVSPost2010PropOp52
 70
     0
102
RTVSPost2010Prop53
 90
        2
102
RTVSPost2010PropOp53
 70
     1
102
RTVSPost2010Prop54
  1
strokes_ogs.tif
102
RTVSPost2010PropOp54
 70
     1
102
RTVSPost2010Prop55
280
     0
102
RTVSPost2010PropOp55
 70
     1
102
RTVSPost2010Prop56
140
1.0
102
RTVSPost2010PropOp56
 70
     1
102
RTVSPost2010Prop57
140
1.0
102
RTVSPost2010PropOp57
 70
     1
  0
XRECORD
  5
DE3E
102
{ACAD_REACTORS
330
DE3D
102
}
330
DE3D
100
AcDbXrecord
280
     1
102
RTVSPost2010Prop28
280
     0
102
RTVSPost2010PropOp28
 70
     1
102
RTVSPost2010Prop29
280
     1
102
RTVSPost2010PropOp29
 70
     1
102
RTVSPost2010Prop30
280
     1
102
RTVSPost2010PropOp30
 70
     1
102
RTVSPost2010Prop31
280
     0
102
RTVSPost2010PropOp31
 70
     1
102
RTVSPost2010Prop32
280
     0
102
RTVSPost2010PropOp32
 70
     1
102
RTVSPost2010Prop33
280
     0
102
RTVSPost2010PropOp33
 70
     1
102
RTVSPost2010Prop34
280
     0
102
RTVSPost2010PropOp34
 70
     1
102
RTVSPost2010Prop35
280
     0
102
RTVSPost2010PropOp35
 70
     1
102
RTVSPost2010Prop36
280
     0
102
RTVSPost2010PropOp36
 70
     1
102
RTVSPost2010Prop37
 90
       50
102
RTVSPost2010PropOp37
 70
     1
102
RTVSPost2010Prop38
140
0.0
102
RTVSPost2010PropOp38
 70
     1
102
RTVSPost2010Prop39
140
1.0
102
RTVSPost2010PropOp39
 70
     1
102
RTVSPost2010Prop40
 90
        0
102
RTVSPost2010PropOp40
 70
     1
102
RTVSPost2010Prop41ColorIndex
 90
       18
102
RTVSPost2010Prop41ColorRGB
 90
        0
102
RTVSPost2010PropOp41
 70
     1
102
RTVSPost2010Prop42
 90
       50
102
RTVSPost2010PropOp42
 70
     1
102
RTVSPost2010Prop43
 90
        3
102
RTVSPost2010PropOp43
 70
     1
102
RTVSPost2010Prop44ColorIndex
 90
        5
102
RTVSPost2010Prop44ColorRGB
 90
      255
102
RTVSPost2010PropOp44
 70
     1
102
RTVSPost2010Prop45
280
     0
102
RTVSPost2010PropOp45
 70
     1
102
RTVSPost2010Prop46
 90
       50
102
RTVSPost2010PropOp46
 70
     1
102
RTVSPost2010Prop47
 90
       50
102
RTVSPost2010PropOp47
 70
     1
102
RTVSPost2010Prop48
 90
       50
102
RTVSPost2010PropOp48
 70
     1
102
RTVSPost2010Prop49
280
     0
102
RTVSPost2010PropOp49
 70
     1
102
RTVSPost2010Prop50
 90
       50
102
RTVSPost2010PropOp50
 70
     1
102
RTVSPost2010Prop51ColorIndex
 90
      256
102
RTVSPost2010Prop51ColorRGB
 90
-16777216
102
RTVSPost2010PropOp51
 70
     0
102
RTVSPost2010Prop52
140
1.0
102
RTVSPost2010PropOp52
 70
     0
102
RTVSPost2010Prop53
 90
        2
102
RTVSPost2010PropOp53
 70
     1
102
RTVSPost2010Prop54
  1
strokes_ogs.tif
102
RTVSPost2010PropOp54
 70
     1
102
RTVSPost2010Prop55
280
     0
102
RTVSPost2010PropOp55
 70
     1
102
RTVSPost2010Prop56
140
1.0
102
RTVSPost2010PropOp56
 70
     1
102
RTVSPost2010Prop57
140
1.0
102
RTVSPost2010PropOp57
 70
     1
  0
XRECORD
  5
DE2A
102
{ACAD_REACTORS
330
DE29
102
}
330
DE29
100
AcDbXrecord
280
     1
102
RTVSPost2010Prop28
280
     0
102
RTVSPost2010PropOp28
 70
     1
102
RTVSPost2010Prop29
280
     1
102
RTVSPost2010PropOp29
 70
     1
102
RTVSPost2010Prop30
280
     1
102
RTVSPost2010PropOp30
 70
     1
102
RTVSPost2010Prop31
280
     0
102
RTVSPost2010PropOp31
 70
     1
102
RTVSPost2010Prop32
280
     0
102
RTVSPost2010PropOp32
 70
     1
102
RTVSPost2010Prop33
280
     0
102
RTVSPost2010PropOp33
 70
     1
102
RTVSPost2010Prop34
280
     0
102
RTVSPost2010PropOp34
 70
     1
102
RTVSPost2010Prop35
280
     0
102
RTVSPost2010PropOp35
 70
     1
102
RTVSPost2010Prop36
280
     0
102
RTVSPost2010PropOp36
 70
     1
102
RTVSPost2010Prop37
 90
       50
102
RTVSPost2010PropOp37
 70
     1
102
RTVSPost2010Prop38
140
0.0
102
RTVSPost2010PropOp38
 70
     1
102
RTVSPost2010Prop39
140
1.0
102
RTVSPost2010PropOp39
 70
     1
102
RTVSPost2010Prop40
 90
        0
102
RTVSPost2010PropOp40
 70
     1
102
RTVSPost2010Prop41ColorIndex
 90
       18
102
RTVSPost2010Prop41ColorRGB
 90
        0
102
RTVSPost2010PropOp41
 70
     1
102
RTVSPost2010Prop42
 90
       50
102
RTVSPost2010PropOp42
 70
     1
102
RTVSPost2010Prop43
 90
        3
102
RTVSPost2010PropOp43
 70
     1
102
RTVSPost2010Prop44ColorIndex
 90
        5
102
RTVSPost2010Prop44ColorRGB
 90
      255
102
RTVSPost2010PropOp44
 70
     1
102
RTVSPost2010Prop45
280
     0
102
RTVSPost2010PropOp45
 70
     1
102
RTVSPost2010Prop46
 90
       50
102
RTVSPost2010PropOp46
 70
     1
102
RTVSPost2010Prop47
 90
       50
102
RTVSPost2010PropOp47
 70
     1
102
RTVSPost2010Prop48
 90
       50
102
RTVSPost2010PropOp48
 70
     1
102
RTVSPost2010Prop49
280
     0
102
RTVSPost2010PropOp49
 70
     1
102
RTVSPost2010Prop50
 90
       50
102
RTVSPost2010PropOp50
 70
     1
102
RTVSPost2010Prop51ColorIndex
 90
      256
102
RTVSPost2010Prop51ColorRGB
 90
-16777216
102
RTVSPost2010PropOp51
 70
     0
102
RTVSPost2010Prop52
140
1.0
102
RTVSPost2010PropOp52
 70
     0
102
RTVSPost2010Prop53
 90
        2
102
RTVSPost2010PropOp53
 70
     1
102
RTVSPost2010Prop54
  1
strokes_ogs.tif
102
RTVSPost2010PropOp54
 70
     1
102
RTVSPost2010Prop55
280
     0
102
RTVSPost2010PropOp55
 70
     1
102
RTVSPost2010Prop56
140
1.0
102
RTVSPost2010PropOp56
 70
     1
102
RTVSPost2010Prop57
140
1.0
102
RTVSPost2010PropOp57
 70
     1
  0
XRECORD
  5
DE38
102
{ACAD_REACTORS
330
DE37
102
}
330
DE37
100
AcDbXrecord
280
     1
102
RTVSPost2010Prop28
280
     0
102
RTVSPost2010PropOp28
 70
     1
102
RTVSPost2010Prop29
280
     1
102
RTVSPost2010PropOp29
 70
     1
102
RTVSPost2010Prop30
280
     1
102
RTVSPost2010PropOp30
 70
     1
102
RTVSPost2010Prop31
280
     0
102
RTVSPost2010PropOp31
 70
     1
102
RTVSPost2010Prop32
280
     0
102
RTVSPost2010PropOp32
 70
     1
102
RTVSPost2010Prop33
280
     0
102
RTVSPost2010PropOp33
 70
     1
102
RTVSPost2010Prop34
280
     0
102
RTVSPost2010PropOp34
 70
     1
102
RTVSPost2010Prop35
280
     0
102
RTVSPost2010PropOp35
 70
     1
102
RTVSPost2010Prop36
280
     0
102
RTVSPost2010PropOp36
 70
     1
102
RTVSPost2010Prop37
 90
       50
102
RTVSPost2010PropOp37
 70
     1
102
RTVSPost2010Prop38
140
0.0
102
RTVSPost2010PropOp38
 70
     1
102
RTVSPost2010Prop39
140
1.0
102
RTVSPost2010PropOp39
 70
     1
102
RTVSPost2010Prop40
 90
        0
102
RTVSPost2010PropOp40
 70
     1
102
RTVSPost2010Prop41ColorIndex
 90
       18
102
RTVSPost2010Prop41ColorRGB
 90
        0
102
RTVSPost2010PropOp41
 70
     1
102
RTVSPost2010Prop42
 90
       50
102
RTVSPost2010PropOp42
 70
     1
102
RTVSPost2010Prop43
 90
        3
102
RTVSPost2010PropOp43
 70
     1
102
RTVSPost2010Prop44ColorIndex
 90
        5
102
RTVSPost2010Prop44ColorRGB
 90
      255
102
RTVSPost2010PropOp44
 70
     1
102
RTVSPost2010Prop45
280
     0
102
RTVSPost2010PropOp45
 70
     1
102
RTVSPost2010Prop46
 90
       50
102
RTVSPost2010PropOp46
 70
     1
102
RTVSPost2010Prop47
 90
       50
102
RTVSPost2010PropOp47
 70
     1
102
RTVSPost2010Prop48
 90
       50
102
RTVSPost2010PropOp48
 70
     1
102
RTVSPost2010Prop49
280
     0
102
RTVSPost2010PropOp49
 70
     1
102
RTVSPost2010Prop50
 90
       50
102
RTVSPost2010PropOp50
 70
     1
102
RTVSPost2010Prop51ColorIndex
 90
      256
102
RTVSPost2010Prop51ColorRGB
 90
-16777216
102
RTVSPost2010PropOp51
 70
     0
102
RTVSPost2010Prop52
140
1.0
102
RTVSPost2010PropOp52
 70
     0
102
RTVSPost2010Prop53
 90
        2
102
RTVSPost2010PropOp53
 70
     1
102
RTVSPost2010Prop54
  1
strokes_ogs.tif
102
RTVSPost2010PropOp54
 70
     1
102
RTVSPost2010Prop55
280
     0
102
RTVSPost2010PropOp55
 70
     1
102
RTVSPost2010Prop56
140
1.0
102
RTVSPost2010PropOp56
 70
     1
102
RTVSPost2010Prop57
140
1.0
102
RTVSPost2010PropOp57
 70
     1
  0
XRECORD
  5
DE40
102
{ACAD_REACTORS
330
DE3F
102
}
330
DE3F
100
AcDbXrecord
280
     1
102
RTVSPost2010Prop28
280
     0
102
RTVSPost2010PropOp28
 70
     1
102
RTVSPost2010Prop29
280
     1
102
RTVSPost2010PropOp29
 70
     1
102
RTVSPost2010Prop30
280
     1
102
RTVSPost2010PropOp30
 70
     1
102
RTVSPost2010Prop31
280
     0
102
RTVSPost2010PropOp31
 70
     1
102
RTVSPost2010Prop32
280
     0
102
RTVSPost2010PropOp32
 70
     1
102
RTVSPost2010Prop33
280
     0
102
RTVSPost2010PropOp33
 70
     1
102
RTVSPost2010Prop34
280
     0
102
RTVSPost2010PropOp34
 70
     1
102
RTVSPost2010Prop35
280
     0
102
RTVSPost2010PropOp35
 70
     1
102
RTVSPost2010Prop36
280
     0
102
RTVSPost2010PropOp36
 70
     1
102
RTVSPost2010Prop37
 90
       50
102
RTVSPost2010PropOp37
 70
     1
102
RTVSPost2010Prop38
140
0.0
102
RTVSPost2010PropOp38
 70
     1
102
RTVSPost2010Prop39
140
1.0
102
RTVSPost2010PropOp39
 70
     1
102
RTVSPost2010Prop40
 90
        0
102
RTVSPost2010PropOp40
 70
     1
102
RTVSPost2010Prop41ColorIndex
 90
       18
102
RTVSPost2010Prop41ColorRGB
 90
        0
102
RTVSPost2010PropOp41
 70
     1
102
RTVSPost2010Prop42
 90
       50
102
RTVSPost2010PropOp42
 70
     1
102
RTVSPost2010Prop43
 90
        3
102
RTVSPost2010PropOp43
 70
     1
102
RTVSPost2010Prop44ColorIndex
 90
        5
102
RTVSPost2010Prop44ColorRGB
 90
      255
102
RTVSPost2010PropOp44
 70
     1
102
RTVSPost2010Prop45
280
     0
102
RTVSPost2010PropOp45
 70
     1
102
RTVSPost2010Prop46
 90
       50
102
RTVSPost2010PropOp46
 70
     1
102
RTVSPost2010Prop47
 90
       50
102
RTVSPost2010PropOp47
 70
     1
102
RTVSPost2010Prop48
 90
       50
102
RTVSPost2010PropOp48
 70
     1
102
RTVSPost2010Prop49
280
     0
102
RTVSPost2010PropOp49
 70
     1
102
RTVSPost2010Prop50
 90
       50
102
RTVSPost2010PropOp50
 70
     1
102
RTVSPost2010Prop51ColorIndex
 90
      256
102
RTVSPost2010Prop51ColorRGB
 90
-16777216
102
RTVSPost2010PropOp51
 70
     0
102
RTVSPost2010Prop52
140
1.0
102
RTVSPost2010PropOp52
 70
     0
102
RTVSPost2010Prop53
 90
        2
102
RTVSPost2010PropOp53
 70
     1
102
RTVSPost2010Prop54
  1
strokes_ogs.tif
102
RTVSPost2010PropOp54
 70
     1
102
RTVSPost2010Prop55
280
     0
102
RTVSPost2010PropOp55
 70
     1
102
RTVSPost2010Prop56
140
1.0
102
RTVSPost2010PropOp56
 70
     1
102
RTVSPost2010Prop57
140
1.0
102
RTVSPost2010PropOp57
 70
     1
  0
ENDSEC
  0
EOF
