  0
SECTION
  2
HEADER
  9
$ACADVER
  1
AC1012
  9
$DWGCODEPAGE
  3
ansi_1252
  9
$INSBASE
 10
0.0
 20
0.0
 30
0.0
  9
$EXTMIN
 10
-11847.359124
 20
-725.0
 30
0.0
  9
$EXTMAX
 10
730.0
 20
1795.0
 30
0.0
  9
$LIMMIN
 10
0.0
 20
0.0
  9
$LIMMAX
 10
830.0
 20
580.0
  9
$ORTHOMODE
 70
     1
  9
$REGENMODE
 70
     1
  9
$FILLMODE
 70
     1
  9
$QTEXTMODE
 70
     0
  9
$MIRRTEXT
 70
     1
  9
$DRAGMODE
 70
     2
  9
$LTSCALE
 40
6.0
  9
$OSMODE
 70
   167
  9
$ATTMODE
 70
     1
  9
$TEXTSIZE
 40
3.5
  9
$TRACEWID
 40
10.0
  9
$TEXTSTYLE
  7
VSM_00
  9
$CLAYER
  8
V__070
  9
$CELTYPE
  6
BYLAYER
  9
$CECOLOR
 62
   256
  9
$CELTSCALE
 40
1.0
  9
$DELOBJ
 70
     1
  9
$DISPSILH
 70
     0
  9
$DIMSCALE
 40
5.0
  9
$DIMASZ
 40
3.5
  9
$DIMEXO
 40
0.0
  9
$DIMDLI
 40
8.0
  9
$DIMRND
 40
0.0
  9
$DIMDLE
 40
0.0
  9
$DIMEXE
 40
1.0
  9
$DIMTP
 40
0.0
  9
$DIMTM
 40
0.0
  9
$DIMTXT
 40
3.5
  9
$DIMCEN
 40
2.0
  9
$DIMTSZ
 40
0.0
  9
$DIMTOL
 70
     0
  9
$DIMLIM
 70
     0
  9
$DIMTIH
 70
     0
  9
$DIMTOH
 70
     0
  9
$DIMSE1
 70
     0
  9
$DIMSE2
 70
     0
  9
$DIMTAD
 70
     1
  9
$DIMZIN
 70
     8
  9
$DIMBLK
  1

  9
$DIMASO
 70
     1
  9
$DIMSHO
 70
     1
  9
$DIMPOST
  1

  9
$DIMAPOST
  1

  9
$DIMALT
 70
     0
  9
$DIMALTD
 70
     2
  9
$DIMALTF
 40
0.03937
  9
$DIMLFAC
 40
1.0
  9
$DIMTOFL
 70
     1
  9
$DIMTVP
 40
0.0
  9
$DIMTIX
 70
     0
  9
$DIMSOXD
 70
     0
  9
$DIMSAH
 70
     0
  9
$DIMBLK1
  1

  9
$DIMBLK2
  1

  9
$DIMSTYLE
  2
B__3B9
  9
$DIMCLRD
 70
     4
  9
$DIMCLRE
 70
     4
  9
$DIMCLRT
 70
     3
  9
$DIMTFAC
 40
0.71
  9
$DIMGAP
 40
1.25
  9
$DIMJUST
 70
     0
  9
$DIMSD1
 70
     0
  9
$DIMSD2
 70
     0
  9
$DIMTOLJ
 70
     1
  9
$DIMTZIN
 70
     8
  9
$DIMALTZ
 70
     8
  9
$DIMALTTZ
 70
     8
  9
$DIMFIT
 70
     0
  9
$DIMUPT
 70
     0
  9
$DIMUNIT
 70
     2
  9
$DIMDEC
 70
     2
  9
$DIMTDEC
 70
     2
  9
$DIMALTU
 70
     2
  9
$DIMALTTD
 70
     2
  9
$DIMTXSTY
  7
VSM_00
  9
$DIMAUNIT
 70
     0
  9
$LUNITS
 70
     2
  9
$LUPREC
 70
     2
  9
$SKETCHINC
 40
0.1
  9
$FILLETRAD
 40
0.0
  9
$AUNITS
 70
     0
  9
$AUPREC
 70
     2
  9
$MENU
  1
AIW00
  9
$ELEVATION
 40
0.0
  9
$PELEVATION
 40
0.0
  9
$THICKNESS
 40
0.0
  9
$LIMCHECK
 70
     0
  9
$BLIPMODE
 70
     0
  9
$CHAMFERA
 40
0.0
  9
$CHAMFERB
 40
0.0
  9
$CHAMFERC
 40
0.0
  9
$CHAMFERD
 40
0.0
  9
$SKPOLY
 70
     1
  9
$TDCREATE
 40
2451033.301309305
  9
$TDUPDATE
 40
2451038.391003657
  9
$TDINDWG
 40
0.0360963426
  9
$TDUSRTIMER
 40
0.0360963426
  9
$USRTIMER
 70
     1
  9
$ANGBASE
 50
0.0
  9
$ANGDIR
 70
     0
  9
$PDMODE
 70
     0
  9
$PDSIZE
 40
0.0
  9
$PLINEWID
 40
0.0
  9
$COORDS
 70
     2
  9
$SPLFRAME
 70
     0
  9
$SPLINETYPE
 70
     6
  9
$SPLINESEGS
 70
     8
  9
$ATTDIA
 70
     0
  9
$ATTREQ
 70
     0
  9
$HANDLING
 70
     1
  9
$HANDSEED
  5
AF1
  9
$SURFTAB1
 70
    24
  9
$SURFTAB2
 70
    24
  9
$SURFTYPE
 70
     6
  9
$SURFU
 70
    36
  9
$SURFV
 70
    36
  9
$UCSNAME
  2

  9
$UCSORG
 10
0.0
 20
0.0
 30
0.0
  9
$UCSXDIR
 10
1.0
 20
0.0
 30
0.0
  9
$UCSYDIR
 10
0.0
 20
1.0
 30
0.0
  9
$PUCSNAME
  2

  9
$PUCSORG
 10
0.0
 20
0.0
 30
0.0
  9
$PUCSXDIR
 10
1.0
 20
0.0
 30
0.0
  9
$PUCSYDIR
 10
0.0
 20
1.0
 30
0.0
  9
$USERI1
 70
     0
  9
$USERI2
 70
     0
  9
$USERI3
 70
     0
  9
$USERI4
 70
     0
  9
$USERI5
 70
     0
  9
$USERR1
 40
0.0
  9
$USERR2
 40
0.0
  9
$USERR3
 40
0.0
  9
$USERR4
 40
0.0
  9
$USERR5
 40
0.0
  9
$WORLDVIEW
 70
     0
  9
$SHADEDGE
 70
     1
  9
$SHADEDIF
 70
    70
  9
$TILEMODE
 70
     0
  9
$MAXACTVP
 70
    16
  9
$PINSBASE
 10
0.0
 20
0.0
 30
0.0
  9
$PLIMCHECK
 70
     0
  9
$PEXTMIN
 10
0.0
 20
0.0
 30
0.0
  9
$PEXTMAX
 10
198.0
 20
285.0
 30
0.0
  9
$PLIMMIN
 10
0.0
 20
0.0
  9
$PLIMMAX
 10
830.0
 20
580.0
  9
$UNITMODE
 70
     0
  9
$VISRETAIN
 70
     0
  9
$PLINEGEN
 70
     0
  9
$PSLTSCALE
 70
     1
  9
$TREEDEPTH
 70
  3020
  9
$PICKSTYLE
 70
     1
  9
$CMLSTYLE
  2
STANDARD
  9
$CMLJUST
 70
     0
  9
$CMLSCALE
 40
1.0
  9
$SAVEIMAGES
 70
     0
  0
ENDSEC
  0
SECTION
  2
CLASSES
  0
ENDSEC
  0
SECTION
  2
TABLES
  0
TABLE
  2
VPORT
  5
128
100
AcDbSymbolTable
 70
     2
  0
VPORT
  5
AF0
100
AcDbSymbolTableRecord
100
AcDbViewportTableRecord
  2
*ACTIVE
 70
     0
 10
0.0
 20
0.0
 11
1.0
 21
1.0
 12
74.261237
 22
-41.085229
 13
0.0
 23
0.0
 14
1.0
 24
1.0
 15
10.0
 25
10.0
 16
0.0
 26
0.0
 36
1.0
 17
0.0
 27
0.0
 37
0.0
 40
1088.194622
 41
1.618847
 42
50.0
 43
0.0
 44
0.0
 50
0.0
 51
0.0
 71
     0
 72
  1000
 73
     1
 74
     3
 75
     0
 76
     0
 77
     0
 78
     0
  0
ENDTAB
  0
TABLE
  2
LTYPE
  5
125
100
AcDbSymbolTable
 70
     3
  0
LTYPE
  5
132
100
AcDbSymbolTableRecord
100
AcDbLinetypeTableRecord
  2
BYBLOCK
 70
     0
  3

 72
    65
 73
     0
 40
0.0
  0
LTYPE
  5
133
100
AcDbSymbolTableRecord
100
AcDbLinetypeTableRecord
  2
BYLAYER
 70
     0
  3

 72
    65
 73
     0
 40
0.0
  0
LTYPE
  5
134
100
AcDbSymbolTableRecord
100
AcDbLinetypeTableRecord
  2
CONTINUOUS
 70
    64
  3
Solid line
 72
    65
 73
     0
 40
0.0
  0
LTYPE
  5
14D
100
AcDbSymbolTableRecord
100
AcDbLinetypeTableRecord
  2
CENTER
 70
    64
  3
____ _ ____ _ ____ _ ____ _ ____ _ ____ _ ____
 72
    65
 73
     4
 40
2.0
 49
1.25
 74
     0
 49
-0.25
 74
     0
 49
0.25
 74
     0
 49
-0.25
 74
     0
  0
LTYPE
  5
388
100
AcDbSymbolTableRecord
100
AcDbLinetypeTableRecord
  2
CGMITTEL
 70
    64
  3
____ . ____ . ____ . ____ . ____ . ____ . ____
 72
    65
 73
     4
 40
20.0
 49
15.0
 74
     0
 49
-2.0
 74
     0
 49
1.0
 74
     0
 49
-2.0
 74
     0
  0
ENDTAB
  0
TABLE
  2
LAYER
  5
122
100
AcDbSymbolTable
 70
    20
  0
LAYER
  5
12F
100
AcDbSymbolTableRecord
100
AcDbLayerTableRecord
  2
0
 70
    64
 62
     7
  6
CONTINUOUS
  0
LAYER
  5
15E
100
AcDbSymbolTableRecord
100
AcDbLayerTableRecord
  2
05-CONT
 70
     0
 62
     2
  6
CONTINUOUS
  0
LAYER
  5
17A
100
AcDbSymbolTableRecord
100
AcDbLayerTableRecord
  2
AME_FRZ
 70
    65
 62
     7
  6
CONTINUOUS
  0
LAYER
  5
2DC
100
AcDbSymbolTableRecord
100
AcDbLayerTableRecord
  2
07-CONT
 70
    64
 62
     1
  6
CONTINUOUS
  0
LAYER
  5
2DD
100
AcDbSymbolTableRecord
100
AcDbLayerTableRecord
  2
025-CONT
 70
    64
 62
     4
  6
CONTINUOUS
  0
LAYER
  5
2DE
100
AcDbSymbolTableRecord
100
AcDbLayerTableRecord
  2
RAHMEN
 70
    64
 62
     1
  6
CONTINUOUS
  0
LAYER
  5
362
100
AcDbSymbolTableRecord
100
AcDbLayerTableRecord
  2
TITLEBLK
 70
    64
 62
     7
  6
CONTINUOUS
  0
LAYER
  5
38B
100
AcDbSymbolTableRecord
100
AcDbLayerTableRecord
  2
V__025
 70
    64
 62
     4
  6
CONTINUOUS
  0
LAYER
  5
38C
100
AcDbSymbolTableRecord
100
AcDbLayerTableRecord
  2
M__025
 70
    64
 62
     4
  6
CGMITTEL
  0
LAYER
  5
3B7
100
AcDbSymbolTableRecord
100
AcDbLayerTableRecord
  2
A__MANSFEN
 70
    65
 62
    10
  6
CONTINUOUS
  0
LAYER
  5
3BA
100
AcDbSymbolTableRecord
100
AcDbLayerTableRecord
  2
B__3B9
 70
    66
 62
     4
  6
CONTINUOUS
  0
LAYER
  5
3C5
100
AcDbSymbolTableRecord
100
AcDbLayerTableRecord
  2
DEFPOINTS
 70
    64
 62
     7
  6
CONTINUOUS
  0
LAYER
  5
7A4
100
AcDbSymbolTableRecord
100
AcDbLayerTableRecord
  2
025-CENTER
 70
    64
 62
     4
  6
CENTER
  0
LAYER
  5
7A5
100
AcDbSymbolTableRecord
100
AcDbLayerTableRecord
  2
MASSLINE
 70
    64
 62
     4
  6
CONTINUOUS
  0
LAYER
  5
7A6
100
AcDbSymbolTableRecord
100
AcDbLayerTableRecord
  2
MASSLINE_B57DAC0E87E391CB
 70
    66
 62
     4
  6
CONTINUOUS
  0
LAYER
  5
7D2
100
AcDbSymbolTableRecord
100
AcDbLayerTableRecord
  2
V__050
 70
    64
 62
     2
  6
CONTINUOUS
  0
LAYER
  5
7D3
100
AcDbSymbolTableRecord
100
AcDbLayerTableRecord
  2
V__070
 70
    64
 62
     1
  6
CONTINUOUS
  0
LAYER
  5
8C6
100
AcDbSymbolTableRecord
100
AcDbLayerTableRecord
  2
035-CONT
 70
     0
 62
     3
  6
CONTINUOUS
  0
LAYER
  5
8C7
100
AcDbSymbolTableRecord
100
AcDbLayerTableRecord
  2
T__070
 70
    64
 62
     1
  6
CONTINUOUS
  0
LAYER
  5
8DC
100
AcDbSymbolTableRecord
100
AcDbLayerTableRecord
  2
A__VERMASSUNG
 70
    64
 62
     4
  6
CONTINUOUS
  0
ENDTAB
  0
TABLE
  2
STYLE
  5
123
100
AcDbSymbolTable
 70
     5
  0
STYLE
  5
130
100
AcDbSymbolTableRecord
100
AcDbTextStyleTableRecord
  2
STANDARD
 70
     0
 40
0.0
 41
1.0
 50
0.0
 71
     0
 42
0.2
  3
SIMPLEX8
  4

  0
STYLE
  5
13F
100
AcDbSymbolTableRecord
100
AcDbTextStyleTableRecord
  2
ISO-NORM
 70
     0
 40
0.0
 41
0.9
 50
15.0
 71
     0
 42
3.5
  3
SIMPLEX8
  4

  0
STYLE
  5
188
100
AcDbSymbolTableRecord
100
AcDbTextStyleTableRecord
  2
VSM_00
 70
    64
 40
0.0
 41
0.9
 50
0.0
 71
     0
 42
3.5
  3
isocp
  4

  0
STYLE
  5
2DF
100
AcDbSymbolTableRecord
100
AcDbTextStyleTableRecord
  2
NORM
 70
    64
 40
0.0
 41
1.0
 50
0.0
 71
     0
 42
2.0
  3
SIMPLEX
  4

  0
STYLE
  5
60D
100
AcDbSymbolTableRecord
100
AcDbTextStyleTableRecord
  2
VSM_15
 70
    64
 40
0.0
 41
0.9
 50
15.0
 71
     0
 42
3.5
  3
isocp
  4

  0
ENDTAB
  0
TABLE
  2
VIEW
  5
126
100
AcDbSymbolTable
 70
     5
  0
VIEW
  5
152
100
AcDbSymbolTableRecord
100
AcDbViewTableRecord
  2
OL
 70
     0
 40
165.0
 10
105.0
 20
247.5
 41
210.0
 11
0.0
 21
0.0
 31
1.0
 12
0.0
 22
0.0
 32
0.0
 42
50.0
 43
0.0
 44
0.0
 50
0.0
 71
     0
  0
VIEW
  5
153
100
AcDbSymbolTableRecord
100
AcDbViewTableRecord
  2
OR
 70
     0
 40
165.0
 10
315.0
 20
247.5
 41
210.0
 11
0.0
 21
0.0
 31
1.0
 12
0.0
 22
0.0
 32
0.0
 42
50.0
 43
0.0
 44
0.0
 50
0.0
 71
     0
  0
VIEW
  5
154
100
AcDbSymbolTableRecord
100
AcDbViewTableRecord
  2
ZE
 70
     0
 40
165.0
 10
210.0
 20
165.0
 41
210.0
 11
0.0
 21
0.0
 31
1.0
 12
0.0
 22
0.0
 32
0.0
 42
50.0
 43
0.0
 44
0.0
 50
0.0
 71
     0
  0
VIEW
  5
155
100
AcDbSymbolTableRecord
100
AcDbViewTableRecord
  2
UL
 70
     0
 40
164.0
 10
105.5
 20
83.0
 41
209.0
 11
0.0
 21
0.0
 31
1.0
 12
0.0
 22
0.0
 32
0.0
 42
50.0
 43
0.0
 44
0.0
 50
0.0
 71
     0
  0
VIEW
  5
156
100
AcDbSymbolTableRecord
100
AcDbViewTableRecord
  2
UR
 70
     0
 40
164.0
 10
315.0
 20
83.0
 41
210.0
 11
0.0
 21
0.0
 31
1.0
 12
0.0
 22
0.0
 32
0.0
 42
50.0
 43
0.0
 44
0.0
 50
0.0
 71
     0
  0
ENDTAB
  0
TABLE
  2
UCS
  5
127
100
AcDbSymbolTable
 70
     0
  0
ENDTAB
  0
TABLE
  2
APPID
  5
129
100
AcDbSymbolTable
 70
     2
  0
APPID
  5
131
100
AcDbSymbolTableRecord
100
AcDbRegAppTableRecord
  2
ACAD
 70
    64
  0
APPID
  5
159
100
AcDbSymbolTableRecord
100
AcDbRegAppTableRecord
  2
AME_SOL
 70
    64
  0
ENDTAB
  0
TABLE
  2
DIMSTYLE
  5
12A
100
AcDbSymbolTable
 70
     4
  0
DIMSTYLE
105
15A
100
AcDbSymbolTableRecord
100
AcDbDimStyleTableRecord
  2
INWECO
 70
     0
  3

  4

  5

  6

  7

 40
1.0
 41
3.5
 42
1.0
 43
7.5
 44
1.0
 45
0.0
 46
0.0
 47
0.0
 48
0.0
140
3.5
141
3.0
142
0.0
143
0.03937
144
1.0
145
0.0
146
0.428571
147
1.25
 71
     0
 72
     0
 73
     0
 74
     0
 75
     0
 76
     0
 77
     1
 78
     8
170
     0
171
     2
172
     1
173
     0
174
     0
175
     0
176
   256
177
   256
178
     3
270
     2
271
     2
272
     2
273
     2
274
     2
340
188
275
     0
280
     0
281
     0
282
     0
283
     1
284
     8
285
     0
286
     0
287
     3
288
     0
  0
DIMSTYLE
105
3BB
100
AcDbSymbolTableRecord
100
AcDbDimStyleTableRecord
  2
B__3B9
 70
     0
  3

  4

  5

  6

  7

 40
5.0
 41
3.5
 42
0.0
 43
8.0
 44
1.0
 45
0.0
 46
0.0
 47
0.0
 48
0.0
140
3.5
141
2.0
142
0.0
143
0.03937
144
1.0
145
0.0
146
0.71
147
1.25
 71
     0
 72
     0
 73
     0
 74
     0
 75
     0
 76
     0
 77
     1
 78
     8
170
     0
171
     2
172
     1
173
     0
174
     0
175
     0
176
     4
177
     4
178
     3
270
     2
271
     2
272
     2
273
     2
274
     2
340
188
275
     0
280
     0
281
     0
282
     0
283
     1
284
     8
285
     8
286
     8
287
     0
288
     0
  0
DIMSTYLE
105
7A7
100
AcDbSymbolTableRecord
100
AcDbDimStyleTableRecord
  2
ISO-25
 70
     0
  3

  4

  5

  6

  7

 40
1.0
 41
2.5
 42
0.625
 43
3.75
 44
1.25
 45
0.0
 46
0.0
 47
0.0
 48
0.0
140
2.5
141
2.5
142
0.0
143
0.0394
144
1.0
145
1.0
146
1.0
147
0.625
 71
     0
 72
     0
 73
     1
 74
     0
 75
     0
 76
     0
 77
     1
 78
     8
170
     0
171
     2
172
     1
173
     0
174
     0
175
     0
176
     0
177
     0
178
     0
270
     2
271
     4
272
     4
273
     2
274
     2
340
130
275
     0
280
     0
281
     0
282
     0
283
     1
284
     0
285
     0
286
     0
287
     3
288
     0
  0
DIMSTYLE
105
8C8
100
AcDbSymbolTableRecord
100
AcDbDimStyleTableRecord
  2
STANDARD
 70
     0
  3

  4

  5

  6

  7

 40
1.0
 41
0.18
 42
0.0625
 43
0.38
 44
0.18
 45
0.0
 46
0.0
 47
0.0
 48
0.0
140
0.18
141
0.09
142
0.0
143
25.4
144
1.0
145
0.0
146
1.0
147
0.09
 71
     0
 72
     0
 73
     1
 74
     1
 75
     0
 76
     0
 77
     0
 78
     0
170
     0
171
     2
172
     0
173
     0
174
     0
175
     0
176
     0
177
     0
178
     0
270
     2
271
     4
272
     4
273
     2
274
     2
340
130
275
     0
280
     0
281
     0
282
     0
283
     1
284
     0
285
     0
286
     0
287
     3
288
     0
  0
ENDTAB
  0
TABLE
  2
BLOCK_RECORD
  5
121
100
AcDbSymbolTable
 70
    30
  0
BLOCK_RECORD
  5
138
100
AcDbSymbolTableRecord
100
AcDbBlockTableRecord
  2
*MODEL_SPACE
  0
BLOCK_RECORD
  5
135
100
AcDbSymbolTableRecord
100
AcDbBlockTableRecord
  2
*PAPER_SPACE
  0
BLOCK_RECORD
  5
13C
100
AcDbSymbolTableRecord
100
AcDbBlockTableRecord
  2
AME_NIL
  0
BLOCK_RECORD
  5
13D
100
AcDbSymbolTableRecord
100
AcDbBlockTableRecord
  2
AME_SOL
  0
BLOCK_RECORD
  5
1CC
100
AcDbSymbolTableRecord
100
AcDbBlockTableRecord
  2
AIW_F000
  0
BLOCK_RECORD
  5
2E0
100
AcDbSymbolTableRecord
100
AcDbBlockTableRecord
  2
AMW_TITLE
  0
BLOCK_RECORD
  5
3BD
100
AcDbSymbolTableRecord
100
AcDbBlockTableRecord
  2
*D4
  0
BLOCK_RECORD
  5
3CB
100
AcDbSymbolTableRecord
100
AcDbBlockTableRecord
  2
*D5
  0
BLOCK_RECORD
  5
3E1
100
AcDbSymbolTableRecord
100
AcDbBlockTableRecord
  2
*D6
  0
BLOCK_RECORD
  5
3EE
100
AcDbSymbolTableRecord
100
AcDbBlockTableRecord
  2
*D7
  0
BLOCK_RECORD
  5
40A
100
AcDbSymbolTableRecord
100
AcDbBlockTableRecord
  2
*D8
  0
BLOCK_RECORD
  5
422
100
AcDbSymbolTableRecord
100
AcDbBlockTableRecord
  2
*D9
  0
BLOCK_RECORD
  5
42F
100
AcDbSymbolTableRecord
100
AcDbBlockTableRecord
  2
*D10
  0
BLOCK_RECORD
  5
43C
100
AcDbSymbolTableRecord
100
AcDbBlockTableRecord
  2
*D11
  0
BLOCK_RECORD
  5
48E
100
AcDbSymbolTableRecord
100
AcDbBlockTableRecord
  2
*D12
  0
BLOCK_RECORD
  5
49B
100
AcDbSymbolTableRecord
100
AcDbBlockTableRecord
  2
*D13
  0
BLOCK_RECORD
  5
4A7
100
AcDbSymbolTableRecord
100
AcDbBlockTableRecord
  2
*D14
  0
BLOCK_RECORD
  5
4C2
100
AcDbSymbolTableRecord
100
AcDbBlockTableRecord
  2
*D15
  0
BLOCK_RECORD
  5
4CB
100
AcDbSymbolTableRecord
100
AcDbBlockTableRecord
  2
*D16
  0
BLOCK_RECORD
  5
4FD
100
AcDbSymbolTableRecord
100
AcDbBlockTableRecord
  2
*D17
  0
BLOCK_RECORD
  5
50B
100
AcDbSymbolTableRecord
100
AcDbBlockTableRecord
  2
*D18
  0
BLOCK_RECORD
  5
519
100
AcDbSymbolTableRecord
100
AcDbBlockTableRecord
  2
*D19
  0
BLOCK_RECORD
  5
527
100
AcDbSymbolTableRecord
100
AcDbBlockTableRecord
  2
*D20
  0
BLOCK_RECORD
  5
535
100
AcDbSymbolTableRecord
100
AcDbBlockTableRecord
  2
*D21
  0
BLOCK_RECORD
  5
547
100
AcDbSymbolTableRecord
100
AcDbBlockTableRecord
  2
*D22
  0
BLOCK_RECORD
  5
56B
100
AcDbSymbolTableRecord
100
AcDbBlockTableRecord
  2
*D23
  0
BLOCK_RECORD
  5
608
100
AcDbSymbolTableRecord
100
AcDbBlockTableRecord
  2
ACL_C000
  0
BLOCK_RECORD
  5
7A8
100
AcDbSymbolTableRecord
100
AcDbBlockTableRecord
  2
BIB01BI_BIB004
  0
BLOCK_RECORD
  5
8AD
100
AcDbSymbolTableRecord
100
AcDbBlockTableRecord
  2
BIB01BI_BIB031
  0
BLOCK_RECORD
  5
8C9
100
AcDbSymbolTableRecord
100
AcDbBlockTableRecord
  2
A$C7
  0
ENDTAB
  0
ENDSEC
  0
SECTION
  2
BLOCKS
  0
BLOCK
  5
17D
100
AcDbEntity
  8
05-CONT
100
AcDbBlockBegin
  2
*MODEL_SPACE
 70
     0
 10
0.0
 20
0.0
 30
0.0
  3
*MODEL_SPACE
  1

  0
ENDBLK
  5
17E
100
AcDbEntity
  8
05-CONT
100
AcDbBlockEnd
  0
BLOCK
  5
17B
100
AcDbEntity
 67
     1
  8
05-CONT
100
AcDbBlockBegin
  2
*PAPER_SPACE
 70
     0
 10
0.0
 20
0.0
 30
0.0
  3
*PAPER_SPACE
  1

  0
ENDBLK
  5
17C
100
AcDbEntity
 67
     1
  8
05-CONT
100
AcDbBlockEnd
  0
BLOCK
  5
3
100
AcDbEntity
  8
0
100
AcDbBlockBegin
  2
AME_NIL
 70
    64
 10
0.0
 20
0.0
 30
0.0
  3
AME_NIL
  1
AME_NIL
  0
ENDBLK
  5
4
100
AcDbEntity
  8
0
100
AcDbBlockEnd
  0
BLOCK
  5
6
100
AcDbEntity
  8
0
100
AcDbBlockBegin
  2
AME_SOL
 70
    64
 10
0.0
 20
0.0
 30
0.0
  3
AME_SOL
  1
AME_SOL
  0
ENDBLK
  5
7
100
AcDbEntity
  8
0
100
AcDbBlockEnd
  0
BLOCK
  5
2BC
100
AcDbEntity
  8
0
100
AcDbBlockBegin
  2
AIW_F000
 70
    64
 10
0.0
 20
0.0
 30
0.0
  3
AIW_F000
  1

  0
SOLID
  5
1CD
100
AcDbEntity
  8
025-CONT
100
AcDbTrace
 10
0.0
 20
15.8
 30
0.0
 11
0.6
 21
11.55
 31
0.0
 12
16.1
 22
15.8
 32
0.0
 13
13.301621
 23
11.55
 33
0.0
  0
SOLID
  5
1CE
100
AcDbEntity
  8
025-CONT
100
AcDbTrace
 10
0.0
 20
0.0
 30
0.0
 11
16.1
 21
0.0
 31
0.0
 12
0.6
 22
4.25
 32
0.0
 13
15.85
 23
4.25
 33
0.0
  0
LINE
  5
1CF
100
AcDbEntity
  8
025-CONT
100
AcDbLine
 10
7.65
 20
4.25
 30
0.0
 11
11.95
 21
4.25
 31
0.0
  0
LINE
  5
1D0
100
AcDbEntity
  8
025-CONT
100
AcDbLine
 10
7.65
 20
11.55
 30
0.0
 11
13.51
 21
11.55
 31
0.0
  0
LINE
  5
1D1
100
AcDbEntity
  8
025-CONT
100
AcDbLine
 10
7.65
 20
4.25
 30
0.0
 11
11.95
 21
4.25
 31
0.0
  0
LINE
  5
1D2
100
AcDbEntity
  8
025-CONT
100
AcDbLine
 10
16.1
 20
15.8
 30
0.0
 11
0.0
 21
15.8
 31
0.0
  0
LINE
  5
1D3
100
AcDbEntity
  8
025-CONT
100
AcDbLine
 10
0.0
 20
0.0
 30
0.0
 11
16.1
 21
0.0
 31
0.0
  0
SOLID
  5
1D4
100
AcDbEntity
  8
025-CONT
100
AcDbTrace
 10
0.0
 20
15.8
 30
0.0
 11
0.6
 21
4.25
 31
0.0
 12
0.0
 22
15.8
 32
0.0
 13
0.0
 23
0.0
 33
0.0
  0
SOLID
  5
1D5
100
AcDbEntity
  8
025-CONT
100
AcDbTrace
 10
0.6
 20
9.8
 30
0.0
 11
0.6
 21
6.05
 31
0.0
 12
0.0
 22
15.8
 32
0.0
 13
0.6
 23
4.25
 33
0.0
  0
SOLID
  5
1D6
100
AcDbEntity
  8
025-CONT
100
AcDbTrace
 10
1.3
 20
9.8
 30
0.0
 11
1.3
 21
6.05
 31
0.0
 12
0.6
 22
9.8
 32
0.0
 13
0.6
 23
6.05
 33
0.0
  0
SOLID
  5
1D7
100
AcDbEntity
  8
025-CONT
100
AcDbTrace
 10
4.9
 20
6.05
 30
0.0
 11
5.53
 21
7.23
 31
0.0
 12
4.2
 22
6.05
 32
0.0
 13
4.2
 23
7.23
 33
0.0
  0
SOLID
  5
1D8
100
AcDbEntity
  8
025-CONT
100
AcDbTrace
 10
4.9
 20
4.25
 30
0.0
 11
7.65
 21
4.25
 31
0.0
 12
4.9
 22
6.05
 32
0.0
 13
5.53
 23
7.23
 33
0.0
  0
SOLID
  5
1D9
100
AcDbEntity
  8
025-CONT
100
AcDbTrace
 10
7.65
 20
4.25
 30
0.0
 11
7.25
 21
9.13
 31
0.0
 12
5.53
 22
7.23
 32
0.0
 13
5.53
 23
9.13
 33
0.0
  0
SOLID
  5
1DA
100
AcDbEntity
  8
025-CONT
100
AcDbTrace
 10
7.65
 20
11.55
 30
0.0
 11
7.65
 21
4.25
 31
0.0
 12
7.25
 22
11.55
 32
0.0
 13
7.25
 23
9.13
 33
0.0
  0
SOLID
  5
1DB
100
AcDbEntity
  8
025-CONT
100
AcDbTrace
 10
8.35
 20
9.8
 30
0.0
 11
8.35
 21
6.05
 31
0.0
 12
7.65
 22
9.8
 32
0.0
 13
7.65
 23
6.05
 33
0.0
  0
LINE
  5
1DC
100
AcDbEntity
  8
025-CONT
100
AcDbLine
 10
8.35
 20
6.05
 30
0.0
 11
8.35
 21
9.8
 31
0.0
  0
LINE
  5
1DD
100
AcDbEntity
  8
025-CONT
100
AcDbLine
 10
4.2
 20
6.05
 30
0.0
 11
4.2
 21
7.23
 31
0.0
  0
LINE
  5
1DE
100
AcDbEntity
  8
025-CONT
100
AcDbLine
 10
1.3
 20
6.05
 30
0.0
 11
1.3
 21
9.8
 31
0.0
  0
LINE
  5
1DF
100
AcDbEntity
  8
025-CONT
100
AcDbLine
 10
0.0
 20
15.8
 30
0.0
 11
0.0
 21
0.0
 31
0.0
  0
LINE
  5
1E0
100
AcDbEntity
  8
025-CONT
100
AcDbLine
 10
0.6
 20
6.05
 30
0.0
 11
1.3
 21
6.05
 31
0.0
  0
LINE
  5
1E1
100
AcDbEntity
  8
025-CONT
100
AcDbLine
 10
0.6
 20
4.25
 30
0.0
 11
4.9
 21
4.25
 31
0.0
  0
LINE
  5
1E2
100
AcDbEntity
  8
025-CONT
100
AcDbLine
 10
0.6
 20
4.25
 30
0.0
 11
0.6
 21
6.05
 31
0.0
  0
LINE
  5
1E3
100
AcDbEntity
  8
025-CONT
100
AcDbLine
 10
7.65
 20
6.05
 30
0.0
 11
8.35
 21
6.05
 31
0.0
  0
LINE
  5
1E4
100
AcDbEntity
  8
025-CONT
100
AcDbLine
 10
7.65
 20
4.25
 30
0.0
 11
7.65
 21
6.05
 31
0.0
  0
LINE
  5
1E5
100
AcDbEntity
  8
025-CONT
100
AcDbLine
 10
7.65
 20
4.25
 30
0.0
 11
7.65
 21
4.6
 31
0.0
  0
LINE
  5
1E6
100
AcDbEntity
  8
025-CONT
100
AcDbLine
 10
4.9
 20
6.05
 30
0.0
 11
4.2
 21
6.05
 31
0.0
  0
LINE
  5
1E7
100
AcDbEntity
  8
025-CONT
100
AcDbLine
 10
4.9
 20
4.25
 30
0.0
 11
4.9
 21
6.05
 31
0.0
  0
LINE
  5
1E8
100
AcDbEntity
  8
025-CONT
100
AcDbLine
 10
1.3
 20
9.8
 30
0.0
 11
0.6
 21
9.8
 31
0.0
  0
LINE
  5
1E9
100
AcDbEntity
  8
025-CONT
100
AcDbLine
 10
0.6
 20
11.55
 30
0.0
 11
7.25
 21
11.55
 31
0.0
  0
SOLID
  5
1EA
100
AcDbEntity
  8
025-CONT
100
AcDbTrace
 10
0.0
 20
15.8
 30
0.0
 11
0.6
 21
9.8
 31
0.0
 12
0.6
 22
11.55
 32
0.0
 13
0.6
 23
11.55
 33
0.0
  0
LINE
  5
1EB
100
AcDbEntity
  8
025-CONT
100
AcDbLine
 10
0.6
 20
9.8
 30
0.0
 11
0.6
 21
11.55
 31
0.0
  0
SOLID
  5
1EC
100
AcDbEntity
  8
025-CONT
100
AcDbTrace
 10
5.53
 20
8.75
 30
0.0
 11
5.53
 21
9.8
 31
0.0
 12
4.2
 22
8.75
 32
0.0
 13
4.2
 23
9.8
 33
0.0
  0
LINE
  5
1ED
100
AcDbEntity
  8
025-CONT
100
AcDbLine
 10
7.65
 20
9.8
 30
0.0
 11
7.65
 21
11.55
 31
0.0
  0
LINE
  5
1EE
100
AcDbEntity
  8
025-CONT
100
AcDbLine
 10
8.35
 20
9.8
 30
0.0
 11
7.65
 21
9.8
 31
0.0
  0
LINE
  5
1EF
100
AcDbEntity
  8
025-CONT
100
AcDbLine
 10
7.25
 20
9.13
 30
0.0
 11
7.25
 21
11.55
 31
0.0
  0
LINE
  5
1F0
100
AcDbEntity
  8
025-CONT
100
AcDbLine
 10
5.53
 20
9.13
 30
0.0
 11
7.25
 21
9.13
 31
0.0
  0
LINE
  5
1F1
100
AcDbEntity
  8
025-CONT
100
AcDbLine
 10
5.53
 20
9.8
 30
0.0
 11
5.53
 21
9.13
 31
0.0
  0
LINE
  5
1F2
100
AcDbEntity
  8
025-CONT
100
AcDbLine
 10
4.2
 20
9.8
 30
0.0
 11
5.53
 21
9.8
 31
0.0
  0
LINE
  5
1F3
100
AcDbEntity
  8
025-CONT
100
AcDbLine
 10
4.2
 20
8.75
 30
0.0
 11
4.2
 21
9.8
 31
0.0
  0
LINE
  5
1F4
100
AcDbEntity
  8
025-CONT
100
AcDbLine
 10
5.53
 20
8.75
 30
0.0
 11
4.2
 21
8.75
 31
0.0
  0
LINE
  5
1F5
100
AcDbEntity
  8
025-CONT
100
AcDbLine
 10
5.53
 20
7.23
 30
0.0
 11
5.53
 21
8.75
 31
0.0
  0
LINE
  5
1F6
100
AcDbEntity
  8
025-CONT
100
AcDbLine
 10
4.2
 20
7.23
 30
0.0
 11
5.53
 21
7.23
 31
0.0
  0
SOLID
  5
1F7
100
AcDbEntity
  8
025-CONT
100
AcDbTrace
 10
42.260877
 20
6.05
 30
0.0
 11
41.660877
 21
9.8
 31
0.0
 12
40.410877
 22
8.45
 32
0.0
 13
40.410877
 23
8.45
 33
0.0
  0
SOLID
  5
1F8
100
AcDbEntity
  8
025-CONT
100
AcDbTrace
 10
34.210877
 20
0.0
 30
0.0
 11
34.460877
 21
4.25
 31
0.0
 12
50.510877
 22
0.0
 32
0.0
 13
49.810877
 23
4.25
 33
0.0
  0
SOLID
  5
1F9
100
AcDbEntity
  8
025-CONT
100
AcDbTrace
 10
34.460877
 20
11.55
 30
0.0
 11
49.810877
 21
11.55
 31
0.0
 12
50.510877
 22
15.8
 32
0.0
 13
49.810877
 23
4.25
 33
0.0
  0
SOLID
  5
1FA
100
AcDbEntity
  8
025-CONT
100
AcDbTrace
 10
34.210877
 20
15.8
 30
0.0
 11
50.510877
 21
15.8
 31
0.0
 12
34.460877
 22
11.55
 32
0.0
 13
49.810877
 23
11.55
 33
0.0
  0
LINE
  5
1FB
100
AcDbEntity
  8
025-CONT
100
AcDbLine
 10
42.860877
 20
4.25
 30
0.0
 11
38.960877
 21
4.25
 31
0.0
  0
LINE
  5
1FC
100
AcDbEntity
  8
025-CONT
100
AcDbLine
 10
40.410877
 20
8.45
 30
0.0
 11
42.260877
 21
6.05
 31
0.0
  0
LINE
  5
1FD
100
AcDbEntity
  8
025-CONT
100
AcDbLine
 10
41.660877
 20
9.8
 30
0.0
 11
40.410877
 21
8.45
 31
0.0
  0
LINE
  5
1FE
100
AcDbEntity
  8
025-CONT
100
AcDbLine
 10
38.960877
 20
11.55
 30
0.0
 11
42.460877
 21
11.55
 31
0.0
  0
LINE
  5
1FF
100
AcDbEntity
  8
025-CONT
100
AcDbLine
 10
34.210877
 20
15.8
 30
0.0
 11
50.510877
 21
15.8
 31
0.0
  0
LINE
  5
200
100
AcDbEntity
  8
025-CONT
100
AcDbLine
 10
34.210877
 20
0.0
 30
0.0
 11
50.510877
 21
0.0
 31
0.0
  0
SOLID
  5
201
100
AcDbEntity
  8
025-CONT
100
AcDbTrace
 10
24.912459
 20
4.25
 30
0.0
 11
25.262459
 21
4.25
 31
0.0
 12
24.912459
 22
6.05
 32
0.0
 13
25.262459
 23
6.05
 33
0.0
  0
SOLID
  5
202
100
AcDbEntity
  8
025-CONT
100
AcDbTrace
 10
24.262459
 20
6.05
 30
0.0
 11
25.962459
 21
6.05
 31
0.0
 12
23.212459
 22
9.8
 32
0.0
 13
25.962459
 23
9.8
 33
0.0
  0
SOLID
  5
203
100
AcDbEntity
  8
025-CONT
100
AcDbTrace
 10
23.762459
 20
11.55
 30
0.0
 11
25.262459
 21
11.55
 31
0.0
 12
23.762459
 22
9.8
 32
0.0
 13
25.262459
 23
9.8
 33
0.0
  0
SOLID
  5
204
100
AcDbEntity
  8
025-CONT
100
AcDbTrace
 10
33.362459
 20
15.8
 30
0.0
 11
33.112459
 21
11.55
 31
0.0
 12
17.012459
 22
15.8
 32
0.0
 13
18.462459
 23
11.55
 33
0.0
  0
SOLID
  5
205
100
AcDbEntity
  8
025-CONT
100
AcDbTrace
 10
17.012459
 20
0.0
 30
0.0
 11
17.262459
 21
4.25
 31
0.0
 12
33.362459
 22
0.0
 32
0.0
 13
32.412459
 23
4.25
 33
0.0
  0
LINE
  5
206
100
AcDbEntity
  8
025-CONT
100
AcDbLine
 10
17.012459
 20
15.8
 30
0.0
 11
33.362459
 21
15.8
 31
0.0
  0
LINE
  5
207
100
AcDbEntity
  8
025-CONT
100
AcDbLine
 10
17.012459
 20
0.0
 30
0.0
 11
33.362459
 21
0.0
 31
0.0
  0
SOLID
  5
208
100
AcDbEntity
  8
025-CONT
100
AcDbTrace
 10
15.150261
 20
6.054232
 30
0.0
 11
14.472397
 21
7.888617
 31
0.0
 12
15.150252
 22
6.054255
 32
0.0
 13
14.362321
 23
7.822278
 33
0.0
  0
SOLID
  5
209
100
AcDbEntity
  8
025-CONT
100
AcDbTrace
 10
15.150191
 20
6.05
 30
0.0
 11
14.60902
 21
7.975657
 31
0.0
 12
15.150261
 22
6.054232
 32
0.0
 13
14.472397
 23
7.888617
 33
0.0
  0
SOLID
  5
20A
100
AcDbEntity
  8
025-CONT
100
AcDbTrace
 10
15.150191
 20
6.05
 30
0.0
 11
14.728051
 21
8.065833
 31
0.0
 12
15.150191
 22
6.05
 32
0.0
 13
14.60902
 23
7.975657
 33
0.0
  0
SOLID
  5
20B
100
AcDbEntity
  8
025-CONT
100
AcDbTrace
 10
15.147543
 20
6.055529
 30
0.0
 11
14.879791
 21
8.204611
 31
0.0
 12
15.150191
 22
6.05
 32
0.0
 13
14.728051
 23
8.065833
 33
0.0
  0
SOLID
  5
20C
100
AcDbEntity
  8
025-CONT
100
AcDbTrace
 10
15.150191
 20
6.05
 30
0.0
 11
15.015752
 21
8.358735
 31
0.0
 12
15.147543
 22
6.055529
 32
0.0
 13
14.879791
 23
8.204611
 33
0.0
  0
SOLID
  5
20D
100
AcDbEntity
  8
025-CONT
100
AcDbTrace
 10
15.150191
 20
6.05
 30
0.0
 11
15.192441
 21
8.62491
 31
0.0
 12
15.150191
 22
6.05
 32
0.0
 13
15.015752
 23
8.358735
 33
0.0
  0
SOLID
  5
20E
100
AcDbEntity
  8
025-CONT
100
AcDbTrace
 10
15.148461
 20
6.053464
 30
0.0
 11
15.33102
 21
8.941489
 31
0.0
 12
15.150191
 22
6.05
 32
0.0
 13
15.192441
 23
8.62491
 33
0.0
  0
SOLID
  5
20F
100
AcDbEntity
  8
025-CONT
100
AcDbTrace
 10
15.161356
 20
6.05
 30
0.0
 11
15.422359
 21
9.378872
 31
0.0
 12
15.148461
 22
6.053464
 32
0.0
 13
15.33102
 23
8.941489
 33
0.0
  0
SOLID
  5
210
100
AcDbEntity
  8
025-CONT
100
AcDbTrace
 10
15.85
 20
6.0375
 30
0.0
 11
15.935363
 21
9.379156
 31
0.0
 12
15.161356
 22
6.05
 32
0.0
 13
15.422359
 23
9.378872
 33
0.0
  0
SOLID
  5
211
100
AcDbEntity
  8
025-CONT
100
AcDbTrace
 10
11.95
 20
6.05
 30
0.0
 11
11.25
 21
6.05
 31
0.0
 12
11.95
 22
7.23
 32
0.0
 13
11.25
 23
7.23
 33
0.0
  0
SOLID
  5
212
100
AcDbEntity
  8
025-CONT
100
AcDbTrace
 10
13.25
 20
4.25
 30
0.0
 11
11.95
 21
4.25
 31
0.0
 12
11.95
 22
7.23
 32
0.0
 13
11.95
 23
7.23
 33
0.0
  0
SOLID
  5
213
100
AcDbEntity
  8
025-CONT
100
AcDbTrace
 10
16.1
 20
0.0
 30
0.0
 11
15.85
 21
4.25
 31
0.0
 12
16.1
 22
15.8
 32
0.0
 13
15.85
 23
6.05
 33
0.0
  0
SOLID
  5
214
100
AcDbEntity
  8
025-CONT
100
AcDbTrace
 10
18.462459
 20
9.8
 30
0.0
 11
19.062459
 21
9.8
 31
0.0
 12
17.912459
 22
6.05
 32
0.0
 13
17.912459
 23
6.05
 33
0.0
  0
SOLID
  5
215
100
AcDbEntity
  8
025-CONT
100
AcDbTrace
 10
17.912459
 20
6.05
 30
0.0
 11
18.462459
 21
11.55
 31
0.0
 12
18.462459
 22
9.8
 32
0.0
 13
18.462459
 23
9.8
 33
0.0
  0
SOLID
  5
216
100
AcDbEntity
  8
025-CONT
100
AcDbTrace
 10
17.262459
 20
6.05
 30
0.0
 11
17.012459
 21
15.8
 31
0.0
 12
17.912459
 22
6.05
 32
0.0
 13
18.462459
 23
11.55
 33
0.0
  0
SOLID
  5
217
100
AcDbEntity
  8
025-CONT
100
AcDbTrace
 10
17.262459
 20
6.05
 30
0.0
 11
17.262459
 21
4.25
 31
0.0
 12
17.012459
 22
15.8
 32
0.0
 13
17.012459
 23
0.0
 33
0.0
  0
LINE
  5
218
100
AcDbEntity
  8
025-CONT
100
AcDbLine
 10
23.212459
 20
9.8
 30
0.0
 11
24.262459
 21
6.05
 31
0.0
  0
LINE
  5
219
100
AcDbEntity
  8
025-CONT
100
AcDbLine
 10
17.912459
 20
6.05
 30
0.0
 11
19.062459
 21
9.8
 31
0.0
  0
LINE
  5
21A
100
AcDbEntity
  8
025-CONT
100
AcDbLine
 10
15.15
 20
6.05
 30
0.0
 11
14.359671
 21
7.82824
 31
0.0
  0
LINE
  5
21B
100
AcDbEntity
  8
025-CONT
100
AcDbLine
 10
11.95
 20
7.23
 30
0.0
 11
13.25
 21
4.25
 31
0.0
  0
LINE
  5
21C
100
AcDbEntity
  8
025-CONT
100
AcDbLine
 10
11.25
 20
6.05
 30
0.0
 11
11.25
 21
7.23
 31
0.0
  0
LINE
  5
21D
100
AcDbEntity
  8
025-CONT
100
AcDbLine
 10
17.012459
 20
0.0
 30
0.0
 11
17.012459
 21
15.8
 31
0.0
  0
LINE
  5
21E
100
AcDbEntity
  8
025-CONT
100
AcDbLine
 10
16.1
 20
0.0
 30
0.0
 11
16.1
 21
15.8
 31
0.0
  0
LINE
  5
21F
100
AcDbEntity
  8
025-CONT
100
AcDbLine
 10
13.25
 20
4.25
 30
0.0
 11
15.85
 21
4.25
 31
0.0
  0
LINE
  5
220
100
AcDbEntity
  8
025-CONT
100
AcDbLine
 10
13.25
 20
4.25
 30
0.0
 11
15.85
 21
4.25
 31
0.0
  0
LINE
  5
221
100
AcDbEntity
  8
025-CONT
100
AcDbLine
 10
15.85
 20
6.05
 30
0.0
 11
15.15
 21
6.05
 31
0.0
  0
LINE
  5
222
100
AcDbEntity
  8
025-CONT
100
AcDbLine
 10
15.85
 20
4.25
 30
0.0
 11
15.85
 21
6.05
 31
0.0
  0
LINE
  5
223
100
AcDbEntity
  8
025-CONT
100
AcDbLine
 10
13.25
 20
4.25
 30
0.0
 11
15.85
 21
4.25
 31
0.0
  0
LINE
  5
224
100
AcDbEntity
  8
025-CONT
100
AcDbLine
 10
11.95
 20
6.05
 30
0.0
 11
11.25
 21
6.05
 31
0.0
  0
LINE
  5
225
100
AcDbEntity
  8
025-CONT
100
AcDbLine
 10
11.95
 20
4.25
 30
0.0
 11
11.95
 21
6.05
 31
0.0
  0
SOLID
  5
226
100
AcDbEntity
  8
025-CONT
100
AcDbTrace
 10
20.462459
 20
6.05
 30
0.0
 11
21.012459
 21
6.05
 31
0.0
 12
20.462459
 22
4.25
 32
0.0
 13
21.012459
 23
4.25
 33
0.0
  0
SOLID
  5
227
100
AcDbEntity
  8
025-CONT
100
AcDbTrace
 10
19.895792
 20
6.65
 30
0.0
 11
21.562459
 21
6.65
 31
0.0
 12
19.712459
 22
6.05
 32
0.0
 13
21.712459
 23
6.05
 33
0.0
  0
LINE
  5
228
100
AcDbEntity
  8
025-CONT
100
AcDbLine
 10
19.895792
 20
6.65
 30
0.0
 11
19.712459
 21
6.05
 31
0.0
  0
LINE
  5
229
100
AcDbEntity
  8
025-CONT
100
AcDbLine
 10
19.895792
 20
6.65
 30
0.0
 11
21.562459
 21
6.65
 31
0.0
  0
LINE
  5
22A
100
AcDbEntity
  8
025-CONT
100
AcDbLine
 10
20.462459
 20
4.25
 30
0.0
 11
17.262459
 21
4.25
 31
0.0
  0
LINE
  5
22B
100
AcDbEntity
  8
025-CONT
100
AcDbLine
 10
20.462459
 20
6.05
 30
0.0
 11
20.462459
 21
4.25
 31
0.0
  0
LINE
  5
22C
100
AcDbEntity
  8
025-CONT
100
AcDbLine
 10
19.712459
 20
6.05
 30
0.0
 11
20.462459
 21
6.05
 31
0.0
  0
LINE
  5
22D
100
AcDbEntity
  8
025-CONT
100
AcDbLine
 10
21.712459
 20
6.05
 30
0.0
 11
21.562459
 21
6.65
 31
0.0
  0
LINE
  5
22E
100
AcDbEntity
  8
025-CONT
100
AcDbLine
 10
21.012459
 20
6.05
 30
0.0
 11
21.712459
 21
6.05
 31
0.0
  0
LINE
  5
22F
100
AcDbEntity
  8
025-CONT
100
AcDbLine
 10
21.012459
 20
4.25
 30
0.0
 11
21.012459
 21
6.05
 31
0.0
  0
LINE
  5
230
100
AcDbEntity
  8
025-CONT
100
AcDbLine
 10
24.912459
 20
4.25
 30
0.0
 11
21.012459
 21
4.25
 31
0.0
  0
LINE
  5
231
100
AcDbEntity
  8
025-CONT
100
AcDbLine
 10
24.912459
 20
6.05
 30
0.0
 11
24.912459
 21
4.25
 31
0.0
  0
LINE
  5
232
100
AcDbEntity
  8
025-CONT
100
AcDbLine
 10
24.262459
 20
6.05
 30
0.0
 11
24.912459
 21
6.05
 31
0.0
  0
LINE
  5
233
100
AcDbEntity
  8
025-CONT
100
AcDbLine
 10
17.262459
 20
6.05
 30
0.0
 11
17.912459
 21
6.05
 31
0.0
  0
LINE
  5
234
100
AcDbEntity
  8
025-CONT
100
AcDbLine
 10
17.262459
 20
4.25
 30
0.0
 11
17.262459
 21
6.05
 31
0.0
  0
SOLID
  5
235
100
AcDbEntity
  8
025-CONT
100
AcDbTrace
 10
16.1
 20
15.8
 30
0.0
 11
13.63444
 21
11.545963
 31
0.0
 12
16.1
 22
15.8
 32
0.0
 13
13.303763
 23
11.553252
 33
0.0
  0
SOLID
  5
236
100
AcDbEntity
  8
025-CONT
100
AcDbTrace
 10
16.1
 20
15.8
 30
0.0
 11
13.923833
 21
11.504871
 31
0.0
 12
16.1
 22
15.8
 32
0.0
 13
13.63444
 23
11.545963
 33
0.0
  0
SOLID
  5
237
100
AcDbEntity
  8
025-CONT
100
AcDbTrace
 10
16.1
 20
15.8
 30
0.0
 11
14.184728
 21
11.427538
 31
0.0
 12
16.1
 22
15.8
 32
0.0
 13
13.923833
 23
11.504871
 33
0.0
  0
SOLID
  5
238
100
AcDbEntity
  8
025-CONT
100
AcDbTrace
 10
16.1
 20
15.8
 30
0.0
 11
14.445893
 21
11.306456
 31
0.0
 12
16.1
 22
15.8
 32
0.0
 13
14.184728
 23
11.427538
 33
0.0
  0
SOLID
  5
239
100
AcDbEntity
  8
025-CONT
100
AcDbTrace
 10
16.094659
 20
15.791889
 30
0.0
 11
14.703733
 21
11.133796
 31
0.0
 12
16.1
 22
15.8
 32
0.0
 13
14.445893
 23
11.306456
 33
0.0
  0
SOLID
  5
23A
100
AcDbEntity
  8
025-CONT
100
AcDbTrace
 10
16.1
 20
15.8
 30
0.0
 11
14.902637
 21
10.951727
 31
0.0
 12
16.094659
 22
15.791889
 32
0.0
 13
14.703733
 23
11.133796
 33
0.0
  0
SOLID
  5
23B
100
AcDbEntity
  8
025-CONT
100
AcDbTrace
 10
16.1
 20
15.792799
 30
0.0
 11
15.07751
 21
10.738744
 31
0.0
 12
16.1
 22
15.8
 32
0.0
 13
14.902637
 23
10.951727
 33
0.0
  0
SOLID
  5
23C
100
AcDbEntity
  8
025-CONT
100
AcDbTrace
 10
16.1
 20
15.792799
 30
0.0
 11
15.250115
 21
10.441418
 31
0.0
 12
16.1
 22
15.792799
 32
0.0
 13
15.07751
 23
10.738744
 33
0.0
  0
SOLID
  5
23D
100
AcDbEntity
  8
025-CONT
100
AcDbTrace
 10
16.1
 20
15.8
 30
0.0
 11
15.367915
 21
10.114307
 31
0.0
 12
16.1
 22
15.792799
 32
0.0
 13
15.250115
 23
10.441418
 33
0.0
  0
SOLID
  5
23E
100
AcDbEntity
  8
025-CONT
100
AcDbTrace
 10
16.1
 20
15.8
 30
0.0
 11
15.421539
 21
9.368414
 31
0.0
 12
16.1
 22
15.8
 32
0.0
 13
15.367915
 23
10.114307
 33
0.0
  0
SOLID
  5
23F
100
AcDbEntity
  8
025-CONT
100
AcDbTrace
 10
16.1
 20
15.8
 30
0.0
 11
15.93551
 21
9.384898
 31
0.0
 12
15.430805
 22
9.385773
 32
0.0
 13
15.430805
 23
9.385773
 33
0.0
  0
SOLID
  5
240
100
AcDbEntity
  8
025-CONT
100
AcDbTrace
 10
12.537637
 20
9.078828
 30
0.0
 11
12.54499
 21
9.277378
 31
0.0
 12
12.549413
 22
9.173472
 32
0.0
 13
12.549413
 23
9.173472
 33
0.0
  0
SOLID
  5
241
100
AcDbEntity
  8
025-CONT
100
AcDbTrace
 10
12.502706
 20
8.966513
 30
0.0
 11
12.531194
 21
9.349042
 31
0.0
 12
12.537637
 22
9.078828
 32
0.0
 13
12.54499
 23
9.277378
 33
0.0
  0
SOLID
  5
242
100
AcDbEntity
  8
025-CONT
100
AcDbTrace
 10
12.44535
 20
8.861432
 30
0.0
 11
12.492757
 21
9.455763
 31
0.0
 12
12.502706
 22
8.966513
 32
0.0
 13
12.531194
 23
9.349042
 33
0.0
  0
SOLID
  5
243
100
AcDbEntity
  8
025-CONT
100
AcDbTrace
 10
12.385185
 20
8.786946
 30
0.0
 11
12.444093
 21
9.540399
 31
0.0
 12
12.44535
 22
8.861432
 32
0.0
 13
12.492757
 23
9.455763
 33
0.0
  0
SOLID
  5
244
100
AcDbEntity
  8
025-CONT
100
AcDbTrace
 10
12.312884
 20
8.722176
 30
0.0
 11
12.369348
 21
9.629124
 31
0.0
 12
12.385185
 22
8.786946
 32
0.0
 13
12.444093
 23
9.540399
 33
0.0
  0
SOLID
  5
245
100
AcDbEntity
  8
025-CONT
100
AcDbTrace
 10
12.231458
 20
8.670112
 30
0.0
 11
12.291177
 21
9.693557
 31
0.0
 12
12.312884
 22
8.722176
 32
0.0
 13
12.369348
 23
9.629124
 33
0.0
  0
SOLID
  5
246
100
AcDbEntity
  8
025-CONT
100
AcDbTrace
 10
12.144313
 20
8.632336
 30
0.0
 11
12.1909
 21
9.749515
 31
0.0
 12
12.231458
 22
8.670112
 32
0.0
 13
12.291177
 23
9.693557
 33
0.0
  0
SOLID
  5
247
100
AcDbEntity
  8
025-CONT
100
AcDbTrace
 10
12.050233
 20
8.608432
 30
0.0
 11
12.071824
 21
9.787502
 31
0.0
 12
12.144313
 22
8.632336
 32
0.0
 13
12.1909
 23
9.749515
 33
0.0
  0
SOLID
  5
248
100
AcDbEntity
  8
025-CONT
100
AcDbTrace
 10
11.93957
 20
8.6
 30
0.0
 11
11.963173
 21
9.799855
 31
0.0
 12
12.050233
 22
8.608432
 32
0.0
 13
12.071824
 23
9.787502
 33
0.0
  0
SOLID
  5
249
100
AcDbEntity
  8
025-CONT
100
AcDbTrace
 10
11.25
 20
8.603375
 30
0.0
 11
11.25
 21
9.797694
 31
0.0
 12
11.93957
 22
8.6
 32
0.0
 13
11.963173
 23
9.799855
 33
0.0
  0
ARC
  5
24A
100
AcDbEntity
  8
025-CONT
100
AcDbCircle
 10
13.51
 20
9.55
 30
0.0
 40
1.92
100
AcDbArc
 50
296.265872
 51
0.0
  0
LINE
  5
24B
100
AcDbEntity
  8
025-CONT
100
AcDbLine
 10
15.43
 20
9.63
 30
0.0
 11
15.43
 21
9.63
 31
0.0
  0
LINE
  5
24C
100
AcDbEntity
  8
025-CONT
100
AcDbLine
 10
15.43
 20
9.55
 30
0.0
 11
15.43
 21
9.63
 31
0.0
  0
ARC
  5
24D
100
AcDbEntity
  8
025-CONT
100
AcDbCircle
 10
13.51
 20
9.63
 30
0.0
 40
1.92
100
AcDbArc
 50
0.0
 51
90.0
  0
LINE
  5
24E
100
AcDbEntity
  8
025-CONT
100
AcDbLine
 10
11.95
 20
9.8
 30
0.0
 11
11.25
 21
9.8
 31
0.0
  0
ARC
  5
24F
100
AcDbEntity
  8
025-CONT
100
AcDbCircle
 10
11.95
 20
9.2
 30
0.0
 40
0.6
100
AcDbArc
 50
270.0
 51
90.0
  0
LINE
  5
250
100
AcDbEntity
  8
025-CONT
100
AcDbLine
 10
11.25
 20
9.8
 30
0.0
 11
11.25
 21
8.6
 31
0.0
  0
LINE
  5
251
100
AcDbEntity
  8
025-CONT
100
AcDbLine
 10
11.25
 20
8.6
 30
0.0
 11
11.95
 21
8.6
 31
0.0
  0
LINE
  5
252
100
AcDbEntity
  8
025-CONT
100
AcDbLine
 10
11.25
 20
7.23
 30
0.0
 11
11.95
 21
7.23
 31
0.0
  0
SOLID
  5
253
100
AcDbEntity
  8
025-CONT
100
AcDbTrace
 10
20.293015
 20
7.95
 30
0.0
 11
21.237459
 21
7.95
 31
0.0
 12
20.812459
 22
9.65
 32
0.0
 13
20.812459
 23
9.65
 33
0.0
  0
LINE
  5
254
100
AcDbEntity
  8
025-CONT
100
AcDbLine
 10
20.293015
 20
7.95
 30
0.0
 11
21.237459
 21
7.95
 31
0.0
  0
LINE
  5
255
100
AcDbEntity
  8
025-CONT
100
AcDbLine
 10
21.237459
 20
7.95
 30
0.0
 11
20.812459
 21
9.65
 31
0.0
  0
LINE
  5
256
100
AcDbEntity
  8
025-CONT
100
AcDbLine
 10
20.812459
 20
9.65
 30
0.0
 11
20.293015
 21
7.95
 31
0.0
  0
LINE
  5
257
100
AcDbEntity
  8
025-CONT
100
AcDbLine
 10
23.762459
 20
9.8
 30
0.0
 11
23.212459
 21
9.8
 31
0.0
  0
LINE
  5
258
100
AcDbEntity
  8
025-CONT
100
AcDbLine
 10
23.762459
 20
11.55
 30
0.0
 11
23.762459
 21
9.8
 31
0.0
  0
LINE
  5
259
100
AcDbEntity
  8
025-CONT
100
AcDbLine
 10
18.462459
 20
11.55
 30
0.0
 11
23.762459
 21
11.55
 31
0.0
  0
LINE
  5
25A
100
AcDbEntity
  8
025-CONT
100
AcDbLine
 10
18.462459
 20
9.8
 30
0.0
 11
18.462459
 21
11.55
 31
0.0
  0
LINE
  5
25B
100
AcDbEntity
  8
025-CONT
100
AcDbLine
 10
19.062459
 20
9.8
 30
0.0
 11
18.462459
 21
9.8
 31
0.0
  0
SOLID
  5
25C
100
AcDbEntity
  8
025-CONT
100
AcDbTrace
 10
28.462459
 20
6.05
 30
0.0
 11
27.662459
 21
6.05
 31
0.0
 12
27.662459
 22
8.2
 32
0.0
 13
27.662459
 23
8.2
 33
0.0
  0
SOLID
  5
25D
100
AcDbEntity
  8
025-CONT
100
AcDbTrace
 10
30.112459
 20
4.25
 30
0.0
 11
28.462459
 21
6.05
 31
0.0
 12
27.662459
 22
8.2
 32
0.0
 13
27.662459
 23
8.2
 33
0.0
  0
SOLID
  5
25E
100
AcDbEntity
  8
025-CONT
100
AcDbTrace
 10
33.362459
 20
0.0
 30
0.0
 11
33.112459
 21
9.8
 31
0.0
 12
33.362459
 22
15.8
 32
0.0
 13
33.112459
 23
11.55
 33
0.0
  0
SOLID
  5
25F
100
AcDbEntity
  8
025-CONT
100
AcDbTrace
 10
33.362459
 20
0.0
 30
0.0
 11
32.412459
 21
4.25
 31
0.0
 12
33.112459
 22
9.8
 32
0.0
 13
32.412459
 23
9.8
 33
0.0
  0
SOLID
  5
260
100
AcDbEntity
  8
025-CONT
100
AcDbTrace
 10
37.960877
 20
6.05
 30
0.0
 11
39.460877
 21
6.05
 31
0.0
 12
37.960877
 22
7.8
 32
0.0
 13
37.960877
 23
7.8
 33
0.0
  0
SOLID
  5
261
100
AcDbEntity
  8
025-CONT
100
AcDbTrace
 10
34.460877
 20
6.05
 30
0.0
 11
34.460877
 21
9.8
 31
0.0
 12
35.160877
 22
6.05
 32
0.0
 13
35.160877
 23
9.8
 33
0.0
  0
SOLID
  5
262
100
AcDbEntity
  8
025-CONT
100
AcDbTrace
 10
34.210877
 20
0.0
 30
0.0
 11
34.460877
 21
4.25
 31
0.0
 12
34.210877
 22
15.8
 32
0.0
 13
34.460877
 23
11.55
 33
0.0
  0
LINE
  5
263
100
AcDbEntity
  8
025-CONT
100
AcDbLine
 10
37.960877
 20
7.8
 30
0.0
 11
37.960877
 21
6.05
 31
0.0
  0
LINE
  5
264
100
AcDbEntity
  8
025-CONT
100
AcDbLine
 10
39.460877
 20
6.05
 30
0.0
 11
37.960877
 21
7.8
 31
0.0
  0
LINE
  5
265
100
AcDbEntity
  8
025-CONT
100
AcDbLine
 10
35.160877
 20
6.05
 30
0.0
 11
35.160877
 21
9.8
 31
0.0
  0
LINE
  5
266
100
AcDbEntity
  8
025-CONT
100
AcDbLine
 10
34.210877
 20
0.0
 30
0.0
 11
34.210877
 21
15.8
 31
0.0
  0
LINE
  5
267
100
AcDbEntity
  8
025-CONT
100
AcDbLine
 10
33.362459
 20
0.0
 30
0.0
 11
33.362459
 21
15.8
 31
0.0
  0
LINE
  5
268
100
AcDbEntity
  8
025-CONT
100
AcDbLine
 10
27.662459
 20
8.2
 30
0.0
 11
27.662459
 21
6.05
 31
0.0
  0
LINE
  5
269
100
AcDbEntity
  8
025-CONT
100
AcDbLine
 10
30.112459
 20
4.25
 30
0.0
 11
27.662459
 21
8.2
 31
0.0
  0
LINE
  5
26A
100
AcDbEntity
  8
025-CONT
100
AcDbLine
 10
32.412459
 20
9.8
 30
0.0
 11
32.412459
 21
4.25
 31
0.0
  0
LINE
  5
26B
100
AcDbEntity
  8
025-CONT
100
AcDbLine
 10
25.962459
 20
6.05
 30
0.0
 11
25.962459
 21
9.8
 31
0.0
  0
SOLID
  5
26C
100
AcDbEntity
  8
025-CONT
100
AcDbTrace
 10
28.462459
 20
4.25
 30
0.0
 11
30.112459
 21
4.25
 31
0.0
 12
28.462459
 22
6.05
 32
0.0
 13
28.462459
 23
6.05
 33
0.0
  0
LINE
  5
26D
100
AcDbEntity
  8
025-CONT
100
AcDbLine
 10
28.462459
 20
4.25
 30
0.0
 11
25.262459
 21
4.25
 31
0.0
  0
LINE
  5
26E
100
AcDbEntity
  8
025-CONT
100
AcDbLine
 10
28.462459
 20
6.05
 30
0.0
 11
28.462459
 21
4.25
 31
0.0
  0
LINE
  5
26F
100
AcDbEntity
  8
025-CONT
100
AcDbLine
 10
27.662459
 20
6.05
 30
0.0
 11
28.462459
 21
6.05
 31
0.0
  0
LINE
  5
270
100
AcDbEntity
  8
025-CONT
100
AcDbLine
 10
32.412459
 20
4.25
 30
0.0
 11
30.112459
 21
4.25
 31
0.0
  0
LINE
  5
271
100
AcDbEntity
  8
025-CONT
100
AcDbLine
 10
25.262459
 20
6.05
 30
0.0
 11
25.962459
 21
6.05
 31
0.0
  0
LINE
  5
272
100
AcDbEntity
  8
025-CONT
100
AcDbLine
 10
25.262459
 20
4.25
 30
0.0
 11
25.262459
 21
6.05
 31
0.0
  0
SOLID
  5
273
100
AcDbEntity
  8
025-CONT
100
AcDbTrace
 10
38.660877
 20
4.25
 30
0.0
 11
38.960877
 21
4.25
 31
0.0
 12
38.660877
 22
6.05
 32
0.0
 13
38.960877
 23
6.05
 33
0.0
  0
LINE
  5
274
100
AcDbEntity
  8
025-CONT
100
AcDbLine
 10
38.660877
 20
4.25
 30
0.0
 11
34.460877
 21
4.25
 31
0.0
  0
LINE
  5
275
100
AcDbEntity
  8
025-CONT
100
AcDbLine
 10
38.660877
 20
6.05
 30
0.0
 11
38.660877
 21
4.25
 31
0.0
  0
LINE
  5
276
100
AcDbEntity
  8
025-CONT
100
AcDbLine
 10
37.960877
 20
6.05
 30
0.0
 11
38.660877
 21
6.05
 31
0.0
  0
LINE
  5
277
100
AcDbEntity
  8
025-CONT
100
AcDbLine
 10
38.960877
 20
6.05
 30
0.0
 11
39.460877
 21
6.05
 31
0.0
  0
LINE
  5
278
100
AcDbEntity
  8
025-CONT
100
AcDbLine
 10
38.960877
 20
4.25
 30
0.0
 11
38.960877
 21
6.05
 31
0.0
  0
LINE
  5
279
100
AcDbEntity
  8
025-CONT
100
AcDbLine
 10
34.460877
 20
6.05
 30
0.0
 11
35.160877
 21
6.05
 31
0.0
  0
LINE
  5
27A
100
AcDbEntity
  8
025-CONT
100
AcDbLine
 10
34.460877
 20
4.25
 30
0.0
 11
34.460877
 21
6.05
 31
0.0
  0
LINE
  5
27B
100
AcDbEntity
  8
025-CONT
100
AcDbLine
 10
34.460877
 20
4.25
 30
0.0
 11
34.460877
 21
6.05
 31
0.0
  0
LINE
  5
27C
100
AcDbEntity
  8
025-CONT
100
AcDbLine
 10
33.362459
 20
6.6
 30
0.0
 11
33.362459
 21
0.0
 31
0.0
  0
SOLID
  5
27D
100
AcDbEntity
  8
025-CONT
100
AcDbTrace
 10
30.062459
 20
9.8
 30
0.0
 11
30.062459
 21
11.55
 31
0.0
 12
28.562459
 22
11.55
 32
0.0
 13
28.562459
 23
11.55
 33
0.0
  0
SOLID
  5
27E
100
AcDbEntity
  8
025-CONT
100
AcDbTrace
 10
30.712459
 20
8.2
 30
0.0
 11
30.062459
 21
9.8
 31
0.0
 12
28.562459
 22
11.55
 32
0.0
 13
28.562459
 23
11.55
 33
0.0
  0
SOLID
  5
27F
100
AcDbEntity
  8
025-CONT
100
AcDbTrace
 10
30.062459
 20
9.8
 30
0.0
 11
30.712459
 21
8.2
 31
0.0
 12
28.562459
 22
11.55
 32
0.0
 13
30.062459
 23
9.8
 33
0.0
  0
SOLID
  5
280
100
AcDbEntity
  8
025-CONT
100
AcDbTrace
 10
30.712459
 20
9.8
 30
0.0
 11
30.712459
 21
8.2
 31
0.0
 12
30.062459
 22
9.8
 32
0.0
 13
30.712459
 23
8.2
 33
0.0
  0
LINE
  5
281
100
AcDbEntity
  8
025-CONT
100
AcDbLine
 10
33.112459
 20
9.8
 30
0.0
 11
32.412459
 21
9.8
 31
0.0
  0
LINE
  5
282
100
AcDbEntity
  8
025-CONT
100
AcDbLine
 10
33.112459
 20
11.55
 30
0.0
 11
33.112459
 21
9.8
 31
0.0
  0
LINE
  5
283
100
AcDbEntity
  8
025-CONT
100
AcDbLine
 10
33.112459
 20
11.55
 30
0.0
 11
33.112459
 21
11.55
 31
0.0
  0
LINE
  5
284
100
AcDbEntity
  8
025-CONT
100
AcDbLine
 10
30.062459
 20
11.55
 30
0.0
 11
33.112459
 21
11.55
 31
0.0
  0
LINE
  5
285
100
AcDbEntity
  8
025-CONT
100
AcDbLine
 10
30.062459
 20
9.8
 30
0.0
 11
30.062459
 21
11.55
 31
0.0
  0
LINE
  5
286
100
AcDbEntity
  8
025-CONT
100
AcDbLine
 10
30.712459
 20
9.8
 30
0.0
 11
30.062459
 21
9.8
 31
0.0
  0
LINE
  5
287
100
AcDbEntity
  8
025-CONT
100
AcDbLine
 10
30.712459
 20
8.2
 30
0.0
 11
30.712459
 21
9.8
 31
0.0
  0
LINE
  5
288
100
AcDbEntity
  8
025-CONT
100
AcDbLine
 10
28.562459
 20
11.55
 30
0.0
 11
30.712459
 21
8.2
 31
0.0
  0
LINE
  5
289
100
AcDbEntity
  8
025-CONT
100
AcDbLine
 10
25.262459
 20
11.55
 30
0.0
 11
28.562459
 21
11.55
 31
0.0
  0
LINE
  5
28A
100
AcDbEntity
  8
025-CONT
100
AcDbLine
 10
25.262459
 20
9.8
 30
0.0
 11
25.262459
 21
11.55
 31
0.0
  0
LINE
  5
28B
100
AcDbEntity
  8
025-CONT
100
AcDbLine
 10
25.962459
 20
9.8
 30
0.0
 11
25.262459
 21
9.8
 31
0.0
  0
SOLID
  5
28C
100
AcDbEntity
  8
025-CONT
100
AcDbTrace
 10
38.660877
 20
9.8
 30
0.0
 11
38.960877
 21
9.8
 31
0.0
 12
38.660877
 22
11.55
 32
0.0
 13
38.960877
 23
11.55
 33
0.0
  0
SOLID
  5
28D
100
AcDbEntity
  8
025-CONT
100
AcDbTrace
 10
37.960877
 20
8.45
 30
0.0
 11
37.960877
 21
9.8
 31
0.0
 12
39.360877
 22
9.8
 32
0.0
 13
39.360877
 23
9.8
 33
0.0
  0
LINE
  5
28E
100
AcDbEntity
  8
025-CONT
100
AcDbLine
 10
38.960877
 20
9.8
 30
0.0
 11
38.960877
 21
11.55
 31
0.0
  0
LINE
  5
28F
100
AcDbEntity
  8
025-CONT
100
AcDbLine
 10
39.360877
 20
9.8
 30
0.0
 11
38.960877
 21
9.8
 31
0.0
  0
LINE
  5
290
100
AcDbEntity
  8
025-CONT
100
AcDbLine
 10
37.960877
 20
8.45
 30
0.0
 11
39.360877
 21
9.8
 31
0.0
  0
LINE
  5
291
100
AcDbEntity
  8
025-CONT
100
AcDbLine
 10
37.960877
 20
9.8
 30
0.0
 11
37.960877
 21
8.45
 31
0.0
  0
LINE
  5
292
100
AcDbEntity
  8
025-CONT
100
AcDbLine
 10
38.660877
 20
9.8
 30
0.0
 11
37.960877
 21
9.8
 31
0.0
  0
LINE
  5
293
100
AcDbEntity
  8
025-CONT
100
AcDbLine
 10
38.660877
 20
11.55
 30
0.0
 11
38.660877
 21
9.8
 31
0.0
  0
LINE
  5
294
100
AcDbEntity
  8
025-CONT
100
AcDbLine
 10
34.460877
 20
11.55
 30
0.0
 11
38.660877
 21
11.55
 31
0.0
  0
LINE
  5
295
100
AcDbEntity
  8
025-CONT
100
AcDbLine
 10
34.460877
 20
9.8
 30
0.0
 11
34.460877
 21
11.55
 31
0.0
  0
LINE
  5
296
100
AcDbEntity
  8
025-CONT
100
AcDbLine
 10
35.160877
 20
9.8
 30
0.0
 11
34.460877
 21
9.8
 31
0.0
  0
SOLID
  5
297
100
AcDbEntity
  8
025-CONT
100
AcDbTrace
 10
48.090877
 20
7.23
 30
0.0
 11
49.810877
 21
6.85
 31
0.0
 12
48.090877
 22
8.75
 32
0.0
 13
49.810877
 23
9.13
 33
0.0
  0
SOLID
  5
298
100
AcDbEntity
  8
025-CONT
100
AcDbTrace
 10
46.760877
 20
7.23
 30
0.0
 11
48.090877
 21
6.85
 31
0.0
 12
48.090877
 22
7.23
 32
0.0
 13
49.810877
 23
6.85
 33
0.0
  0
SOLID
  5
299
100
AcDbEntity
  8
025-CONT
100
AcDbTrace
 10
46.760877
 20
6.05
 30
0.0
 11
48.090877
 21
6.05
 31
0.0
 12
46.760877
 22
7.23
 32
0.0
 13
48.090877
 23
6.85
 33
0.0
  0
SOLID
  5
29A
100
AcDbEntity
  8
025-CONT
100
AcDbTrace
 10
42.860877
 20
6.05
 30
0.0
 11
42.460877
 21
9.8
 31
0.0
 12
42.260877
 22
6.05
 32
0.0
 13
41.660877
 23
9.8
 33
0.0
  0
SOLID
  5
29B
100
AcDbEntity
  8
025-CONT
100
AcDbTrace
 10
43.160877
 20
11.55
 30
0.0
 11
42.860877
 21
6.05
 31
0.0
 12
42.460877
 22
11.55
 32
0.0
 13
42.460877
 23
9.8
 33
0.0
  0
SOLID
  5
29C
100
AcDbEntity
  8
025-CONT
100
AcDbTrace
 10
43.160877
 20
4.25
 30
0.0
 11
43.160877
 21
11.55
 31
0.0
 12
42.860877
 22
4.25
 32
0.0
 13
42.860877
 23
6.05
 33
0.0
  0
SOLID
  5
29D
100
AcDbEntity
  8
025-CONT
100
AcDbTrace
 10
43.860877
 20
6.05
 30
0.0
 11
43.860877
 21
9.8
 31
0.0
 12
43.160877
 22
6.05
 32
0.0
 13
43.160877
 23
9.8
 33
0.0
  0
SOLID
  5
29E
100
AcDbEntity
  8
025-CONT
100
AcDbTrace
 10
49.810877
 20
4.25
 30
0.0
 11
50.510877
 21
0.0
 31
0.0
 12
50.510877
 22
15.8
 32
0.0
 13
50.510877
 23
15.8
 33
0.0
  0
LINE
  5
29F
100
AcDbEntity
  8
025-CONT
100
AcDbLine
 10
50.510877
 20
15.8
 30
0.0
 11
50.510877
 21
0.0
 31
0.0
  0
LINE
  5
2A0
100
AcDbEntity
  8
025-CONT
100
AcDbLine
 10
50.510877
 20
4.25
 30
0.0
 11
50.510877
 21
12.5
 31
0.0
  0
LINE
  5
2A1
100
AcDbEntity
  8
025-CONT
100
AcDbLine
 10
46.760877
 20
6.05
 30
0.0
 11
46.760877
 21
7.23
 31
0.0
  0
LINE
  5
2A2
100
AcDbEntity
  8
025-CONT
100
AcDbLine
 10
43.860877
 20
6.05
 30
0.0
 11
43.860877
 21
9.8
 31
0.0
  0
LINE
  5
2A3
100
AcDbEntity
  8
025-CONT
100
AcDbLine
 10
49.810877
 20
6.85
 30
0.0
 11
48.090877
 21
6.85
 31
0.0
  0
LINE
  5
2A4
100
AcDbEntity
  8
025-CONT
100
AcDbLine
 10
43.160877
 20
4.25
 30
0.0
 11
49.810877
 21
4.25
 31
0.0
  0
LINE
  5
2A5
100
AcDbEntity
  8
025-CONT
100
AcDbLine
 10
48.090877
 20
6.05
 30
0.0
 11
46.760877
 21
6.05
 31
0.0
  0
LINE
  5
2A6
100
AcDbEntity
  8
025-CONT
100
AcDbLine
 10
48.090877
 20
6.85
 30
0.0
 11
48.090877
 21
6.05
 31
0.0
  0
LINE
  5
2A7
100
AcDbEntity
  8
025-CONT
100
AcDbLine
 10
43.160877
 20
6.05
 30
0.0
 11
43.860877
 21
6.05
 31
0.0
  0
LINE
  5
2A8
100
AcDbEntity
  8
025-CONT
100
AcDbLine
 10
43.160877
 20
4.25
 30
0.0
 11
43.160877
 21
6.05
 31
0.0
  0
LINE
  5
2A9
100
AcDbEntity
  8
025-CONT
100
AcDbLine
 10
42.860877
 20
6.05
 30
0.0
 11
42.860877
 21
4.25
 31
0.0
  0
LINE
  5
2AA
100
AcDbEntity
  8
025-CONT
100
AcDbLine
 10
42.260877
 20
6.05
 30
0.0
 11
42.860877
 21
6.05
 31
0.0
  0
LINE
  5
2AB
100
AcDbEntity
  8
025-CONT
100
AcDbLine
 10
49.810877
 20
4.25
 30
0.0
 11
49.810877
 21
6.85
 31
0.0
  0
SOLID
  5
2AC
100
AcDbEntity
  8
025-CONT
100
AcDbTrace
 10
48.090877
 20
8.75
 30
0.0
 11
49.810877
 21
9.13
 31
0.0
 12
46.760877
 22
8.75
 32
0.0
 13
48.090877
 23
9.13
 33
0.0
  0
LINE
  5
2AD
100
AcDbEntity
  8
025-CONT
100
AcDbLine
 10
48.090877
 20
9.13
 30
0.0
 11
49.810877
 21
9.13
 31
0.0
  0
LINE
  5
2AE
100
AcDbEntity
  8
025-CONT
100
AcDbLine
 10
43.160877
 20
11.55
 30
0.0
 11
49.810877
 21
11.55
 31
0.0
  0
SOLID
  5
2AF
100
AcDbEntity
  8
025-CONT
100
AcDbTrace
 10
46.760877
 20
8.75
 30
0.0
 11
48.090877
 21
9.13
 31
0.0
 12
46.760877
 22
9.8
 32
0.0
 13
48.090877
 23
9.8
 33
0.0
  0
LINE
  5
2B0
100
AcDbEntity
  8
025-CONT
100
AcDbLine
 10
48.090877
 20
9.13
 30
0.0
 11
48.090877
 21
9.8
 31
0.0
  0
LINE
  5
2B1
100
AcDbEntity
  8
025-CONT
100
AcDbLine
 10
46.760877
 20
7.23
 30
0.0
 11
48.090877
 21
7.23
 31
0.0
  0
LINE
  5
2B2
100
AcDbEntity
  8
025-CONT
100
AcDbLine
 10
48.090877
 20
7.23
 30
0.0
 11
48.090877
 21
8.75
 31
0.0
  0
LINE
  5
2B3
100
AcDbEntity
  8
025-CONT
100
AcDbLine
 10
48.090877
 20
8.75
 30
0.0
 11
46.760877
 21
8.75
 31
0.0
  0
LINE
  5
2B4
100
AcDbEntity
  8
025-CONT
100
AcDbLine
 10
46.760877
 20
8.75
 30
0.0
 11
46.760877
 21
9.8
 31
0.0
  0
LINE
  5
2B5
100
AcDbEntity
  8
025-CONT
100
AcDbLine
 10
46.760877
 20
9.8
 30
0.0
 11
48.090877
 21
9.8
 31
0.0
  0
LINE
  5
2B6
100
AcDbEntity
  8
025-CONT
100
AcDbLine
 10
43.160877
 20
9.8
 30
0.0
 11
43.160877
 21
11.55
 31
0.0
  0
LINE
  5
2B7
100
AcDbEntity
  8
025-CONT
100
AcDbLine
 10
43.860877
 20
9.8
 30
0.0
 11
43.160877
 21
9.8
 31
0.0
  0
LINE
  5
2B8
100
AcDbEntity
  8
025-CONT
100
AcDbLine
 10
42.460877
 20
9.8
 30
0.0
 11
41.660877
 21
9.8
 31
0.0
  0
LINE
  5
2B9
100
AcDbEntity
  8
025-CONT
100
AcDbLine
 10
42.460877
 20
11.55
 30
0.0
 11
42.460877
 21
9.8
 31
0.0
  0
LINE
  5
2BA
100
AcDbEntity
  8
025-CONT
100
AcDbLine
 10
50.510877
 20
12.5
 30
0.0
 11
50.510877
 21
15.8
 31
0.0
  0
LINE
  5
2BB
100
AcDbEntity
  8
025-CONT
100
AcDbLine
 10
49.810877
 20
9.13
 30
0.0
 11
49.810877
 21
11.55
 31
0.0
  0
ENDBLK
  5
2BD
100
AcDbEntity
  8
0
100
AcDbBlockEnd
  0
BLOCK
  5
349
100
AcDbEntity
  8
0
100
AcDbBlockBegin
  2
AMW_TITLE
 70
     2
 10
0.0
 20
0.0
 30
0.0
  3
AMW_TITLE
  1

  0
LINE
  5
2E1
100
AcDbEntity
  8
RAHMEN
 62
     1
100
AcDbLine
 10
198.0
 20
285.0
 30
0.0
 11
0.0
 21
285.0
 31
0.0
  0
LINE
  5
2E2
100
AcDbEntity
  8
RAHMEN
 62
     1
100
AcDbLine
 10
198.0
 20
0.0
 30
0.0
 11
198.0
 21
285.0
 31
0.0
  0
LINE
  5
2E3
100
AcDbEntity
  8
RAHMEN
 62
     1
100
AcDbLine
 10
0.0
 20
285.0
 30
0.0
 11
0.0
 21
0.0
 31
0.0
  0
LINE
  5
2E4
100
AcDbEntity
  8
RAHMEN
 62
     1
100
AcDbLine
 10
0.0
 20
0.0
 30
0.0
 11
198.0
 21
0.0
 31
0.0
  0
ATTDEF
  5
2E5
100
AcDbEntity
  8
RAHMEN
 62
     1
100
AcDbText
 10
98.034048
 20
2.981002
 30
0.0
 40
7.0
  1

 41
0.8
 72
     2
 11
144.434048
 21
2.981002
 31
0.0
100
AcDbAttributeDefinition
  3
FORMAT:
  2
TITLESHEET
 70
     0
  0
LINE
  5
2E6
100
AcDbEntity
  8
RAHMEN
 62
     1
100
AcDbLine
 10
30.0
 20
50.0
 30
0.0
 11
150.0
 21
50.0
 31
0.0
  0
LINE
  5
2E7
100
AcDbEntity
  8
RAHMEN
 62
     1
100
AcDbLine
 10
198.0
 20
62.0
 30
0.0
 11
18.0
 21
62.0
 31
0.0
  0
LINE
  5
2E8
100
AcDbEntity
  8
RAHMEN
 62
     1
100
AcDbLine
 10
198.0
 20
15.0
 30
0.0
 11
30.0
 21
15.0
 31
0.0
  0
LINE
  5
2E9
100
AcDbEntity
  8
RAHMEN
 62
     3
100
AcDbLine
 10
30.0
 20
35.0
 30
0.0
 11
198.0
 21
35.0
 31
0.0
  0
LINE
  5
2EA
100
AcDbEntity
  8
RAHMEN
 62
     3
100
AcDbLine
 10
18.0
 20
68.0
 30
0.0
 11
198.0
 21
68.0
 31
0.0
  0
ATTDEF
  5
2EB
100
AcDbEntity
  8
RAHMEN
 62
     1
100
AcDbText
 10
34.76026
 20
39.011724
 30
0.0
 40
6.0
  1

 41
0.8
  7
NORM
100
AcDbAttributeDefinition
  3
SORTIMENT:
  2
BESCHR1
 70
     0
  0
ATTDEF
  5
2EC
100
AcDbEntity
  8
RAHMEN
 62
     1
100
AcDbText
 10
34.183454
 20
24.883345
 30
0.0
 40
7.0
  1

 41
0.8
100
AcDbAttributeDefinition
  3
ZEICHNUNGS-NAME:
  2
ZEICHNU_NA
 70
     0
  0
ATTDEF
  5
2ED
100
AcDbEntity
  8
RAHMEN
 62
     3
100
AcDbText
 10
34.280391
 20
17.15916
 30
0.0
 40
4.0
  1

 41
0.8
100
AcDbAttributeDefinition
  3
ZUSATZ TEXT:R.
  2
BESCHR2
 70
     0
  0
TEXT
  5
2EE
100
AcDbEntity
  8
RAHMEN
 62
     4
100
AcDbText
 10
32.087437
 20
63.969726
 30
0.0
 40
2.0
  1
Gegenstand
 41
0.9
  7
ISO-NORM
100
AcDbText
  0
TEXT
  5
2EF
100
AcDbEntity
  8
RAHMEN
 62
     4
100
AcDbText
 10
32.087437
 20
58.110932
 30
0.0
 40
2.0
  1
Änderung
 41
0.9
  7
ISO-NORM
100
AcDbText
  0
LINE
  5
2F0
100
AcDbEntity
  8
RAHMEN
 62
     1
100
AcDbLine
 10
30.0
 20
0.0
 30
0.0
 11
30.0
 21
68.0
 31
0.0
  0
LINE
  5
2F1
100
AcDbEntity
  8
RAHMEN
 62
     3
100
AcDbLine
 10
18.0
 20
68.0
 30
0.0
 11
18.0
 21
0.0
 31
0.0
  0
LINE
  5
2F2
100
AcDbEntity
  8
RAHMEN
 62
     3
100
AcDbLine
 10
24.0
 20
62.0
 30
0.0
 11
24.0
 21
0.0
 31
0.0
  0
ATTDEF
  5
2F3
100
AcDbEntity
  8
RAHMEN
 62
     3
100
AcDbText
 10
28.714253
 20
1.384573
 30
0.0
 40
3.5
  1

 50
90.0
 41
0.8
100
AcDbAttributeDefinition
  3
ARTIKEL NUMMER
  2
ART-NR
 70
     0
  0
LINE
  5
2F4
100
AcDbEntity
  8
RAHMEN
 62
     3
100
AcDbLine
 10
18.0
 20
56.0
 30
0.0
 11
30.0
 21
56.0
 31
0.0
  0
TEXT
  5
2F5
100
AcDbEntity
  8
RAHMEN
 62
     4
100
AcDbText
 10
18.31523
 20
64.013046
 30
0.0
 40
2.0
  1
Stückzahl
 41
0.8
  7
ISO-NORM
100
AcDbText
  0
TEXT
  5
2F6
100
AcDbEntity
  8
RAHMEN
 62
     4
100
AcDbText
 10
20.178211
 20
58.012832
 30
0.0
 40
2.0
  1
2
 41
0.9
  7
ISO-NORM
100
AcDbText
  0
TEXT
  5
2F7
100
AcDbEntity
  8
RAHMEN
 62
     4
100
AcDbText
 10
26.321361
 20
58.05903
 30
0.0
 40
2.0
  1
1
 41
0.9
  7
ISO-NORM
100
AcDbText
  0
ATTDEF
  5
2F8
100
AcDbEntity
  8
RAHMEN
 62
     4
100
AcDbText
 10
52.234106
 20
54.44498
 30
0.0
 40
2.0
  1

 41
0.8
100
AcDbAttributeDefinition
  3
ÄNDERUNGS BESCHR.2:
  2
AEND_BES2
 70
     0
  0
ATTDEF
  5
2F9
100
AcDbEntity
  8
RAHMEN
 62
     4
100
AcDbText
 10
52.234106
 20
51.064591
 30
0.0
 40
2.0
  1

 41
0.8
100
AcDbAttributeDefinition
  3
ÄNDERUNGS BESCHR.3:
  2
AEND_BES3
 70
     0
  0
ATTDEF
  5
2FA
100
AcDbEntity
  8
RAHMEN
 62
     4
100
AcDbText
 10
52.234106
 20
57.941936
 30
0.0
 40
2.0
  1

 41
0.8
100
AcDbAttributeDefinition
  3
ÄNDERUNGS BESCHR.1:
  2
AEND_BES1
 70
     0
  0
LINE
  5
2FB
100
AcDbEntity
  8
RAHMEN
 62
     3
100
AcDbLine
 10
103.34
 20
62.0
 30
0.0
 11
103.34
 21
68.0
 31
0.0
  0
ATTDEF
  5
2FC
100
AcDbEntity
  8
RAHMEN
 62
     1
100
AcDbText
 10
153.582385
 20
2.969943
 30
0.0
 40
7.0
  1

 41
0.8
100
AcDbAttributeDefinition
  3
ZEICHNUNGS-NR.
  2
ZEICHNU_NR
 70
     0
  0
LINE
  5
2FD
100
AcDbEntity
  8
RAHMEN
 62
     3
100
AcDbLine
 10
150.0
 20
30.0
 30
0.0
 11
198.0
 21
30.0
 31
0.0
  0
LINE
  5
2FE
100
AcDbEntity
  8
RAHMEN
 62
     3
100
AcDbLine
 10
150.0
 20
25.0
 30
0.0
 11
198.0
 21
25.0
 31
0.0
  0
LINE
  5
2FF
100
AcDbEntity
  8
RAHMEN
 62
     3
100
AcDbLine
 10
150.0
 20
20.0
 30
0.0
 11
198.0
 21
20.0
 31
0.0
  0
LINE
  5
300
100
AcDbEntity
  8
RAHMEN
 62
     3
100
AcDbLine
 10
150.0
 20
44.0
 30
0.0
 11
198.0
 21
44.0
 31
0.0
  0
LINE
  5
301
100
AcDbEntity
  8
RAHMEN
 62
     3
100
AcDbLine
 10
150.0
 20
53.0
 30
0.0
 11
198.0
 21
53.0
 31
0.0
  0
ATTDEF
  5
302
100
AcDbEntity
  8
RAHMEN
 62
     4
100
AcDbText
 10
167.985836
 20
16.373464
 30
0.0
 40
2.0
  1

 41
0.8
100
AcDbAttributeDefinition
  3
gesehen am:
  2
GES_DAT
 70
     0
  0
ATTDEF
  5
303
100
AcDbEntity
  8
RAHMEN
 62
     4
100
AcDbText
 10
167.985836
 20
26.536029
 30
0.0
 40
2.0
  1

 41
0.8
100
AcDbAttributeDefinition
  3
geprüft am:
  2
PRUEF_DAT
 70
     0
  0
ATTDEF
  5
304
100
AcDbEntity
  8
RAHMEN
 62
     4
100
AcDbText
 10
167.985836
 20
31.491569
 30
0.0
 40
2.0
  1

 41
0.8
100
AcDbAttributeDefinition
  3
DATUM:
  2
ERST_DAT
 70
     0
  0
ATTDEF
  5
305
100
AcDbEntity
  8
RAHMEN
 62
     4
100
AcDbText
 10
167.051795
 20
35.945168
 30
0.0
 40
2.5
  1

 41
0.8
100
AcDbAttributeDefinition
  3
ERSETZT DURCH:
  2
ERSETZT
 70
     0
  0
ATTDEF
  5
306
100
AcDbEntity
  8
RAHMEN
 62
     4
100
AcDbText
 10
167.051795
 20
45.64252
 30
0.0
 40
2.5
  1

 41
0.8
100
AcDbAttributeDefinition
  3
ERSATZ FÜR:
  2
ERSATZ
 70
     0
  0
ATTDEF
  5
307
100
AcDbEntity
  8
RAHMEN
 62
     4
100
AcDbText
 10
167.051795
 20
53.975061
 30
0.0
 40
2.5
  1

 41
0.8
100
AcDbAttributeDefinition
  3
URSPRUNGSBEZ:
  2
URBEZ
 70
     0
  0
TEXT
  5
308
100
AcDbEntity
  8
RAHMEN
 62
     4
100
AcDbText
 10
151.159277
 20
58.824453
 30
0.0
 40
2.0
  1
Ursprungsbezeichnung
 41
0.9
  7
ISO-NORM
100
AcDbText
  0
TEXT
  5
309
100
AcDbEntity
  8
RAHMEN
 62
     4
100
AcDbText
 10
165.097958
 20
63.969726
 30
0.0
 40
2.0
  1
Zchg-Nr. Bemerkung
 41
0.9
  7
ISO-NORM
100
AcDbText
  0
LINE
  5
30A
100
AcDbEntity
  8
RAHMEN
 62
     1
100
AcDbLine
 10
150.0
 20
15.0
 30
0.0
 11
150.0
 21
62.0
 31
0.0
  0
LINE
  5
30B
100
AcDbEntity
  8
RAHMEN
 62
     3
100
AcDbLine
 10
150.0
 20
21.0
 30
0.0
 11
134.0
 21
21.0
 31
0.0
  0
LINE
  5
30C
100
AcDbEntity
  8
RAHMEN
  6
CENTER
 62
     4
100
AcDbLine
 10
135.288514
 20
18.0
 30
0.0
 11
147.360508
 21
18.0
 31
0.0
  0
LINE
  5
30D
100
AcDbEntity
  8
RAHMEN
 62
     3
100
AcDbLine
 10
136.62801
 20
18.9
 30
0.0
 11
140.646496
 21
19.8
 31
0.0
  0
LINE
  5
30E
100
AcDbEntity
  8
RAHMEN
 62
     3
100
AcDbLine
 10
140.646496
 20
16.2
 30
0.0
 11
136.62801
 21
17.1
 31
0.0
  0
TEXT
  5
30F
100
AcDbEntity
  8
RAHMEN
 62
     4
100
AcDbText
 10
135.870607
 20
38.046443
 30
0.0
 40
2.0
  1
separat
 41
0.9
  7
ISO-NORM
100
AcDbText
  0
TEXT
  5
310
100
AcDbEntity
  8
RAHMEN
 62
     4
100
AcDbText
 10
135.870607
 20
41.475015
 30
0.0
 40
2.0
  1
Stückliste
 41
0.9
  7
ISO-NORM
100
AcDbText
  0
TEXT
  5
311
100
AcDbEntity
  8
RAHMEN
 62
     4
100
AcDbText
 10
135.870607
 20
44.903586
 30
0.0
 40
2.0
  1
Keine
 41
0.9
  7
ISO-NORM
100
AcDbText
  0
TEXT
  5
312
100
AcDbEntity
  8
RAHMEN
 62
     4
100
AcDbText
 10
135.797786
 20
31.100189
 30
0.0
 40
2.0
  1
Massstab
 41
0.9
  7
ISO-NORM
100
AcDbText
  0
LINE
  5
313
100
AcDbEntity
  8
RAHMEN
 62
     1
100
AcDbLine
 10
134.0
 20
0.0
 30
0.0
 11
134.0
 21
50.0
 31
0.0
  0
LINE
  5
314
100
AcDbEntity
  8
RAHMEN
 62
     3
100
AcDbLine
 10
136.62801
 20
18.9
 30
0.0
 11
136.62801
 21
17.1
 31
0.0
  0
TEXT
  5
315
100
AcDbEntity
  8
RAHMEN
 62
     1
100
AcDbText
 10
147.086531
 20
3.181105
 30
0.0
 40
7.0
  1
-
 41
0.8
100
AcDbText
  0
TEXT
  5
316
100
AcDbEntity
  8
RAHMEN
 62
     4
100
AcDbText
 10
151.159277
 20
31.567803
 30
0.0
 40
2.0
  1
Gezeichnet
 41
0.9
  7
ISO-NORM
100
AcDbText
  0
TEXT
  5
317
100
AcDbEntity
  8
RAHMEN
 62
     4
100
AcDbText
 10
151.159277
 20
26.594455
 30
0.0
 40
2.0
  1
Geprüft
 41
0.9
  7
ISO-NORM
100
AcDbText
  0
TEXT
  5
318
100
AcDbEntity
  8
RAHMEN
 62
     4
100
AcDbText
 10
151.159277
 20
16.365607
 30
0.0
 40
2.0
  1
Gesehen
 41
0.9
  7
ISO-NORM
100
AcDbText
  0
TEXT
  5
319
100
AcDbEntity
  8
RAHMEN
 62
     4
100
AcDbText
 10
151.159277
 20
40.817504
 30
0.0
 40
2.0
  1
Ersetzt durch
 41
0.9
  7
ISO-NORM
100
AcDbText
  0
TEXT
  5
31A
100
AcDbEntity
  8
RAHMEN
 62
     4
100
AcDbText
 10
151.159277
 20
49.906726
 30
0.0
 40
2.0
  1
Ersatz für
 41
0.9
  7
ISO-NORM
100
AcDbText
  0
CIRCLE
  5
31B
100
AcDbEntity
  8
RAHMEN
 62
     3
100
AcDbCircle
 10
145.271943
 20
18.0
 30
0.0
 40
1.8
  0
CIRCLE
  5
31C
100
AcDbEntity
  8
RAHMEN
 62
     3
100
AcDbCircle
 10
145.271943
 20
18.0
 30
0.0
 40
0.9
  0
ATTDEF
  5
31D
100
AcDbEntity
  8
RAHMEN
 62
     4
100
AcDbText
 10
138.156305
 20
23.918399
 30
0.0
 40
2.0
  1

 41
0.8
100
AcDbAttributeDefinition
  3
MASSSTAB DETAIL:
  2
SCALE2
 70
     0
  0
LINE
  5
31E
100
AcDbEntity
  8
RAHMEN
 62
     3
100
AcDbLine
 10
140.646496
 20
19.8
 30
0.0
 11
140.646496
 21
16.2
 31
0.0
  0
LINE
  5
31F
100
AcDbEntity
  8
RAHMEN
  6
CENTER
 62
     4
100
AcDbLine
 10
145.271943
 20
20.088565
 30
0.0
 11
145.271943
 21
15.911435
 31
0.0
  0
ATTDEF
  5
320
100
AcDbEntity
  8
RAHMEN
 62
     4
100
AcDbText
 10
138.156305
 20
27.242743
 30
0.0
 40
2.0
  1

 41
0.8
100
AcDbAttributeDefinition
  3
MASSSTAB:
  2
SCALE
 70
     0
  0
LINE
  5
321
100
AcDbEntity
  8
RAHMEN
 62
     3
100
AcDbLine
 10
166.0
 20
15.0
 30
0.0
 11
166.0
 21
35.0
 31
0.0
  0
TEXT
  5
322
100
AcDbEntity
  8
RAHMEN
 62
     4
100
AcDbText
 10
136.660254
 20
64.090506
 30
0.0
 40
2.0
  1
Grp.
 41
0.9
  7
ISO-NORM
100
AcDbText
  0
TEXT
  5
323
100
AcDbEntity
  8
RAHMEN
 62
     4
100
AcDbText
 10
113.270971
 20
64.090506
 30
0.0
 40
2.0
  1
Werkstoff
 41
0.9
  7
ISO-NORM
100
AcDbText
  0
LINE
  5
324
100
AcDbEntity
  8
RAHMEN
 62
     3
100
AcDbLine
 10
111.34
 20
62.0
 30
0.0
 11
111.34
 21
68.0
 31
0.0
  0
TEXT
  5
325
100
AcDbEntity
  8
RAHMEN
 62
     4
100
AcDbText
 10
104.997098
 20
64.090506
 30
0.0
 40
2.0
  1
Pos.
 41
0.9
  7
ISO-NORM
100
AcDbText
  0
LINE
  5
326
100
AcDbEntity
  8
RAHMEN
 62
     3
100
AcDbLine
 10
135.34
 20
62.0
 30
0.0
 11
135.34
 21
68.0
 31
0.0
  0
TEXT
  5
327
100
AcDbEntity
  8
RAHMEN
 62
     4
100
AcDbText
 10
145.647736
 20
63.969726
 30
0.0
 40
2.0
  1
Artikel-Nr.
 41
0.9
  7
ISO-NORM
100
AcDbText
  0
LINE
  5
328
100
AcDbEntity
  8
RAHMEN
 62
     3
100
AcDbLine
 10
143.34
 20
62.0
 30
0.0
 11
143.34
 21
68.0
 31
0.0
  0
LINE
  5
329
100
AcDbEntity
  8
RAHMEN
 62
     3
100
AcDbLine
 10
163.34
 20
62.0
 30
0.0
 11
163.34
 21
68.0
 31
0.0
  0
ATTDEF
  5
32A
100
AcDbEntity
  8
RAHMEN
 62
     4
100
AcDbText
 10
183.864559
 20
16.373464
 30
0.0
 40
2.0
  1

 41
0.8
100
AcDbAttributeDefinition
  3
VISUM GESEHEN:
  2
GESVIS
 70
     0
  0
ATTDEF
  5
32B
100
AcDbEntity
  8
RAHMEN
 62
     4
100
AcDbText
 10
183.864559
 20
26.536029
 30
0.0
 40
2.0
  1

 41
0.8
100
AcDbAttributeDefinition
  3
PRÜFUNGSVISUM:
  2
PRUEFVIS
 70
     0
  0
ATTDEF
  5
32C
100
AcDbEntity
  8
RAHMEN
 62
     4
100
AcDbText
 10
183.864559
 20
31.491569
 30
0.0
 40
2.0
  1

 41
0.8
100
AcDbAttributeDefinition
  3
ZEICHNER:
  2
ZEICHNER
 70
     0
  0
LINE
  5
32D
100
AcDbEntity
  8
RAHMEN
 62
     3
100
AcDbLine
 10
182.0
 20
15.0
 30
0.0
 11
182.0
 21
35.0
 31
0.0
  0
TEXT
  5
32E
100
AcDbEntity
  8
025-CONT
100
AcDbText
 10
39.937608
 20
5.006244
 30
0.0
 40
1.457775
  1
Telefax 062 787 30 18
 41
0.9
  7
ISO-NORM
100
AcDbText
  0
TEXT
  5
32F
100
AcDbEntity
  8
025-CONT
100
AcDbText
 10
39.937608
 20
7.445603
 30
0.0
 40
1.457775
  1
Telefon 062 787 31 31
 41
0.9
  7
ISO-NORM
100
AcDbText
  0
TEXT
  5
330
100
AcDbEntity
  8
025-CONT
100
AcDbText
 10
42.604412
 20
1.376853
 30
0.0
 40
1.457775
  1
Technik
 41
0.9
  7
ISO-NORM
100
AcDbText
  0
LINE
  5
331
100
AcDbEntity
  8
025-CONT
100
AcDbLine
 10
41.737108
 20
2.861149
 30
0.0
 11
40.279333
 21
2.861149
 31
0.0
  0
LINE
  5
332
100
AcDbEntity
  8
025-CONT
100
AcDbLine
 10
40.279333
 20
1.847701
 30
0.0
 11
41.737108
 21
1.847701
 31
0.0
  0
SOLID
  5
333
100
AcDbEntity
  8
025-CONT
100
AcDbTrace
 10
40.279333
 20
1.403374
 30
0.0
 11
41.737108
 21
1.403374
 31
0.0
 12
40.279333
 22
2.861149
 32
0.0
 13
41.737108
 23
2.861149
 33
0.0
  0
LINE
  5
334
100
AcDbEntity
  8
025-CONT
100
AcDbLine
 10
40.279333
 20
2.861149
 30
0.0
 11
40.279333
 21
1.403374
 31
0.0
  0
LINE
  5
335
100
AcDbEntity
  8
025-CONT
100
AcDbLine
 10
41.737108
 20
1.403374
 30
0.0
 11
41.737108
 21
2.861149
 31
0.0
  0
LINE
  5
336
100
AcDbEntity
  8
025-CONT
100
AcDbLine
 10
69.867379
 20
1.401658
 30
0.0
 11
69.867379
 21
2.859433
 31
0.0
  0
LINE
  5
337
100
AcDbEntity
  8
025-CONT
100
AcDbLine
 10
68.409604
 20
2.859433
 30
0.0
 11
68.409604
 21
1.401658
 31
0.0
  0
LINE
  5
338
100
AcDbEntity
  8
025-CONT
100
AcDbLine
 10
69.867379
 20
2.859433
 30
0.0
 11
68.409604
 21
2.859433
 31
0.0
  0
LINE
  5
339
100
AcDbEntity
  8
025-CONT
100
AcDbLine
 10
68.409604
 20
1.845984
 30
0.0
 11
69.867379
 21
1.845984
 31
0.0
  0
SOLID
  5
33A
100
AcDbEntity
  8
025-CONT
100
AcDbTrace
 10
68.409604
 20
1.401658
 30
0.0
 11
69.867379
 21
1.401658
 31
0.0
 12
68.409604
 22
2.859433
 32
0.0
 13
69.867379
 23
2.859433
 33
0.0
  0
TEXT
  5
33B
100
AcDbEntity
  8
025-CONT
100
AcDbText
 10
40.099922
 20
9.944646
 30
0.0
 40
1.457775
  1
CH-4663 Aarburg/Schweiz
 41
0.9
  7
ISO-NORM
100
AcDbText
  0
TEXT
  5
33C
100
AcDbEntity
  8
025-CONT
100
AcDbText
 10
40.221657
 20
12.443689
 30
0.0
 40
1.457775
  1
Franke AG
 41
0.9
  7
ISO-NORM
100
AcDbText
  0
TEXT
  5
33D
100
AcDbEntity
  8
025-CONT
100
AcDbText
 10
95.981131
 20
12.448781
 30
0.0
 40
1.457775
  1
Spültische
 41
0.9
  7
ISO-NORM
100
AcDbText
  0
TEXT
  5
33E
100
AcDbEntity
  8
025-CONT
100
AcDbText
 10
96.102865
 20
7.450696
 30
0.0
 40
1.457775
  1
Industrie+Metallbau
 41
0.9
  7
ISO-NORM
100
AcDbText
  0
TEXT
  5
33F
100
AcDbEntity
  8
025-CONT
100
AcDbText
 10
96.102865
 20
4.951653
 30
0.0
 40
1.457775
  1
Badezimmermöbel
 41
0.9
  7
ISO-NORM
100
AcDbText
  0
TEXT
  5
340
100
AcDbEntity
  8
025-CONT
100
AcDbText
 10
95.960374
 20
9.949738
 30
0.0
 40
1.457775
  1
Verpflegungs+Getränketechnik
 41
0.9
  7
ISO-NORM
100
AcDbText
  0
TEXT
  5
341
100
AcDbEntity
  8
025-CONT
100
AcDbText
 10
71.145609
 20
1.407706
 30
0.0
 40
1.457775
  1
Qualität
 41
0.9
  7
ISO-NORM
100
AcDbText
  0
INSERT
  5
342
100
AcDbEntity
  8
07-CONT
100
AcDbBlockReference
  2
AIW_F000
 10
68.45551
 20
5.27362
 30
0.0
 41
0.524799
 42
0.524799
 43
0.524799
  0
LINE
  5
343
100
AcDbEntity
  8
025-CONT
100
AcDbLine
 10
97.347287
 20
2.859433
 30
0.0
 11
95.889512
 21
2.859433
 31
0.0
  0
LINE
  5
344
100
AcDbEntity
  8
025-CONT
100
AcDbLine
 10
95.889512
 20
1.845984
 30
0.0
 11
97.347287
 21
1.845984
 31
0.0
  0
SOLID
  5
345
100
AcDbEntity
  8
025-CONT
100
AcDbTrace
 10
95.889512
 20
1.401658
 30
0.0
 11
97.347287
 21
1.401658
 31
0.0
 12
95.889512
 22
2.859433
 32
0.0
 13
97.347287
 23
2.859433
 33
0.0
  0
LINE
  5
346
100
AcDbEntity
  8
025-CONT
100
AcDbLine
 10
95.889512
 20
2.859433
 30
0.0
 11
95.889512
 21
1.401658
 31
0.0
  0
TEXT
  5
347
100
AcDbEntity
  8
025-CONT
100
AcDbText
 10
98.121428
 20
1.410806
 30
0.0
 40
1.457775
  1
Design
 41
0.9
  7
ISO-NORM
100
AcDbText
  0
LINE
  5
348
100
AcDbEntity
  8
025-CONT
100
AcDbLine
 10
97.347287
 20
1.401658
 30
0.0
 11
97.347287
 21
2.859433
 31
0.0
  0
ENDBLK
  5
34A
100
AcDbEntity
  8
0
100
AcDbBlockEnd
  0
BLOCK
  5
AC1
100
AcDbEntity
  8
0
100
AcDbBlockBegin
  2
*D4
 70
    65
 10
0.0
 20
0.0
 30
0.0
  3
*D4
  1

  0
LINE
  5
AC2
100
AcDbEntity
  8
0
  6
BYBLOCK
 62
     4
100
AcDbLine
 10
-178.157074
 20
-117.694799
 30
0.0
 11
-178.157074
 21
-254.015919
 31
0.0
  0
LINE
  5
AC3
100
AcDbEntity
  8
0
  6
BYBLOCK
 62
     4
100
AcDbLine
 10
0.0
 20
-227.094012
 30
0.0
 11
0.0
 21
-254.015919
 31
0.0
  0
LINE
  5
AC4
100
AcDbEntity
  8
0
  6
BYBLOCK
 62
     4
100
AcDbLine
 10
-160.657074
 20
-249.015919
 30
0.0
 11
-17.5
 21
-249.015919
 31
0.0
  0
SOLID
  5
AC5
100
AcDbEntity
  8
0
  6
BYBLOCK
 62
     4
100
AcDbTrace
 10
-160.657074
 20
-246.099252
 30
0.0
 11
-160.657074
 21
-251.932586
 31
0.0
 12
-178.157074
 22
-249.015919
 32
0.0
 13
-178.157074
 23
-249.015919
 33
0.0
  0
SOLID
  5
AC6
100
AcDbEntity
  8
0
  6
BYBLOCK
 62
     4
100
AcDbTrace
 10
-17.5
 20
-246.099252
 30
0.0
 11
-17.5
 21
-251.932586
 31
0.0
 12
0.0
 22
-249.015919
 32
0.0
 13
0.0
 23
-249.015919
 33
0.0
  0
MTEXT
  5
AC7
100
AcDbEntity
  8
0
  6
BYBLOCK
 62
     3
100
AcDbMText
 10
-89.078537
 20
-234.015919
 30
0.0
 40
17.5
 41
0.0
 71
     5
 72
     1
  1
\A1;178.16
  7
VSM_00
  0
POINT
  5
AC8
100
AcDbEntity
  8
DEFPOINTS
  6
BYBLOCK
 62
     0
100
AcDbPoint
 10
-178.157074
 20
-117.694799
 30
0.0
  0
POINT
  5
AC9
100
AcDbEntity
  8
DEFPOINTS
  6
BYBLOCK
 62
     0
100
AcDbPoint
 10
0.0
 20
-227.094012
 30
0.0
  0
POINT
  5
ACA
100
AcDbEntity
  8
DEFPOINTS
  6
BYBLOCK
 62
     0
100
AcDbPoint
 10
0.0
 20
-249.015919
 30
0.0
  0
ENDBLK
  5
ACB
100
AcDbEntity
  8
0
100
AcDbBlockEnd
  0
BLOCK
  5
AB7
100
AcDbEntity
  8
0
100
AcDbBlockBegin
  2
*D5
 70
    65
 10
0.0
 20
0.0
 30
0.0
  3
*D5
  1

  0
LINE
  5
AB8
100
AcDbEntity
  8
0
  6
BYBLOCK
 62
     4
100
AcDbLine
 10
178.157074
 20
-117.694799
 30
0.0
 11
178.157074
 21
-254.015919
 31
0.0
  0
LINE
  5
AB9
100
AcDbEntity
  8
0
  6
BYBLOCK
 62
     4
100
AcDbLine
 10
17.5
 20
-249.015919
 30
0.0
 11
160.657074
 21
-249.015919
 31
0.0
  0
SOLID
  5
ABA
100
AcDbEntity
  8
0
  6
BYBLOCK
 62
     4
100
AcDbTrace
 10
17.5
 20
-246.099252
 30
0.0
 11
17.5
 21
-251.932586
 31
0.0
 12
0.0
 22
-249.015919
 32
0.0
 13
0.0
 23
-249.015919
 33
0.0
  0
SOLID
  5
ABB
100
AcDbEntity
  8
0
  6
BYBLOCK
 62
     4
100
AcDbTrace
 10
160.657074
 20
-246.099252
 30
0.0
 11
160.657074
 21
-251.932586
 31
0.0
 12
178.157074
 22
-249.015919
 32
0.0
 13
178.157074
 23
-249.015919
 33
0.0
  0
MTEXT
  5
ABC
100
AcDbEntity
  8
0
  6
BYBLOCK
 62
     3
100
AcDbMText
 10
89.078537
 20
-234.015919
 30
0.0
 40
17.5
 41
0.0
 71
     5
 72
     1
  1
\A1;178.16
  7
VSM_00
  0
POINT
  5
ABD
100
AcDbEntity
  8
DEFPOINTS
  6
BYBLOCK
 62
     0
100
AcDbPoint
 10
0.0
 20
-227.094012
 30
0.0
  0
POINT
  5
ABE
100
AcDbEntity
  8
DEFPOINTS
  6
BYBLOCK
 62
     0
100
AcDbPoint
 10
178.157074
 20
-117.694799
 30
0.0
  0
POINT
  5
ABF
100
AcDbEntity
  8
DEFPOINTS
  6
BYBLOCK
 62
     0
100
AcDbPoint
 10
178.157074
 20
-249.015919
 30
0.0
  0
ENDBLK
  5
AC0
100
AcDbEntity
  8
0
100
AcDbBlockEnd
  0
BLOCK
  5
AAC
100
AcDbEntity
  8
0
100
AcDbBlockBegin
  2
*D6
 70
    65
 10
0.0
 20
0.0
 30
0.0
  3
*D6
  1

  0
LINE
  5
AAD
100
AcDbEntity
  8
0
  6
BYBLOCK
 62
     4
100
AcDbLine
 10
-270.0
 20
0.0
 30
0.0
 11
-270.0
 21
-294.320771
 31
0.0
  0
LINE
  5
AAE
100
AcDbEntity
  8
0
  6
BYBLOCK
 62
     4
100
AcDbLine
 10
270.0
 20
0.0
 30
0.0
 11
270.0
 21
-294.320771
 31
0.0
  0
LINE
  5
AAF
100
AcDbEntity
  8
0
  6
BYBLOCK
 62
     4
100
AcDbLine
 10
-252.5
 20
-289.320771
 30
0.0
 11
252.5
 21
-289.320771
 31
0.0
  0
SOLID
  5
AB0
100
AcDbEntity
  8
0
  6
BYBLOCK
 62
     4
100
AcDbTrace
 10
-252.5
 20
-286.404104
 30
0.0
 11
-252.5
 21
-292.237437
 31
0.0
 12
-270.0
 22
-289.320771
 32
0.0
 13
-270.0
 23
-289.320771
 33
0.0
  0
SOLID
  5
AB1
100
AcDbEntity
  8
0
  6
BYBLOCK
 62
     4
100
AcDbTrace
 10
252.5
 20
-286.404104
 30
0.0
 11
252.5
 21
-292.237437
 31
0.0
 12
270.0
 22
-289.320771
 32
0.0
 13
270.0
 23
-289.320771
 33
0.0
  0
MTEXT
  5
AB2
100
AcDbEntity
  8
0
  6
BYBLOCK
 62
     3
100
AcDbMText
 10
0.0
 20
-274.320771
 30
0.0
 40
17.5
 41
0.0
 71
     5
 72
     1
  1
\A1;540
  7
VSM_00
  0
POINT
  5
AB3
100
AcDbEntity
  8
DEFPOINTS
  6
BYBLOCK
 62
     0
100
AcDbPoint
 10
-270.0
 20
0.0
 30
0.0
  0
POINT
  5
AB4
100
AcDbEntity
  8
DEFPOINTS
  6
BYBLOCK
 62
     0
100
AcDbPoint
 10
270.0
 20
0.0
 30
0.0
  0
POINT
  5
AB5
100
AcDbEntity
  8
DEFPOINTS
  6
BYBLOCK
 62
     0
100
AcDbPoint
 10
270.0
 20
-289.320771
 30
0.0
  0
ENDBLK
  5
AB6
100
AcDbEntity
  8
0
100
AcDbBlockEnd
  0
BLOCK
  5
AA1
100
AcDbEntity
  8
0
100
AcDbBlockBegin
  2
*D7
 70
    65
 10
0.0
 20
0.0
 30
0.0
  3
*D7
  1

  0
LINE
  5
AA2
100
AcDbEntity
  8
0
  6
BYBLOCK
 62
     4
100
AcDbLine
 10
184.157074
 20
-111.694799
 30
0.0
 11
319.01563
 21
-111.694799
 31
0.0
  0
LINE
  5
AA3
100
AcDbEntity
  8
0
  6
BYBLOCK
 62
     4
100
AcDbLine
 10
292.856802
 20
0.0
 30
0.0
 11
319.01563
 21
0.0
 31
0.0
  0
LINE
  5
AA4
100
AcDbEntity
  8
0
  6
BYBLOCK
 62
     4
100
AcDbLine
 10
314.01563
 20
-94.194799
 30
0.0
 11
314.01563
 21
-17.5
 31
0.0
  0
SOLID
  5
AA5
100
AcDbEntity
  8
0
  6
BYBLOCK
 62
     4
100
AcDbTrace
 10
311.098964
 20
-94.194799
 30
0.0
 11
316.932297
 21
-94.194799
 31
0.0
 12
314.01563
 22
-111.694799
 32
0.0
 13
314.01563
 23
-111.694799
 33
0.0
  0
SOLID
  5
AA6
100
AcDbEntity
  8
0
  6
BYBLOCK
 62
     4
100
AcDbTrace
 10
311.098964
 20
-17.5
 30
0.0
 11
316.932297
 21
-17.5
 31
0.0
 12
314.01563
 22
0.0
 32
0.0
 13
314.01563
 23
0.0
 33
0.0
  0
MTEXT
  5
AA7
100
AcDbEntity
  8
0
  6
BYBLOCK
 62
     3
100
AcDbMText
 10
299.01563
 20
-55.8474
 30
0.0
 40
17.5
 41
0.0
 71
     5
 72
     1
  1
\A1;111.69
  7
VSM_00
 11
0.0
 21
1.0
 31
0.0
  0
POINT
  5
AA8
100
AcDbEntity
  8
DEFPOINTS
  6
BYBLOCK
 62
     0
100
AcDbPoint
 10
184.157074
 20
-111.694799
 30
0.0
  0
POINT
  5
AA9
100
AcDbEntity
  8
DEFPOINTS
  6
BYBLOCK
 62
     0
100
AcDbPoint
 10
292.856802
 20
0.0
 30
0.0
  0
POINT
  5
AAA
100
AcDbEntity
  8
DEFPOINTS
  6
BYBLOCK
 62
     0
100
AcDbPoint
 10
314.01563
 20
0.0
 30
0.0
  0
ENDBLK
  5
AAB
100
AcDbEntity
  8
0
100
AcDbBlockEnd
  0
BLOCK
  5
A96
100
AcDbEntity
  8
0
100
AcDbBlockBegin
  2
*D8
 70
    65
 10
0.0
 20
0.0
 30
0.0
  3
*D8
  1

  0
LINE
  5
A97
100
AcDbEntity
  8
0
  6
BYBLOCK
 62
     4
100
AcDbLine
 10
309.01563
 20
0.0
 30
0.0
 11
362.293406
 21
0.0
 31
0.0
  0
LINE
  5
A98
100
AcDbEntity
  8
0
  6
BYBLOCK
 62
     4
100
AcDbLine
 10
96.999489
 20
120.535977
 30
0.0
 11
362.293406
 21
120.535977
 31
0.0
  0
LINE
  5
A99
100
AcDbEntity
  8
0
  6
BYBLOCK
 62
     4
100
AcDbLine
 10
357.293406
 20
17.5
 30
0.0
 11
357.293406
 21
103.035977
 31
0.0
  0
SOLID
  5
A9A
100
AcDbEntity
  8
0
  6
BYBLOCK
 62
     4
100
AcDbTrace
 10
354.376739
 20
17.5
 30
0.0
 11
360.210072
 21
17.5
 31
0.0
 12
357.293406
 22
0.0
 32
0.0
 13
357.293406
 23
0.0
 33
0.0
  0
SOLID
  5
A9B
100
AcDbEntity
  8
0
  6
BYBLOCK
 62
     4
100
AcDbTrace
 10
354.376739
 20
103.035977
 30
0.0
 11
360.210072
 21
103.035977
 31
0.0
 12
357.293406
 22
120.535977
 32
0.0
 13
357.293406
 23
120.535977
 33
0.0
  0
MTEXT
  5
A9C
100
AcDbEntity
  8
0
  6
BYBLOCK
 62
     3
100
AcDbMText
 10
342.293406
 20
60.267989
 30
0.0
 40
17.5
 41
0.0
 71
     5
 72
     1
  1
\A1;120.54
  7
VSM_00
 11
0.0
 21
1.0
 31
0.0
  0
POINT
  5
A9D
100
AcDbEntity
  8
DEFPOINTS
  6
BYBLOCK
 62
     0
100
AcDbPoint
 10
309.01563
 20
0.0
 30
0.0
  0
POINT
  5
A9E
100
AcDbEntity
  8
DEFPOINTS
  6
BYBLOCK
 62
     0
100
AcDbPoint
 10
96.999489
 20
120.535977
 30
0.0
  0
POINT
  5
A9F
100
AcDbEntity
  8
DEFPOINTS
  6
BYBLOCK
 62
     0
100
AcDbPoint
 10
357.293406
 20
120.535977
 30
0.0
  0
ENDBLK
  5
AA0
100
AcDbEntity
  8
0
100
AcDbBlockEnd
  0
BLOCK
  5
A8B
100
AcDbEntity
  8
0
100
AcDbBlockBegin
  2
*D9
 70
    65
 10
0.0
 20
0.0
 30
0.0
  3
*D9
  1

  0
LINE
  5
A8C
100
AcDbEntity
  8
0
  6
BYBLOCK
 62
     4
100
AcDbLine
 10
0.0
 20
-205.0
 30
0.0
 11
404.587594
 21
-205.0
 31
0.0
  0
LINE
  5
A8D
100
AcDbEntity
  8
0
  6
BYBLOCK
 62
     4
100
AcDbLine
 10
357.293406
 20
0.0
 30
0.0
 11
404.587594
 21
0.0
 31
0.0
  0
LINE
  5
A8E
100
AcDbEntity
  8
0
  6
BYBLOCK
 62
     4
100
AcDbLine
 10
399.587594
 20
-187.5
 30
0.0
 11
399.587594
 21
-17.5
 31
0.0
  0
SOLID
  5
A8F
100
AcDbEntity
  8
0
  6
BYBLOCK
 62
     4
100
AcDbTrace
 10
396.670927
 20
-187.5
 30
0.0
 11
402.504261
 21
-187.5
 31
0.0
 12
399.587594
 22
-205.0
 32
0.0
 13
399.587594
 23
-205.0
 33
0.0
  0
SOLID
  5
A90
100
AcDbEntity
  8
0
  6
BYBLOCK
 62
     4
100
AcDbTrace
 10
396.670927
 20
-17.5
 30
0.0
 11
402.504261
 21
-17.5
 31
0.0
 12
399.587594
 22
0.0
 32
0.0
 13
399.587594
 23
0.0
 33
0.0
  0
MTEXT
  5
A91
100
AcDbEntity
  8
0
  6
BYBLOCK
 62
     3
100
AcDbMText
 10
384.587594
 20
-102.5
 30
0.0
 40
17.5
 41
0.0
 71
     5
 72
     1
  1
\A1;205
  7
VSM_00
 11
0.0
 21
1.0
 31
0.0
  0
POINT
  5
A92
100
AcDbEntity
  8
DEFPOINTS
  6
BYBLOCK
 62
     0
100
AcDbPoint
 10
0.0
 20
-205.0
 30
0.0
  0
POINT
  5
A93
100
AcDbEntity
  8
DEFPOINTS
  6
BYBLOCK
 62
     0
100
AcDbPoint
 10
357.293406
 20
0.0
 30
0.0
  0
POINT
  5
A94
100
AcDbEntity
  8
DEFPOINTS
  6
BYBLOCK
 62
     0
100
AcDbPoint
 10
399.587594
 20
0.0
 30
0.0
  0
ENDBLK
  5
A95
100
AcDbEntity
  8
0
100
AcDbBlockEnd
  0
BLOCK
  5
A80
100
AcDbEntity
  8
0
100
AcDbBlockBegin
  2
*D10
 70
    65
 10
0.0
 20
0.0
 30
0.0
  3
*D10
  1

  0
LINE
  5
A81
100
AcDbEntity
  8
0
  6
BYBLOCK
 62
     4
100
AcDbLine
 10
404.587594
 20
0.0
 30
0.0
 11
394.587594
 21
0.0
 31
0.0
  0
LINE
  5
A82
100
AcDbEntity
  8
0
  6
BYBLOCK
 62
     4
100
AcDbLine
 10
0.0
 20
275.0
 30
0.0
 11
404.587594
 21
275.0
 31
0.0
  0
LINE
  5
A83
100
AcDbEntity
  8
0
  6
BYBLOCK
 62
     4
100
AcDbLine
 10
399.587594
 20
17.5
 30
0.0
 11
399.587594
 21
257.5
 31
0.0
  0
SOLID
  5
A84
100
AcDbEntity
  8
0
  6
BYBLOCK
 62
     4
100
AcDbTrace
 10
396.670927
 20
17.5
 30
0.0
 11
402.504261
 21
17.5
 31
0.0
 12
399.587594
 22
0.0
 32
0.0
 13
399.587594
 23
0.0
 33
0.0
  0
SOLID
  5
A85
100
AcDbEntity
  8
0
  6
BYBLOCK
 62
     4
100
AcDbTrace
 10
396.670927
 20
257.5
 30
0.0
 11
402.504261
 21
257.5
 31
0.0
 12
399.587594
 22
275.0
 32
0.0
 13
399.587594
 23
275.0
 33
0.0
  0
MTEXT
  5
A86
100
AcDbEntity
  8
0
  6
BYBLOCK
 62
     3
100
AcDbMText
 10
384.587594
 20
137.5
 30
0.0
 40
17.5
 41
0.0
 71
     5
 72
     1
  1
\A1;275
  7
VSM_00
 11
0.0
 21
1.0
 31
0.0
  0
POINT
  5
A87
100
AcDbEntity
  8
DEFPOINTS
  6
BYBLOCK
 62
     0
100
AcDbPoint
 10
404.587594
 20
0.0
 30
0.0
  0
POINT
  5
A88
100
AcDbEntity
  8
DEFPOINTS
  6
BYBLOCK
 62
     0
100
AcDbPoint
 10
0.0
 20
275.0
 30
0.0
  0
POINT
  5
A89
100
AcDbEntity
  8
DEFPOINTS
  6
BYBLOCK
 62
     0
100
AcDbPoint
 10
399.587594
 20
275.0
 30
0.0
  0
ENDBLK
  5
A8A
100
AcDbEntity
  8
0
100
AcDbBlockEnd
  0
BLOCK
  5
A75
100
AcDbEntity
  8
0
100
AcDbBlockBegin
  2
*D11
 70
    65
 10
0.0
 20
0.0
 30
0.0
  3
*D11
  1

  0
LINE
  5
A76
100
AcDbEntity
  8
0
  6
BYBLOCK
 62
     4
100
AcDbLine
 10
399.587594
 20
-205.0
 30
0.0
 11
450.816126
 21
-205.0
 31
0.0
  0
LINE
  5
A77
100
AcDbEntity
  8
0
  6
BYBLOCK
 62
     4
100
AcDbLine
 10
399.587594
 20
275.0
 30
0.0
 11
450.816126
 21
275.0
 31
0.0
  0
LINE
  5
A78
100
AcDbEntity
  8
0
  6
BYBLOCK
 62
     4
100
AcDbLine
 10
445.816126
 20
-187.5
 30
0.0
 11
445.816126
 21
257.5
 31
0.0
  0
SOLID
  5
A79
100
AcDbEntity
  8
0
  6
BYBLOCK
 62
     4
100
AcDbTrace
 10
442.89946
 20
-187.5
 30
0.0
 11
448.732793
 21
-187.5
 31
0.0
 12
445.816126
 22
-205.0
 32
0.0
 13
445.816126
 23
-205.0
 33
0.0
  0
SOLID
  5
A7A
100
AcDbEntity
  8
0
  6
BYBLOCK
 62
     4
100
AcDbTrace
 10
442.89946
 20
257.5
 30
0.0
 11
448.732793
 21
257.5
 31
0.0
 12
445.816126
 22
275.0
 32
0.0
 13
445.816126
 23
275.0
 33
0.0
  0
MTEXT
  5
A7B
100
AcDbEntity
  8
0
  6
BYBLOCK
 62
     3
100
AcDbMText
 10
430.816126
 20
35.0
 30
0.0
 40
17.5
 41
0.0
 71
     5
 72
     1
  1
\A1;480
  7
VSM_00
 11
0.0
 21
1.0
 31
0.0
  0
POINT
  5
A7C
100
AcDbEntity
  8
DEFPOINTS
  6
BYBLOCK
 62
     0
100
AcDbPoint
 10
399.587594
 20
-205.0
 30
0.0
  0
POINT
  5
A7D
100
AcDbEntity
  8
DEFPOINTS
  6
BYBLOCK
 62
     0
100
AcDbPoint
 10
399.587594
 20
275.0
 30
0.0
  0
POINT
  5
A7E
100
AcDbEntity
  8
DEFPOINTS
  6
BYBLOCK
 62
     0
100
AcDbPoint
 10
445.816126
 20
275.0
 30
0.0
  0
ENDBLK
  5
A7F
100
AcDbEntity
  8
0
100
AcDbBlockEnd
  0
BLOCK
  5
A6A
100
AcDbEntity
  8
0
100
AcDbBlockBegin
  2
*D12
 70
    65
 10
0.0
 20
0.0
 30
0.0
  3
*D12
  1

  0
LINE
  5
A6B
100
AcDbEntity
  8
0
  6
BYBLOCK
 62
     4
100
AcDbLine
 10
-86.999489
 20
130.535977
 30
0.0
 11
-86.999489
 21
345.811172
 31
0.0
  0
LINE
  5
A6C
100
AcDbEntity
  8
0
  6
BYBLOCK
 62
     4
100
AcDbLine
 10
0.0
 20
309.438501
 30
0.0
 11
0.0
 21
345.811172
 31
0.0
  0
LINE
  5
A6D
100
AcDbEntity
  8
0
  6
BYBLOCK
 62
     4
100
AcDbLine
 10
-69.499489
 20
340.811172
 30
0.0
 11
-17.5
 21
340.811172
 31
0.0
  0
SOLID
  5
A6E
100
AcDbEntity
  8
0
  6
BYBLOCK
 62
     4
100
AcDbTrace
 10
-69.499489
 20
343.727839
 30
0.0
 11
-69.499489
 21
337.894506
 31
0.0
 12
-86.999489
 22
340.811172
 32
0.0
 13
-86.999489
 23
340.811172
 33
0.0
  0
SOLID
  5
A6F
100
AcDbEntity
  8
0
  6
BYBLOCK
 62
     4
100
AcDbTrace
 10
-17.5
 20
343.727839
 30
0.0
 11
-17.5
 21
337.894506
 31
0.0
 12
0.0
 22
340.811172
 32
0.0
 13
0.0
 23
340.811172
 33
0.0
  0
MTEXT
  5
A70
100
AcDbEntity
  8
0
  6
BYBLOCK
 62
     3
100
AcDbMText
 10
-43.499745
 20
355.811172
 30
0.0
 40
17.5
 41
0.0
 71
     5
 72
     1
  1
\A1;87
  7
VSM_00
  0
POINT
  5
A71
100
AcDbEntity
  8
DEFPOINTS
  6
BYBLOCK
 62
     0
100
AcDbPoint
 10
-86.999489
 20
130.535977
 30
0.0
  0
POINT
  5
A72
100
AcDbEntity
  8
DEFPOINTS
  6
BYBLOCK
 62
     0
100
AcDbPoint
 10
0.0
 20
309.438501
 30
0.0
  0
POINT
  5
A73
100
AcDbEntity
  8
DEFPOINTS
  6
BYBLOCK
 62
     0
100
AcDbPoint
 10
0.0
 20
340.811172
 30
0.0
  0
ENDBLK
  5
A74
100
AcDbEntity
  8
0
100
AcDbBlockEnd
  0
BLOCK
  5
A60
100
AcDbEntity
  8
0
100
AcDbBlockBegin
  2
*D13
 70
    65
 10
0.0
 20
0.0
 30
0.0
  3
*D13
  1

  0
LINE
  5
A61
100
AcDbEntity
  8
0
  6
BYBLOCK
 62
     4
100
AcDbLine
 10
86.999489
 20
130.535977
 30
0.0
 11
86.999489
 21
345.811172
 31
0.0
  0
LINE
  5
A62
100
AcDbEntity
  8
0
  6
BYBLOCK
 62
     4
100
AcDbLine
 10
17.5
 20
340.811172
 30
0.0
 11
69.499489
 21
340.811172
 31
0.0
  0
SOLID
  5
A63
100
AcDbEntity
  8
0
  6
BYBLOCK
 62
     4
100
AcDbTrace
 10
17.5
 20
343.727839
 30
0.0
 11
17.5
 21
337.894506
 31
0.0
 12
0.0
 22
340.811172
 32
0.0
 13
0.0
 23
340.811172
 33
0.0
  0
SOLID
  5
A64
100
AcDbEntity
  8
0
  6
BYBLOCK
 62
     4
100
AcDbTrace
 10
69.499489
 20
343.727839
 30
0.0
 11
69.499489
 21
337.894506
 31
0.0
 12
86.999489
 22
340.811172
 32
0.0
 13
86.999489
 23
340.811172
 33
0.0
  0
MTEXT
  5
A65
100
AcDbEntity
  8
0
  6
BYBLOCK
 62
     3
100
AcDbMText
 10
43.499745
 20
355.811172
 30
0.0
 40
17.5
 41
0.0
 71
     5
 72
     1
  1
\A1;87
  7
VSM_00
  0
POINT
  5
A66
100
AcDbEntity
  8
DEFPOINTS
  6
BYBLOCK
 62
     0
100
AcDbPoint
 10
0.0
 20
309.438501
 30
0.0
  0
POINT
  5
A67
100
AcDbEntity
  8
DEFPOINTS
  6
BYBLOCK
 62
     0
100
AcDbPoint
 10
86.999489
 20
130.535977
 30
0.0
  0
POINT
  5
A68
100
AcDbEntity
  8
DEFPOINTS
  6
BYBLOCK
 62
     0
100
AcDbPoint
 10
86.999489
 20
340.811172
 30
0.0
  0
ENDBLK
  5
A69
100
AcDbEntity
  8
0
100
AcDbBlockEnd
  0
BLOCK
  5
A59
100
AcDbEntity
  8
0
100
AcDbBlockBegin
  2
*D14
 70
    65
 10
0.0
 20
0.0
 30
0.0
  3
*D14
  1

  0
LINE
  5
A5A
100
AcDbEntity
  8
0
  6
BYBLOCK
 62
     4
100
AcDbLine
 10
-178.157074
 20
-111.694799
 30
0.0
 11
-229.752411
 21
-155.216877
 31
0.0
  0
SOLID
  5
A5B
100
AcDbEntity
  8
0
  6
BYBLOCK
 62
     4
100
AcDbTrace
 10
-231.632994
 20
-152.987449
 30
0.0
 11
-227.871827
 21
-157.446305
 31
0.0
 12
-243.12898
 22
-166.500379
 32
0.0
 13
-243.12898
 23
-166.500379
 33
0.0
  0
MTEXT
  5
A5C
100
AcDbEntity
  8
0
  6
BYBLOCK
 62
     3
100
AcDbMText
 10
-220.3146
 20
-127.631958
 30
0.0
 40
17.5
 41
0.0
 71
     5
 72
     1
  1
\A1;R85
  7
VSM_00
 11
0.764375
 21
0.644772
 31
0.0
  0
POINT
  5
A5D
100
AcDbEntity
  8
DEFPOINTS
  6
BYBLOCK
 62
     0
100
AcDbPoint
 10
-243.12898
 20
-166.500379
 30
0.0
  0
POINT
  5
A5E
100
AcDbEntity
  8
DEFPOINTS
  6
BYBLOCK
 62
     0
100
AcDbPoint
 10
-178.157074
 20
-111.694799
 30
0.0
  0
ENDBLK
  5
A5F
100
AcDbEntity
  8
0
100
AcDbBlockEnd
  0
BLOCK
  5
A52
100
AcDbEntity
  8
0
100
AcDbBlockBegin
  2
*D15
 70
    65
 10
0.0
 20
0.0
 30
0.0
  3
*D15
  1

  0
LINE
  5
A53
100
AcDbEntity
  8
0
  6
BYBLOCK
 62
     4
100
AcDbLine
 10
-18.48
 20
47.7
 30
0.0
 11
-219.663009
 21
164.240324
 31
0.0
  0
SOLID
  5
A54
100
AcDbEntity
  8
0
  6
BYBLOCK
 62
     4
100
AcDbTrace
 10
-218.201033
 20
166.764125
 30
0.0
 11
-221.124984
 21
161.716522
 31
0.0
 12
-234.805816
 22
173.012176
 32
0.0
 13
-234.805816
 23
173.012176
 33
0.0
  0
MTEXT
  5
A55
100
AcDbEntity
  8
0
  6
BYBLOCK
 62
     3
100
AcDbMText
 10
-119.124177
 20
123.335637
 30
0.0
 40
17.5
 41
0.0
 71
     5
 72
     1
  1
\A1;R250
  7
VSM_00
 11
0.865303
 21
-0.501249
 31
0.0
  0
POINT
  5
A56
100
AcDbEntity
  8
DEFPOINTS
  6
BYBLOCK
 62
     0
100
AcDbPoint
 10
-234.805816
 20
173.012176
 30
0.0
  0
POINT
  5
A57
100
AcDbEntity
  8
DEFPOINTS
  6
BYBLOCK
 62
     0
100
AcDbPoint
 10
-18.48
 20
47.7
 30
0.0
  0
ENDBLK
  5
A58
100
AcDbEntity
  8
0
100
AcDbBlockEnd
  0
BLOCK
  5
A4B
100
AcDbEntity
  8
0
100
AcDbBlockBegin
  2
*D16
 70
    65
 10
0.0
 20
0.0
 30
0.0
  3
*D16
  1

  0
LINE
  5
A4C
100
AcDbEntity
  8
0
  6
BYBLOCK
 62
     4
100
AcDbLine
 10
-86.999489
 20
120.535977
 30
0.0
 11
-149.277753
 21
237.487539
 31
0.0
  0
SOLID
  5
A4D
100
AcDbEntity
  8
0
  6
BYBLOCK
 62
     4
100
AcDbTrace
 10
-146.703348
 20
238.858444
 30
0.0
 11
-151.852159
 21
236.116634
 31
0.0
 12
-157.503184
 22
252.933972
 32
0.0
 13
-157.503184
 23
252.933972
 33
0.0
  0
MTEXT
  5
A4E
100
AcDbEntity
  8
0
  6
BYBLOCK
 62
     3
100
AcDbMText
 10
-109.011537
 20
193.785344
 30
0.0
 40
17.5
 41
0.0
 71
     5
 72
     1
  1
\A1;R150
  7
VSM_00
 11
0.470025
 21
-0.882653
 31
0.0
  0
POINT
  5
A4F
100
AcDbEntity
  8
DEFPOINTS
  6
BYBLOCK
 62
     0
100
AcDbPoint
 10
-157.503184
 20
252.933972
 30
0.0
  0
POINT
  5
A50
100
AcDbEntity
  8
DEFPOINTS
  6
BYBLOCK
 62
     0
100
AcDbPoint
 10
-86.999489
 20
120.535977
 30
0.0
  0
ENDBLK
  5
A51
100
AcDbEntity
  8
0
100
AcDbBlockEnd
  0
BLOCK
  5
A3F
100
AcDbEntity
  8
0
100
AcDbBlockBegin
  2
*D17
 70
    65
 10
0.0
 20
0.0
 30
0.0
  3
*D17
  1

  0
LINE
  5
A40
100
AcDbEntity
  8
0
  6
BYBLOCK
 62
     4
100
AcDbLine
 10
-262.521393
 20
-122.070819
 30
0.0
 11
-421.855511
 21
-141.66742
 31
0.0
  0
LINE
  5
A41
100
AcDbEntity
  8
0
  6
BYBLOCK
 62
     4
100
AcDbLine
 10
-186.06483
 20
-196.326161
 30
0.0
 11
-200.99976
 21
-356.164629
 31
0.0
  0
ARC
  5
A42
100
AcDbEntity
  8
0
  6
BYBLOCK
 62
     4
100
AcDbCircle
 10
-178.157074
 20
-111.694799
 30
0.0
 40
240.534694
100
AcDbArc
 50
191.181081
 51
260.492466
  0
SOLID
  5
A43
100
AcDbEntity
  8
0
  6
BYBLOCK
 62
     4
100
AcDbTrace
 10
-417.006223
 20
-158.798095
 30
0.0
 11
-411.246251
 21
-157.875873
 31
0.0
 12
-416.892904
 22
-141.057066
 32
0.0
 13
-416.892904
 23
-141.057066
 33
0.0
  0
SOLID
  5
A44
100
AcDbEntity
  8
0
  6
BYBLOCK
 62
     4
100
AcDbTrace
 10
-217.511139
 20
-346.033258
 30
0.0
 11
-218.26475
 21
-351.817706
 31
0.0
 12
-200.534598
 22
-351.186313
 32
0.0
 13
-200.534598
 23
-351.186313
 33
0.0
  0
MTEXT
  5
A45
100
AcDbEntity
  8
0
  6
BYBLOCK
 62
     3
100
AcDbMText
 10
-335.288186
 20
-273.483896
 30
0.0
 40
17.5
 41
0.0
 71
     5
 72
     1
  1
\A1;77.65°
  7
VSM_00
 11
0.717358
 21
-0.696705
 31
0.0
  0
POINT
  5
A46
100
AcDbEntity
  8
DEFPOINTS
  6
BYBLOCK
 62
     0
100
AcDbPoint
 10
-178.157074
 20
-111.694799
 30
0.0
  0
POINT
  5
A47
100
AcDbEntity
  8
DEFPOINTS
  6
BYBLOCK
 62
     0
100
AcDbPoint
 10
-262.521393
 20
-122.070819
 30
0.0
  0
POINT
  5
A48
100
AcDbEntity
  8
DEFPOINTS
  6
BYBLOCK
 62
     0
100
AcDbPoint
 10
-186.06483
 20
-196.326161
 30
0.0
  0
POINT
  5
A49
100
AcDbEntity
  8
DEFPOINTS
  6
BYBLOCK
 62
     0
100
AcDbPoint
 10
-380.126048
 20
-242.329683
 30
0.0
  0
ENDBLK
  5
A4A
100
AcDbEntity
  8
0
100
AcDbBlockEnd
  0
BLOCK
  5
A33
100
AcDbEntity
  8
0
100
AcDbBlockBegin
  2
*D18
 70
    65
 10
0.0
 20
0.0
 30
0.0
  3
*D18
  1

  0
LINE
  5
A34
100
AcDbEntity
  8
0
  6
BYBLOCK
 62
     4
100
AcDbLine
 10
-268.000189
 20
63.21094
 30
0.0
 11
-386.818781
 21
70.736624
 31
0.0
  0
LINE
  5
A35
100
AcDbEntity
  8
0
  6
BYBLOCK
 62
     4
100
AcDbLine
 10
-262.521393
 20
-122.070819
 30
0.0
 11
-380.687697
 21
-136.604165
 31
0.0
  0
ARC
  5
A36
100
AcDbEntity
  8
0
  6
BYBLOCK
 62
     4
100
AcDbCircle
 10
730.0
 20
0.0
 30
0.0
 40
1114.056683
100
AcDbArc
 50
177.275896
 51
186.111599
  0
SOLID
  5
A37
100
AcDbEntity
  8
0
  6
BYBLOCK
 62
     4
100
AcDbTrace
 10
-385.709956
 20
53.108914
 30
0.0
 11
-379.885572
 21
52.78592
 31
0.0
 12
-381.82878
 22
70.42057
 32
0.0
 13
-381.82878
 23
70.42057
 33
0.0
  0
SOLID
  5
A38
100
AcDbEntity
  8
0
  6
BYBLOCK
 62
     4
100
AcDbTrace
 10
-374.827282
 20
-118.275152
 30
0.0
 11
-380.622405
 21
-118.941736
 31
0.0
 12
-375.72509
 22
-135.993811
 32
0.0
 13
-375.72509
 23
-135.993811
 33
0.0
  0
MTEXT
  5
A39
100
AcDbEntity
  8
0
  6
BYBLOCK
 62
     3
100
AcDbMText
 10
-368.113672
 20
-45.518731
 30
0.0
 40
17.5
 41
0.0
 71
     5
 72
     1
  1
\A1;10.64°
  7
VSM_00
 11
0.041416
 21
-0.999142
 31
0.0
  0
POINT
  5
A3A
100
AcDbEntity
  8
DEFPOINTS
  6
BYBLOCK
 62
     0
100
AcDbPoint
 10
730.0
 20
0.0
 30
0.0
  0
POINT
  5
A3B
100
AcDbEntity
  8
DEFPOINTS
  6
BYBLOCK
 62
     0
100
AcDbPoint
 10
-268.000189
 20
63.21094
 30
0.0
  0
POINT
  5
A3C
100
AcDbEntity
  8
DEFPOINTS
  6
BYBLOCK
 62
     0
100
AcDbPoint
 10
-262.521393
 20
-122.070819
 30
0.0
  0
POINT
  5
A3D
100
AcDbEntity
  8
DEFPOINTS
  6
BYBLOCK
 62
     0
100
AcDbPoint
 10
-384.055627
 20
1.533752
 30
0.0
  0
ENDBLK
  5
A3E
100
AcDbEntity
  8
0
100
AcDbBlockEnd
  0
BLOCK
  5
A27
100
AcDbEntity
  8
0
100
AcDbBlockBegin
  2
*D19
 70
    65
 10
0.0
 20
0.0
 30
0.0
  3
*D19
  1

  0
LINE
  5
A28
100
AcDbEntity
  8
0
  6
BYBLOCK
 62
     4
100
AcDbLine
 10
-189.778723
 20
229.789943
 30
0.0
 11
-270.16539
 21
315.240689
 31
0.0
  0
LINE
  5
A29
100
AcDbEntity
  8
0
  6
BYBLOCK
 62
     4
100
AcDbLine
 10
-267.998367
 20
63.210783
 30
0.0
 11
-385.091767
 21
70.489648
 31
0.0
  0
ARC
  5
A2A
100
AcDbEntity
  8
0
  6
BYBLOCK
 62
     4
100
AcDbCircle
 10
-18.48
 20
47.7
 30
0.0
 40
362.319419
100
AcDbArc
 50
136.018587
 51
173.675255
  0
SOLID
  5
A2B
100
AcDbEntity
  8
0
  6
BYBLOCK
 62
     4
100
AcDbTrace
 10
-281.24162
 20
301.379154
 30
0.0
 11
-277.143208
 21
297.228154
 31
0.0
 12
-266.739416
 22
311.59889
 32
0.0
 13
-266.739416
 23
311.59889
 33
0.0
  0
SOLID
  5
A2C
100
AcDbEntity
  8
0
  6
BYBLOCK
 62
     4
100
AcDbTrace
 10
-375.688323
 20
87.363195
 30
0.0
 11
-381.49998
 21
87.865611
 31
0.0
 12
-380.1014
 22
70.179432
 32
0.0
 13
-380.1014
 23
70.179432
 33
0.0
  0
MTEXT
  5
A2D
100
AcDbEntity
  8
0
  6
BYBLOCK
 62
     3
100
AcDbMText
 10
-360.020268
 20
208.075153
 30
0.0
 40
17.5
 41
0.0
 71
     5
 72
     1
  1
\A1;43.19°
  7
VSM_00
 11
0.425038
 21
0.905175
 31
0.0
  0
POINT
  5
A2E
100
AcDbEntity
  8
DEFPOINTS
  6
BYBLOCK
 62
     0
100
AcDbPoint
 10
-18.48
 20
47.7
 30
0.0
  0
POINT
  5
A2F
100
AcDbEntity
  8
DEFPOINTS
  6
BYBLOCK
 62
     0
100
AcDbPoint
 10
-189.778723
 20
229.789943
 30
0.0
  0
POINT
  5
A30
100
AcDbEntity
  8
DEFPOINTS
  6
BYBLOCK
 62
     0
100
AcDbPoint
 10
-267.998367
 20
63.210783
 30
0.0
  0
POINT
  5
A31
100
AcDbEntity
  8
DEFPOINTS
  6
BYBLOCK
 62
     0
100
AcDbPoint
 10
-324.559817
 20
241.582715
 30
0.0
  0
ENDBLK
  5
A32
100
AcDbEntity
  8
0
100
AcDbBlockEnd
  0
BLOCK
  5
A1B
100
AcDbEntity
  8
0
100
AcDbBlockBegin
  2
*D20
 70
    65
 10
0.0
 20
0.0
 30
0.0
  3
*D20
  1

  0
LINE
  5
A1C
100
AcDbEntity
  8
0
  6
BYBLOCK
 62
     4
100
AcDbLine
 10
-102.35234
 20
269.748209
 30
0.0
 11
-114.091591
 21
383.840363
 31
0.0
  0
LINE
  5
A1D
100
AcDbEntity
  8
0
  6
BYBLOCK
 62
     4
100
AcDbLine
 10
-189.778723
 20
229.789943
 30
0.0
 11
-268.366813
 21
313.328808
 31
0.0
  0
ARC
  5
A1E
100
AcDbEntity
  8
0
  6
BYBLOCK
 62
     4
100
AcDbCircle
 10
-86.999489
 20
120.535977
 30
0.0
 40
259.694506
100
AcDbArc
 50
99.736359
 51
129.389222
  0
SOLID
  5
A1F
100
AcDbEntity
  8
0
  6
BYBLOCK
 62
     4
100
AcDbTrace
 10
-131.313803
 20
379.379578
 30
0.0
 11
-130.521574
 21
373.600291
 31
0.0
 12
-113.57983
 22
378.866622
 32
0.0
 13
-113.57983
 23
378.866622
 33
0.0
  0
SOLID
  5
A20
100
AcDbEntity
  8
0
  6
BYBLOCK
 62
     4
100
AcDbTrace
 10
-249.871992
 20
319.051132
 30
0.0
 11
-253.723537
 21
323.432157
 31
0.0
 12
-264.940839
 22
309.687009
 32
0.0
 13
-264.940839
 23
309.687009
 33
0.0
  0
MTEXT
  5
A21
100
AcDbEntity
  8
0
  6
BYBLOCK
 62
     3
100
AcDbMText
 10
-201.18731
 20
370.37235
 30
0.0
 40
17.5
 41
0.0
 71
     5
 72
     1
  1
\A1;37.38°
  7
VSM_00
 11
0.909506
 21
0.41569
 31
0.0
  0
POINT
  5
A22
100
AcDbEntity
  8
DEFPOINTS
  6
BYBLOCK
 62
     0
100
AcDbPoint
 10
-86.999489
 20
120.535977
 30
0.0
  0
POINT
  5
A23
100
AcDbEntity
  8
DEFPOINTS
  6
BYBLOCK
 62
     0
100
AcDbPoint
 10
-102.35234
 20
269.748209
 30
0.0
  0
POINT
  5
A24
100
AcDbEntity
  8
DEFPOINTS
  6
BYBLOCK
 62
     0
100
AcDbPoint
 10
-189.778723
 20
229.789943
 30
0.0
  0
POINT
  5
A25
100
AcDbEntity
  8
DEFPOINTS
  6
BYBLOCK
 62
     0
100
AcDbPoint
 10
-168.685359
 20
367.048969
 30
0.0
  0
ENDBLK
  5
A26
100
AcDbEntity
  8
0
100
AcDbBlockEnd
  0
BLOCK
  5
A0F
100
AcDbEntity
  8
0
100
AcDbBlockBegin
  2
*D21
 70
    65
 10
0.0
 20
0.0
 30
0.0
  3
*D21
  1

  0
LINE
  5
A10
100
AcDbEntity
  8
0
  6
BYBLOCK
 62
     4
100
AcDbLine
 10
102.35234
 20
269.748209
 30
0.0
 11
114.07988
 21
383.726541
 31
0.0
  0
LINE
  5
A11
100
AcDbEntity
  8
0
  6
BYBLOCK
 62
     4
100
AcDbLine
 10
-102.35234
 20
269.748209
 30
0.0
 11
-114.07988
 21
383.726541
 31
0.0
  0
ARC
  5
A12
100
AcDbEntity
  8
0
  6
BYBLOCK
 62
     4
100
AcDbCircle
 10
0.0
 20
-725.0
 30
0.0
 40
1109.580084
100
AcDbArc
 50
85.029018
 51
94.970982
  0
SOLID
  5
A13
100
AcDbEntity
  8
0
  6
BYBLOCK
 62
     4
100
AcDbTrace
 10
96.42208
 20
383.310246
 30
0.0
 11
95.870802
 21
377.50302
 31
0.0
 12
113.568118
 22
378.7528
 32
0.0
 13
113.568118
 23
378.7528
 33
0.0
  0
SOLID
  5
A14
100
AcDbEntity
  8
0
  6
BYBLOCK
 62
     4
100
AcDbTrace
 10
-95.870802
 20
377.50302
 30
0.0
 11
-96.42208
 21
383.310246
 31
0.0
 12
-113.568118
 22
378.7528
 32
0.0
 13
-113.568118
 23
378.7528
 33
0.0
  0
MTEXT
  5
A15
100
AcDbEntity
  8
0
  6
BYBLOCK
 62
     3
100
AcDbMText
 10
0.0
 20
399.580084
 30
0.0
 40
17.5
 41
0.0
 71
     5
 72
     1
  1
\A1;11.75°
  7
VSM_00
  0
POINT
  5
A16
100
AcDbEntity
  8
DEFPOINTS
  6
BYBLOCK
 62
     0
100
AcDbPoint
 10
0.0
 20
-725.0
 30
0.0
  0
POINT
  5
A17
100
AcDbEntity
  8
DEFPOINTS
  6
BYBLOCK
 62
     0
100
AcDbPoint
 10
102.35234
 20
269.748209
 30
0.0
  0
POINT
  5
A18
100
AcDbEntity
  8
DEFPOINTS
  6
BYBLOCK
 62
     0
100
AcDbPoint
 10
-102.35234
 20
269.748209
 30
0.0
  0
POINT
  5
A19
100
AcDbEntity
  8
DEFPOINTS
  6
BYBLOCK
 62
     0
100
AcDbPoint
 10
37.915067
 20
383.932103
 30
0.0
  0
ENDBLK
  5
A1A
100
AcDbEntity
  8
0
100
AcDbBlockEnd
  0
BLOCK
  5
A01
100
AcDbEntity
  8
0
100
AcDbBlockBegin
  2
*D22
 70
    65
 10
0.0
 20
0.0
 30
0.0
  3
*D22
  1

  0
LINE
  5
A02
100
AcDbEntity
  8
0
  6
BYBLOCK
 62
     4
100
AcDbLine
 10
-262.521393
 20
-122.070819
 30
0.0
 11
-333.20943
 21
-130.764784
 31
0.0
  0
ARC
  5
A03
100
AcDbEntity
  8
0
  6
BYBLOCK
 62
     4
100
AcDbCircle
 10
-178.157074
 20
-111.694799
 30
0.0
 40
151.220669
100
AcDbArc
 50
166.73149
 51
173.365745
  0
ARC
  5
A04
100
AcDbEntity
  8
0
  6
BYBLOCK
 62
     4
100
AcDbCircle
 10
-178.157074
 20
-111.694799
 30
0.0
 40
151.220669
100
AcDbArc
 50
193.645886
 51
200.280141
  0
ARC
  5
A05
100
AcDbEntity
  8
0
  6
BYBLOCK
 62
     4
100
AcDbCircle
 10
-178.157074
 20
-111.694799
 30
0.0
 40
151.220669
100
AcDbArc
 50
180.0
 51
187.011631
  0
SOLID
  5
A06
100
AcDbEntity
  8
0
  6
BYBLOCK
 62
     4
100
AcDbTrace
 10
-325.45337
 20
-94.392885
 30
0.0
 11
-331.27693
 21
-94.055354
 31
0.0
 12
-329.377743
 22
-111.694799
 32
0.0
 13
-329.377743
 23
-111.694799
 33
0.0
  0
SOLID
  5
A07
100
AcDbEntity
  8
0
  6
BYBLOCK
 62
     4
100
AcDbTrace
 10
-327.978545
 20
-147.893792
 30
0.0
 11
-322.23974
 21
-146.847899
 31
0.0
 12
-328.246823
 22
-130.15443
 32
0.0
 13
-328.246823
 23
-130.15443
 33
0.0
  0
MTEXT
  5
A08
100
AcDbEntity
  8
0
  6
BYBLOCK
 62
     3
100
AcDbMText
 10
-306.290899
 20
-65.458518
 30
0.0
 40
17.5
 41
0.0
 71
     5
 72
     1
  1
\A1;7.01°
  7
VSM_00
 11
-0.339422
 21
-0.940634
 31
0.0
  0
POINT
  5
A09
100
AcDbEntity
  8
DEFPOINTS
  6
BYBLOCK
 62
     0
100
AcDbPoint
 10
-328.874763
 20
-124.018309
 30
0.0
  0
POINT
  5
A0A
100
AcDbEntity
  8
DEFPOINTS
  6
BYBLOCK
 62
     0
100
AcDbPoint
 10
-262.521393
 20
-122.070819
 30
0.0
  0
POINT
  5
A0B
100
AcDbEntity
  8
DEFPOINTS
  6
BYBLOCK
 62
     0
100
AcDbPoint
 10
-178.157074
 20
-111.694799
 30
0.0
  0
POINT
  5
A0C
100
AcDbEntity
  8
DEFPOINTS
  6
BYBLOCK
 62
     0
100
AcDbPoint
 10
-337.609959
 20
-111.694799
 30
0.0
  0
POINT
  5
A0D
100
AcDbEntity
  8
DEFPOINTS
  6
BYBLOCK
 62
     0
100
AcDbPoint
 10
-178.157074
 20
-111.694799
 30
0.0
  0
ENDBLK
  5
A0E
100
AcDbEntity
  8
0
100
AcDbBlockEnd
  0
BLOCK
  5
9F3
100
AcDbEntity
  8
0
100
AcDbBlockBegin
  2
*D23
 70
    65
 10
0.0
 20
0.0
 30
0.0
  3
*D23
  1

  0
LINE
  5
9F4
100
AcDbEntity
  8
0
  6
BYBLOCK
 62
     4
100
AcDbLine
 10
-267.998367
 20
63.210783
 30
0.0
 11
-317.732358
 21
66.302392
 31
0.0
  0
ARC
  5
9F5
100
AcDbEntity
  8
0
  6
BYBLOCK
 62
     4
100
AcDbCircle
 10
-18.48
 20
47.7
 30
0.0
 40
294.829989
100
AcDbArc
 50
169.640183
 51
173.041544
  0
ARC
  5
9F6
100
AcDbEntity
  8
0
  6
BYBLOCK
 62
     4
100
AcDbCircle
 10
-18.48
 20
47.7
 30
0.0
 40
294.829989
100
AcDbArc
 50
183.401362
 51
186.802723
  0
ARC
  5
9F7
100
AcDbEntity
  8
0
  6
BYBLOCK
 62
     4
100
AcDbCircle
 10
-18.48
 20
47.7
 30
0.0
 40
294.829989
100
AcDbArc
 50
176.442906
 51
180.0
  0
SOLID
  5
9F8
100
AcDbEntity
  8
0
  6
BYBLOCK
 62
     4
100
AcDbTrace
 10
-308.233952
 20
83.151271
 30
0.0
 11
-314.042742
 21
83.685819
 31
0.0
 12
-312.74199
 22
65.992176
 32
0.0
 13
-312.74199
 23
65.992176
 33
0.0
  0
SOLID
  5
9F9
100
AcDbEntity
  8
0
  6
BYBLOCK
 62
     4
100
AcDbTrace
 10
-315.706004
 20
30.121147
 30
0.0
 11
-309.87524
 21
30.29427
 31
0.0
 12
-313.309989
 22
47.7
 32
0.0
 13
-313.309989
 23
47.7
 33
0.0
  0
MTEXT
  5
9FA
100
AcDbEntity
  8
0
  6
BYBLOCK
 62
     3
100
AcDbMText
 10
-319.086202
 20
122.736881
 30
0.0
 40
17.5
 41
0.0
 71
     5
 72
     1
  1
\A1;3.56°
  7
VSM_00
 11
0.242187
 21
0.97023
 31
0.0
  0
POINT
  5
9FB
100
AcDbEntity
  8
DEFPOINTS
  6
BYBLOCK
 62
     0
100
AcDbPoint
 10
-313.24686
 20
53.800875
 30
0.0
  0
POINT
  5
9FC
100
AcDbEntity
  8
DEFPOINTS
  6
BYBLOCK
 62
     0
100
AcDbPoint
 10
-18.48
 20
47.7
 30
0.0
  0
POINT
  5
9FD
100
AcDbEntity
  8
DEFPOINTS
  6
BYBLOCK
 62
     0
100
AcDbPoint
 10
-267.998367
 20
63.210783
 30
0.0
  0
POINT
  5
9FE
100
AcDbEntity
  8
DEFPOINTS
  6
BYBLOCK
 62
     0
100
AcDbPoint
 10
-18.48
 20
47.7
 30
0.0
  0
POINT
  5
9FF
100
AcDbEntity
  8
DEFPOINTS
  6
BYBLOCK
 62
     0
100
AcDbPoint
 10
-332.692034
 20
47.7
 30
0.0
  0
ENDBLK
  5
A00
100
AcDbEntity
  8
0
100
AcDbBlockEnd
  0
BLOCK
  5
609
100
AcDbEntity
  8
0
100
AcDbBlockBegin
  2
ACL_C000
 70
    66
 10
0.0
 20
0.0
 30
0.0
  3
ACL_C000
  1
ACL_C000
  0
ATTDEF
  5
60A
100
AcDbEntity
  8
0
100
AcDbText
 10
0.0
 20
0.0
 30
0.0
 40
0.001
  1
ACL_C000
100
AcDbAttributeDefinition
  3

  2
CFGNME
 70
     3
  0
ATTDEF
  5
60B
100
AcDbEntity
  8
0
100
AcDbText
 10
0.0
 20
0.0
 30
0.0
 40
0.001
  1
2798
100
AcDbAttributeDefinition
  3

  2
USRCDE
 70
     3
  0
ENDBLK
  5
60C
100
AcDbEntity
  8
0
100
AcDbBlockEnd
  0
BLOCK
  5
7CE
100
AcDbEntity
  8
V__025
100
AcDbBlockBegin
  2
BIB01BI_BIB004
 70
     0
 10
0.0
 20
0.0
 30
0.0
  3
BIB01BI_BIB004
  1

  0
LINE
  5
7A9
100
AcDbEntity
  8
025-CENTER
100
AcDbLine
 10
48.717672
 20
80.839624
 30
0.0
 11
68.513777
 21
80.839624
 31
0.0
  0
ARC
  5
7AA
100
AcDbEntity
  8
07-CONT
100
AcDbCircle
 10
0.0
 20
-330.0
 30
0.0
 40
500.0
100
AcDbArc
 50
81.880237
 51
98.119763
  0
LINE
  5
7AB
100
AcDbEntity
  8
025-CENTER
100
AcDbLine
 10
50.587614
 20
-80.839624
 30
0.0
 11
66.643835
 21
-80.839624
 31
0.0
  0
ARC
  5
7AC
100
AcDbEntity
  8
07-CONT
100
AcDbCircle
 10
0.0
 20
330.0
 30
0.0
 40
500.0
100
AcDbArc
 50
261.880237
 51
278.119763
  0
LINE
  5
7AD
100
AcDbEntity
  8
025-CENTER
100
AcDbLine
 10
164.992782
 20
0.0
 30
0.0
 11
-164.992782
 21
0.0
 31
0.0
  0
LINE
  5
7AE
100
AcDbEntity
  8
025-CENTER
100
AcDbLine
 10
0.0
 20
183.584388
 30
0.0
 11
0.0
 21
-188.358418
 31
0.0
  0
ARC
  5
7AF
100
AcDbEntity
  8
07-CONT
100
AcDbCircle
 10
450.0
 20
0.0
 30
0.0
 40
600.0
100
AcDbArc
 50
170.968924
 51
189.031076
  0
LINE
  5
7B0
100
AcDbEntity
  8
025-CENTER
100
AcDbLine
 10
-67.172156
 20
-80.839624
 30
0.0
 11
-50.059293
 21
-80.839624
 31
0.0
  0
ARC
  5
7B1
100
AcDbEntity
  8
07-CONT
100
AcDbCircle
 10
-58.615724
 20
-80.839624
 30
0.0
 40
85.0
100
AcDbArc
 50
189.031076
 51
261.880237
  0
POINT
  5
7B2
100
AcDbEntity
  8
MASSLINE
  6
BYBLOCK
100
AcDbPoint
 10
-164.992782
 20
0.0
 30
0.0
  0
POINT
  5
7B3
100
AcDbEntity
  8
MASSLINE
  6
BYBLOCK
100
AcDbPoint
 10
-164.992782
 20
0.0
 30
0.0
  0
POINT
  5
7B4
100
AcDbEntity
  8
MASSLINE
  6
BYBLOCK
100
AcDbPoint
 10
-159.0
 20
0.0
 30
0.0
  0
POINT
  5
7B5
100
AcDbEntity
  8
MASSLINE
  6
BYBLOCK
100
AcDbPoint
 10
-150.0
 20
0.0
 30
0.0
  0
POINT
  5
7B6
100
AcDbEntity
  8
MASSLINE_B57DAC0E87E391CB
  6
BYBLOCK
100
AcDbPoint
 10
0.0
 20
-170.0
 30
0.0
  0
POINT
  5
7B7
100
AcDbEntity
  8
MASSLINE
  6
BYBLOCK
100
AcDbPoint
 10
0.0
 20
-179.0
 30
0.0
  0
POINT
  5
7B8
100
AcDbEntity
  8
MASSLINE
  6
BYBLOCK
100
AcDbPoint
 10
0.0
 20
-180.488905
 30
0.0
  0
LINE
  5
7B9
100
AcDbEntity
  8
025-CENTER
100
AcDbLine
 10
-58.615724
 20
-72.283192
 30
0.0
 11
-58.615724
 21
-89.396056
 31
0.0
  0
POINT
  5
7BA
100
AcDbEntity
  8
MASSLINE
  6
BYBLOCK
100
AcDbPoint
 10
-58.615724
 20
-80.839624
 30
0.0
  0
LINE
  5
7BB
100
AcDbEntity
  8
025-CENTER
100
AcDbLine
 10
58.615724
 20
-72.811514
 30
0.0
 11
58.615724
 21
-88.867734
 31
0.0
  0
LINE
  5
7BC
100
AcDbEntity
  8
025-CENTER
100
AcDbLine
 10
-66.820475
 20
80.839624
 30
0.0
 11
-50.410974
 21
80.839624
 31
0.0
  0
ARC
  5
7BD
100
AcDbEntity
  8
07-CONT
100
AcDbCircle
 10
-58.615724
 20
80.839624
 30
0.0
 40
85.0
100
AcDbArc
 50
98.119763
 51
170.968924
  0
CIRCLE
  5
7BE
100
AcDbEntity
  8
07-CONT
100
AcDbCircle
 10
0.0
 20
100.0
 30
0.0
 40
30.0
  0
CIRCLE
  5
7BF
100
AcDbEntity
  8
05-CONT
100
AcDbCircle
 10
0.0
 20
100.0
 30
0.0
 40
35.0
  0
LINE
  5
7C0
100
AcDbEntity
  8
025-CENTER
100
AcDbLine
 10
-50.226287
 20
100.0
 30
0.0
 11
50.226287
 21
100.0
 31
0.0
  0
LINE
  5
7C1
100
AcDbEntity
  8
025-CENTER
100
AcDbLine
 10
-58.615724
 20
89.044375
 30
0.0
 11
-58.615724
 21
72.634874
 31
0.0
  0
LINE
  5
7C2
100
AcDbEntity
  8
025-CENTER
100
AcDbLine
 10
58.615724
 20
90.737677
 30
0.0
 11
58.615724
 21
70.941571
 31
0.0
  0
POINT
  5
7C3
100
AcDbEntity
  8
MASSLINE_B57DAC0E87E391CB
  6
BYBLOCK
100
AcDbPoint
 10
0.0
 20
170.0
 30
0.0
  0
POINT
  5
7C4
100
AcDbEntity
  8
MASSLINE
  6
BYBLOCK
100
AcDbPoint
 10
0.0
 20
179.0
 30
0.0
  0
POINT
  5
7C5
100
AcDbEntity
  8
MASSLINE
  6
BYBLOCK
100
AcDbPoint
 10
0.0
 20
170.0
 30
0.0
  0
ARC
  5
7C6
100
AcDbEntity
  8
07-CONT
100
AcDbCircle
 10
-450.0
 20
0.0
 30
0.0
 40
600.0
100
AcDbArc
 50
350.968924
 51
9.031076
  0
ARC
  5
7C7
100
AcDbEntity
  8
07-CONT
100
AcDbCircle
 10
58.615724
 20
-80.839624
 30
0.0
 40
85.0
100
AcDbArc
 50
278.119763
 51
350.968924
  0
POINT
  5
7C8
100
AcDbEntity
  8
MASSLINE
  6
BYBLOCK
100
AcDbPoint
 10
150.0
 20
0.0
 30
0.0
  0
POINT
  5
7C9
100
AcDbEntity
  8
MASSLINE
  6
BYBLOCK
100
AcDbPoint
 10
150.0
 20
0.0
 30
0.0
  0
POINT
  5
7CA
100
AcDbEntity
  8
MASSLINE
  6
BYBLOCK
100
AcDbPoint
 10
164.992782
 20
0.0
 30
0.0
  0
POINT
  5
7CB
100
AcDbEntity
  8
MASSLINE
  6
BYBLOCK
100
AcDbPoint
 10
164.992782
 20
0.0
 30
0.0
  0
POINT
  5
7CC
100
AcDbEntity
  8
MASSLINE
  6
BYBLOCK
100
AcDbPoint
 10
159.0
 20
0.0
 30
0.0
  0
ARC
  5
7CD
100
AcDbEntity
  8
07-CONT
100
AcDbCircle
 10
58.615724
 20
80.839624
 30
0.0
 40
85.0
100
AcDbArc
 50
9.031076
 51
81.880237
  0
ENDBLK
  5
7CF
100
AcDbEntity
  8
V__025
100
AcDbBlockEnd
  0
BLOCK
  5
8BD
100
AcDbEntity
  8
V__070
100
AcDbBlockBegin
  2
BIB01BI_BIB031
 70
     0
 10
0.0
 20
0.0
 30
0.0
  3
BIB01BI_BIB031
  1

  0
ARC
  5
ACC
100
AcDbEntity
  8
07-CONT
100
AcDbCircle
 10
18.48
 20
47.7
 30
0.0
 40
250.0
100
AcDbArc
 50
3.557094
 51
46.749064
  0
LINE
  5
ACD
100
AcDbEntity
  8
M__025
100
AcDbLine
 10
0.0
 20
298.245317
 30
0.0
 11
0.0
 21
-227.094012
 31
0.0
  0
ARC
  5
ACE
100
AcDbEntity
  8
07-CONT
100
AcDbCircle
 10
-18.48
 20
47.7
 30
0.0
 40
250.0
100
AcDbArc
 50
133.250936
 51
176.442906
  0
CIRCLE
  5
ACF
100
AcDbEntity
  8
V__050
100
AcDbCircle
 10
0.0
 20
155.0
 30
0.0
 40
60.0
  0
CIRCLE
  5
AD0
100
AcDbEntity
  8
07-CONT
100
AcDbCircle
 10
0.0
 20
155.0
 30
0.0
 40
45.0
  0
ARC
  5
AD1
100
AcDbEntity
  8
07-CONT
100
AcDbCircle
 10
-730.0
 20
0.0
 30
0.0
 40
1000.0
100
AcDbArc
 50
352.988369
 51
3.624136
  0
ARC
  5
AD2
100
AcDbEntity
  8
07-CONT
100
AcDbCircle
 10
730.0
 20
0.0
 30
0.0
 40
1000.0
100
AcDbArc
 50
176.375864
 51
187.011631
  0
ARC
  5
AD3
100
AcDbEntity
  8
025-CONT
100
AcDbCircle
 10
730.0
 20
-0.00207
 30
0.0
 40
990.0
100
AcDbArc
 50
176.35364
 51
187.011631
  0
ARC
  5
AD4
100
AcDbEntity
  8
025-CONT
100
AcDbCircle
 10
730.0
 20
-0.00207
 30
0.0
 40
979.0
100
AcDbArc
 50
171.549771
 51
187.011631
  0
ARC
  5
AD5
100
AcDbEntity
  8
025-CONT
100
AcDbCircle
 10
-730.0
 20
-0.00207
 30
0.0
 40
990.0
100
AcDbArc
 50
352.988369
 51
3.64636
  0
ARC
  5
AD6
100
AcDbEntity
  8
025-CONT
100
AcDbCircle
 10
-730.0
 20
-0.00207
 30
0.0
 40
979.0
100
AcDbArc
 50
352.988369
 51
8.450229
  0
ARC
  5
AD7
100
AcDbEntity
  8
07-CONT
100
AcDbCircle
 10
0.0
 20
1795.0
 30
0.0
 40
2000.0
100
AcDbArc
 50
264.661916
 51
275.338084
  0
ARC
  5
AD8
100
AcDbEntity
  8
025-CONT
100
AcDbCircle
 10
0.0
 20
1794.99793
 30
0.0
 40
1990.0
100
AcDbArc
 50
264.661916
 51
270.0
  0
ARC
  5
AD9
100
AcDbEntity
  8
025-CONT
100
AcDbCircle
 10
0.0
 20
1794.99793
 30
0.0
 40
1979.0
100
AcDbArc
 50
264.661916
 51
270.0
  0
ARC
  5
ADA
100
AcDbEntity
  8
07-CONT
100
AcDbCircle
 10
-178.157074
 20
-111.694799
 30
0.0
 40
85.0
100
AcDbArc
 50
187.011631
 51
264.661916
  0
ARC
  5
ADB
100
AcDbEntity
  8
025-CONT
100
AcDbCircle
 10
-178.157074
 20
-111.69687
 30
0.0
 40
64.0
100
AcDbArc
 50
187.011631
 51
264.661916
  0
ARC
  5
ADC
100
AcDbEntity
  8
025-CONT
100
AcDbCircle
 10
-178.157074
 20
-111.69687
 30
0.0
 40
75.0
100
AcDbArc
 50
187.011631
 51
264.661916
  0
ARC
  5
ADD
100
AcDbEntity
  8
07-CONT
100
AcDbCircle
 10
178.157074
 20
-111.694799
 30
0.0
 40
85.0
100
AcDbArc
 50
275.338084
 51
352.988369
  0
ARC
  5
ADE
100
AcDbEntity
  8
025-CONT
100
AcDbCircle
 10
178.157074
 20
-111.69687
 30
0.0
 40
75.0
100
AcDbArc
 50
275.338084
 51
352.988369
  0
ARC
  5
ADF
100
AcDbEntity
  8
025-CONT
100
AcDbCircle
 10
178.157074
 20
-111.69687
 30
0.0
 40
64.0
100
AcDbArc
 50
275.338084
 51
352.988369
  0
ARC
  5
AE0
100
AcDbEntity
  8
025-CONT
100
AcDbCircle
 10
0.0
 20
1794.99793
 30
0.0
 40
1979.0
100
AcDbArc
 50
270.0
 51
275.338084
  0
ARC
  5
AE1
100
AcDbEntity
  8
025-CONT
100
AcDbCircle
 10
0.0
 20
1794.99793
 30
0.0
 40
1990.0
100
AcDbArc
 50
270.0
 51
275.338084
  0
LINE
  5
AE2
100
AcDbEntity
  8
M__025
100
AcDbLine
 10
292.856802
 20
0.0
 30
0.0
 11
-292.856802
 21
0.0
 31
0.0
  0
ARC
  5
AE3
100
AcDbEntity
  8
025-CONT
100
AcDbCircle
 10
-18.48
 20
47.69793
 30
0.0
 40
240.0
100
AcDbArc
 50
156.379025
 51
176.354
  0
ARC
  5
AE4
100
AcDbEntity
  8
025-CONT
100
AcDbCircle
 10
18.48
 20
47.69793
 30
0.0
 40
240.0
100
AcDbArc
 50
3.646
 51
23.620975
  0
ARC
  5
AE5
100
AcDbEntity
  8
07-CONT
100
AcDbCircle
 10
0.0
 20
-725.0
 30
0.0
 40
1000.0
100
AcDbArc
 50
84.125355
 51
95.874645
  0
ARC
  5
AE6
100
AcDbEntity
  8
07-CONT
100
AcDbCircle
 10
-86.999489
 20
120.535977
 30
0.0
 40
150.0
100
AcDbArc
 50
95.874645
 51
133.250936
  0
ARC
  5
AE7
100
AcDbEntity
  8
07-CONT
100
AcDbCircle
 10
86.999489
 20
120.535977
 30
0.0
 40
150.0
100
AcDbArc
 50
46.749064
 51
84.125355
  0
LINE
  5
AE8
100
AcDbEntity
  8
V__025
100
AcDbLine
 10
-78.655122
 20
155.0
 30
0.0
 11
78.655122
 21
155.0
 31
0.0
  0
ENDBLK
  5
8BE
100
AcDbEntity
  8
V__070
100
AcDbBlockEnd
  0
BLOCK
  5
8D8
100
AcDbEntity
  8
V__070
100
AcDbBlockBegin
  2
A$C7
 70
     0
 10
0.0
 20
0.0
 30
0.0
  3
A$C7
  1

  0
ARC
  5
8CA
100
AcDbEntity
  8
025-CONT
100
AcDbCircle
 10
-469.792308
 20
196.354087
 30
0.0
 40
979.0
100
AcDbArc
 50
352.988369
 51
8.450229
  0
ARC
  5
8CB
100
AcDbEntity
  8
025-CONT
100
AcDbCircle
 10
-469.792308
 20
196.354087
 30
0.0
 40
990.0
100
AcDbArc
 50
352.988369
 51
3.64636
  0
ARC
  5
8CC
100
AcDbEntity
  8
025-CONT
100
AcDbCircle
 10
278.687692
 20
244.054087
 30
0.0
 40
240.0
100
AcDbArc
 50
3.646
 51
23.620975
  0
ARC
  5
8CD
100
AcDbEntity
  8
025-CONT
100
AcDbCircle
 10
438.364766
 20
84.659288
 30
0.0
 40
64.0
100
AcDbArc
 50
275.338084
 51
352.988369
  0
ARC
  5
8CE
100
AcDbEntity
  8
025-CONT
100
AcDbCircle
 10
438.364766
 20
84.659288
 30
0.0
 40
75.0
100
AcDbArc
 50
275.338084
 51
352.988369
  0
ARC
  5
8CF
100
AcDbEntity
  8
025-CONT
100
AcDbCircle
 10
260.207692
 20
1991.354087
 30
0.0
 40
1990.0
100
AcDbArc
 50
270.0
 51
275.338084
  0
ARC
  5
8D0
100
AcDbEntity
  8
025-CONT
100
AcDbCircle
 10
260.207692
 20
1991.354087
 30
0.0
 40
1979.0
100
AcDbArc
 50
270.0
 51
275.338084
  0
ARC
  5
8D1
100
AcDbEntity
  8
025-CONT
100
AcDbCircle
 10
260.207692
 20
1991.354087
 30
0.0
 40
1979.0
100
AcDbArc
 50
264.661916
 51
270.0
  0
ARC
  5
8D2
100
AcDbEntity
  8
025-CONT
100
AcDbCircle
 10
260.207692
 20
1991.354087
 30
0.0
 40
1990.0
100
AcDbArc
 50
264.661916
 51
270.0
  0
ARC
  5
8D3
100
AcDbEntity
  8
025-CONT
100
AcDbCircle
 10
82.050617
 20
84.659288
 30
0.0
 40
75.0
100
AcDbArc
 50
187.011631
 51
264.661916
  0
ARC
  5
8D4
100
AcDbEntity
  8
025-CONT
100
AcDbCircle
 10
82.050617
 20
84.659288
 30
0.0
 40
64.0
100
AcDbArc
 50
187.011631
 51
264.661916
  0
ARC
  5
8D5
100
AcDbEntity
  8
025-CONT
100
AcDbCircle
 10
990.207692
 20
196.354087
 30
0.0
 40
979.0
100
AcDbArc
 50
171.549771
 51
187.011631
  0
ARC
  5
8D6
100
AcDbEntity
  8
025-CONT
100
AcDbCircle
 10
990.207692
 20
196.354087
 30
0.0
 40
990.0
100
AcDbArc
 50
176.35364
 51
187.011631
  0
ARC
  5
8D7
100
AcDbEntity
  8
025-CONT
100
AcDbCircle
 10
241.727692
 20
244.054087
 30
0.0
 40
240.0
100
AcDbArc
 50
156.379025
 51
176.354
  0
ENDBLK
  5
8D9
100
AcDbEntity
  8
V__070
100
AcDbBlockEnd
  0
ENDSEC
  0
SECTION
  2
ENTITIES
  0
INSERT
  5
5
100
AcDbEntity
  8
AME_FRZ
100
AcDbBlockReference
  2
AME_NIL
 10
0.0
 20
0.0
 30
0.0
  0
INSERT
  5
9
100
AcDbEntity
  8
AME_FRZ
100
AcDbBlockReference
  2
AME_SOL
 10
0.0
 20
0.0
 30
0.0
1001
AME_SOL
1000
R2.1
1000
AME2
1000
cm^ 2
1070
     3
1070
     0
1070
     3
1000
wire
1040
45.0
1000
B
1040
1.0
1000
cm
1000
gm
1000
MILD_STEEL
1070
    25
1000
CSG
1070
     1
1070
     3
1070
     3
1070
     3
1070
     0
1000
cm^ 3
1070
     6
1070
     0
1005
5
  0
LINE
  5
394
100
AcDbEntity
  8
M__025
100
AcDbLine
 10
292.856802
 20
0.0
 30
0.0
 11
-292.856802
 21
0.0
 31
0.0
  0
ARC
  5
395
100
AcDbEntity
  8
07-CONT
100
AcDbCircle
 10
-86.999489
 20
120.535977
 30
0.0
 40
150.0
100
AcDbArc
 50
95.874645
 51
133.250936
  0
ARC
  5
397
100
AcDbEntity
  8
07-CONT
100
AcDbCircle
 10
0.0
 20
1795.0
 30
0.0
 40
2000.0
100
AcDbArc
 50
264.661916
 51
275.338084
  0
ARC
  5
399
100
AcDbEntity
  8
07-CONT
100
AcDbCircle
 10
-18.48
 20
47.7
 30
0.0
 40
250.0
100
AcDbArc
 50
133.250936
 51
176.442906
  0
ARC
  5
39B
100
AcDbEntity
  8
07-CONT
100
AcDbCircle
 10
730.0
 20
0.0
 30
0.0
 40
1000.0
100
AcDbArc
 50
176.375864
 51
187.011631
  0
ARC
  5
39D
100
AcDbEntity
  8
07-CONT
100
AcDbCircle
 10
-178.157074
 20
-111.694799
 30
0.0
 40
85.0
100
AcDbArc
 50
187.011631
 51
264.661916
  0
LINE
  5
39F
100
AcDbEntity
  8
V__025
  6
CONTINUOUS
100
AcDbLine
 10
-184.157074
 20
-111.694799
 30
0.0
 11
-172.157074
 21
-111.694799
 31
0.0
  0
LINE
  5
3A0
100
AcDbEntity
  8
V__025
  6
CONTINUOUS
100
AcDbLine
 10
-178.157074
 20
-117.694799
 30
0.0
 11
-178.157074
 21
-105.694799
 31
0.0
  0
ARC
  5
3A3
100
AcDbEntity
  8
07-CONT
100
AcDbCircle
 10
18.48
 20
47.7
 30
0.0
 40
250.0
100
AcDbArc
 50
3.557094
 51
46.749064
  0
LINE
  5
3A5
100
AcDbEntity
  8
M__025
100
AcDbLine
 10
0.0
 20
298.245317
 30
0.0
 11
0.0
 21
-227.094012
 31
0.0
  0
ARC
  5
3AB
100
AcDbEntity
  8
07-CONT
100
AcDbCircle
 10
-730.0
 20
0.0
 30
0.0
 40
1000.0
100
AcDbArc
 50
352.988369
 51
3.624136
  0
LINE
  5
3AC
100
AcDbEntity
  8
V__025
  6
CONTINUOUS
100
AcDbLine
 10
172.157074
 20
-111.694799
 30
0.0
 11
184.157074
 21
-111.694799
 31
0.0
  0
ARC
  5
3AD
100
AcDbEntity
  8
07-CONT
100
AcDbCircle
 10
178.157074
 20
-111.694799
 30
0.0
 40
85.0
100
AcDbArc
 50
275.338084
 51
352.988369
  0
LINE
  5
3AE
100
AcDbEntity
  8
V__025
  6
CONTINUOUS
100
AcDbLine
 10
178.157074
 20
-117.694799
 30
0.0
 11
178.157074
 21
-105.694799
 31
0.0
  0
ARC
  5
3B2
100
AcDbEntity
  8
07-CONT
100
AcDbCircle
 10
0.0
 20
-725.0
 30
0.0
 40
1000.0
100
AcDbArc
 50
84.125355
 51
95.874645
  0
ARC
  5
3B4
100
AcDbEntity
  8
07-CONT
100
AcDbCircle
 10
86.999489
 20
120.535977
 30
0.0
 40
150.0
100
AcDbArc
 50
46.749064
 51
84.125355
  0
DIMENSION
  5
3CA
100
AcDbEntity
  8
B__3B9
100
AcDbDimension
  2
*D4
 10
0.0
 20
-249.015919
 30
0.0
 11
-89.078537
 21
-234.015919
 31
0.0
 70
    32
  3
B__3B9
100
AcDbAlignedDimension
 13
-178.157074
 23
-117.694799
 33
0.0
 14
0.0
 24
-227.094012
 34
0.0
100
AcDbRotatedDimension
  0
DIMENSION
  5
3D6
100
AcDbEntity
  8
B__3B9
100
AcDbDimension
  2
*D5
 10
178.157074
 20
-249.015919
 30
0.0
 11
89.078537
 21
-234.015919
 31
0.0
 70
    32
  3
B__3B9
100
AcDbAlignedDimension
 13
0.0
 23
-227.094012
 33
0.0
 14
178.157074
 24
-117.694799
 34
0.0
100
AcDbRotatedDimension
1001
ACAD
1000
DSTYLE
1002
{
1070
    75
1070
     1
1070
   287
1070
     4
1002
}
  0
LINE
  5
3D9
100
AcDbEntity
  8
B__3B9
  6
CONTINUOUS
 62
     4
100
AcDbLine
 10
-28.48
 20
47.7
 30
0.0
 11
-8.48
 21
47.7
 31
0.0
  0
LINE
  5
3DA
100
AcDbEntity
  8
B__3B9
  6
CONTINUOUS
 62
     4
100
AcDbLine
 10
-18.48
 20
37.7
 30
0.0
 11
-18.48
 21
57.7
 31
0.0
  0
LINE
  5
3DB
100
AcDbEntity
  8
B__3B9
  6
CONTINUOUS
 62
     4
100
AcDbLine
 10
8.48
 20
47.7
 30
0.0
 11
28.48
 21
47.7
 31
0.0
  0
LINE
  5
3DC
100
AcDbEntity
  8
B__3B9
  6
CONTINUOUS
 62
     4
100
AcDbLine
 10
18.48
 20
37.7
 30
0.0
 11
18.48
 21
57.7
 31
0.0
  0
LINE
  5
3DD
100
AcDbEntity
  8
B__3B9
  6
CONTINUOUS
 62
     4
100
AcDbLine
 10
-96.999489
 20
120.535977
 30
0.0
 11
-76.999489
 21
120.535977
 31
0.0
  0
LINE
  5
3DE
100
AcDbEntity
  8
B__3B9
  6
CONTINUOUS
 62
     4
100
AcDbLine
 10
-86.999489
 20
110.535977
 30
0.0
 11
-86.999489
 21
130.535977
 31
0.0
  0
LINE
  5
3DF
100
AcDbEntity
  8
B__3B9
  6
CONTINUOUS
 62
     4
100
AcDbLine
 10
76.999489
 20
120.535977
 30
0.0
 11
96.999489
 21
120.535977
 31
0.0
  0
LINE
  5
3E0
100
AcDbEntity
  8
B__3B9
  6
CONTINUOUS
 62
     4
100
AcDbLine
 10
86.999489
 20
110.535977
 30
0.0
 11
86.999489
 21
130.535977
 31
0.0
  0
DIMENSION
  5
3ED
100
AcDbEntity
  8
B__3B9
100
AcDbDimension
  2
*D6
 10
270.0
 20
-289.320771
 30
0.0
 11
0.0
 21
-274.320771
 31
0.0
 70
    32
  3
B__3B9
100
AcDbAlignedDimension
 13
-270.0
 23
0.0
 33
0.0
 14
270.0
 24
0.0
 34
0.0
100
AcDbRotatedDimension
  0
DIMENSION
  5
3FA
100
AcDbEntity
  8
B__3B9
100
AcDbDimension
  2
*D7
 10
314.01563
 20
0.0
 30
0.0
 11
299.01563
 21
-55.8474
 31
0.0
 70
    32
  3
B__3B9
100
AcDbAlignedDimension
 13
184.157074
 23
-111.694799
 33
0.0
 14
292.856802
 24
0.0
 34
0.0
 50
90.0
100
AcDbRotatedDimension
  0
DIMENSION
  5
416
100
AcDbEntity
  8
B__3B9
100
AcDbDimension
  2
*D8
 10
357.293406
 20
120.535977
 30
0.0
 11
342.293406
 21
60.267989
 31
0.0
 70
    32
  3
B__3B9
100
AcDbAlignedDimension
 13
309.01563
 23
0.0
 33
0.0
 14
96.999489
 24
120.535977
 34
0.0
 50
90.0
100
AcDbRotatedDimension
  0
LINE
  5
417
100
AcDbEntity
  8
0
  6
BYBLOCK
 62
     4
100
AcDbLine
 10
314.01563
 20
0.0
 30
0.0
 11
309.01563
 21
0.0
 31
0.0
  0
LINE
  5
418
100
AcDbEntity
  8
0
  6
BYBLOCK
 62
     4
100
AcDbLine
 10
28.48
 20
47.7
 30
0.0
 11
319.01563
 21
47.7
 31
0.0
  0
LINE
  5
419
100
AcDbEntity
  8
0
  6
BYBLOCK
 62
     4
100
AcDbLine
 10
314.01563
 20
-17.5
 30
0.0
 11
314.01563
 21
-35.0
 31
0.0
  0
LINE
  5
41A
100
AcDbEntity
  8
0
  6
BYBLOCK
 62
     4
100
AcDbLine
 10
314.01563
 20
65.2
 30
0.0
 11
314.01563
 21
104.880335
 31
0.0
  0
LINE
  5
41B
100
AcDbEntity
  8
0
  6
BYBLOCK
 62
     4
100
AcDbLine
 10
314.01563
 20
0.0
 30
0.0
 11
314.01563
 21
47.7
 31
0.0
  0
SOLID
  5
41C
100
AcDbEntity
  8
0
  6
BYBLOCK
 62
     4
100
AcDbTrace
 10
311.098964
 20
-17.5
 30
0.0
 11
316.932297
 21
-17.5
 31
0.0
 12
314.01563
 22
0.0
 32
0.0
 13
314.01563
 23
0.0
 33
0.0
  0
SOLID
  5
41D
100
AcDbEntity
  8
0
  6
BYBLOCK
 62
     4
100
AcDbTrace
 10
311.098964
 20
65.2
 30
0.0
 11
316.932297
 21
65.2
 31
0.0
 12
314.01563
 22
47.7
 32
0.0
 13
314.01563
 23
47.7
 33
0.0
  0
MTEXT
  5
41E
100
AcDbEntity
  8
0
  6
BYBLOCK
 62
     3
100
AcDbMText
 10
299.01563
 20
84.648007
 30
0.0
 40
17.5
 41
0.0
 71
     5
 72
     1
  1
\A1;47.7
  7
VSM_00
 11
0.0
 21
1.0
 31
0.0
  0
POINT
  5
41F
100
AcDbEntity
  8
DEFPOINTS
  6
BYBLOCK
 62
     0
100
AcDbPoint
 10
314.01563
 20
0.0
 30
0.0
  0
POINT
  5
420
100
AcDbEntity
  8
DEFPOINTS
  6
BYBLOCK
 62
     0
100
AcDbPoint
 10
28.48
 20
47.7
 30
0.0
  0
POINT
  5
421
100
AcDbEntity
  8
DEFPOINTS
  6
BYBLOCK
 62
     0
100
AcDbPoint
 10
314.01563
 20
47.7
 30
0.0
  0
DIMENSION
  5
42E
100
AcDbEntity
  8
B__3B9
100
AcDbDimension
  2
*D9
 10
399.587594
 20
0.0
 30
0.0
 11
384.587594
 21
-102.5
 31
0.0
 70
    32
  3
B__3B9
100
AcDbAlignedDimension
 13
0.0
 23
-205.0
 33
0.0
 14
357.293406
 24
0.0
 34
0.0
 50
90.0
100
AcDbRotatedDimension
  0
DIMENSION
  5
43B
100
AcDbEntity
  8
B__3B9
100
AcDbDimension
  2
*D10
 10
399.587594
 20
275.0
 30
0.0
 11
384.587594
 21
137.5
 31
0.0
 70
    32
  3
B__3B9
100
AcDbAlignedDimension
 13
404.587594
 23
0.0
 33
0.0
 14
0.0
 24
275.0
 34
0.0
 50
90.0
100
AcDbRotatedDimension
  0
DIMENSION
  5
448
100
AcDbEntity
  8
B__3B9
100
AcDbDimension
  2
*D11
 10
445.816126
 20
275.0
 30
0.0
 11
430.816126
 21
35.0
 31
0.0
 70
    32
  3
B__3B9
100
AcDbAlignedDimension
 13
399.587594
 23
-205.0
 33
0.0
 14
399.587594
 24
275.0
 34
0.0
 50
90.0
100
AcDbRotatedDimension
  0
LINE
  5
465
100
AcDbEntity
  8
0
  6
BYBLOCK
 62
     4
100
AcDbLine
 10
-18.48
 20
57.7
 30
0.0
 11
-18.48
 21
309.438501
 31
0.0
  0
LINE
  5
466
100
AcDbEntity
  8
0
  6
BYBLOCK
 62
     4
100
AcDbLine
 10
0.0
 20
298.245317
 30
0.0
 11
0.0
 21
309.438501
 31
0.0
  0
LINE
  5
467
100
AcDbEntity
  8
0
  6
BYBLOCK
 62
     4
100
AcDbLine
 10
17.5
 20
304.438501
 30
0.0
 11
35.0
 21
304.438501
 31
0.0
  0
LINE
  5
468
100
AcDbEntity
  8
0
  6
BYBLOCK
 62
     4
100
AcDbLine
 10
-35.98
 20
304.438501
 30
0.0
 11
-74.500758
 21
304.438501
 31
0.0
  0
LINE
  5
469
100
AcDbEntity
  8
0
  6
BYBLOCK
 62
     4
100
AcDbLine
 10
0.0
 20
304.438501
 30
0.0
 11
-18.48
 21
304.438501
 31
0.0
  0
SOLID
  5
46B
100
AcDbEntity
  8
0
  6
BYBLOCK
 62
     4
100
AcDbTrace
 10
-35.98
 20
307.355168
 30
0.0
 11
-35.98
 21
301.521835
 31
0.0
 12
-18.48
 22
304.438501
 32
0.0
 13
-18.48
 23
304.438501
 33
0.0
  0
MTEXT
  5
46C
100
AcDbEntity
  8
0
  6
BYBLOCK
 62
     3
100
AcDbMText
 10
-49.087198
 20
319.438501
 30
0.0
 40
17.5
 41
0.0
 71
     5
 72
     1
  1
\A1;18.48
  7
VSM_00
  0
POINT
  5
46D
100
AcDbEntity
  8
DEFPOINTS
  6
BYBLOCK
 62
     0
100
AcDbPoint
 10
-18.48
 20
57.7
 30
0.0
  0
POINT
  5
46E
100
AcDbEntity
  8
DEFPOINTS
  6
BYBLOCK
 62
     0
100
AcDbPoint
 10
0.0
 20
298.245317
 30
0.0
  0
POINT
  5
46F
100
AcDbEntity
  8
DEFPOINTS
  6
BYBLOCK
 62
     0
100
AcDbPoint
 10
0.0
 20
304.438501
 30
0.0
  0
LINE
  5
47F
100
AcDbEntity
  8
0
  6
BYBLOCK
 62
     4
100
AcDbLine
 10
0.0
 20
304.438501
 30
0.0
 11
0.0
 21
309.438501
 31
0.0
  0
LINE
  5
480
100
AcDbEntity
  8
0
  6
BYBLOCK
 62
     4
100
AcDbLine
 10
18.48
 20
57.7
 30
0.0
 11
18.48
 21
309.438501
 31
0.0
  0
LINE
  5
481
100
AcDbEntity
  8
0
  6
BYBLOCK
 62
     4
100
AcDbLine
 10
-17.5
 20
304.438501
 30
0.0
 11
-35.0
 21
304.438501
 31
0.0
  0
LINE
  5
482
100
AcDbEntity
  8
0
  6
BYBLOCK
 62
     4
100
AcDbLine
 10
35.98
 20
304.438501
 30
0.0
 11
72.2425
 21
304.438501
 31
0.0
  0
LINE
  5
483
100
AcDbEntity
  8
0
  6
BYBLOCK
 62
     4
100
AcDbLine
 10
0.0
 20
304.438501
 30
0.0
 11
18.48
 21
304.438501
 31
0.0
  0
SOLID
  5
485
100
AcDbEntity
  8
0
  6
BYBLOCK
 62
     4
100
AcDbTrace
 10
35.98
 20
307.355168
 30
0.0
 11
35.98
 21
301.521835
 31
0.0
 12
18.48
 22
304.438501
 32
0.0
 13
18.48
 23
304.438501
 33
0.0
  0
MTEXT
  5
486
100
AcDbEntity
  8
0
  6
BYBLOCK
 62
     3
100
AcDbMText
 10
49.517755
 20
320.421547
 30
0.0
 40
17.5
 41
0.0
 71
     5
 72
     1
  1
\A1;18.48
  7
VSM_00
  0
POINT
  5
487
100
AcDbEntity
  8
DEFPOINTS
  6
BYBLOCK
 62
     0
100
AcDbPoint
 10
0.0
 20
304.438501
 30
0.0
  0
POINT
  5
488
100
AcDbEntity
  8
DEFPOINTS
  6
BYBLOCK
 62
     0
100
AcDbPoint
 10
18.48
 20
57.7
 30
0.0
  0
POINT
  5
489
100
AcDbEntity
  8
DEFPOINTS
  6
BYBLOCK
 62
     0
100
AcDbPoint
 10
18.48
 20
304.438501
 30
0.0
  0
POLYLINE
  5
48A
100
AcDbEntity
  8
0
100
AcDb2dPolyline
 66
     1
 10
0.0
 20
0.0
 30
0.0
 70
     1
 40
1.25
 41
1.25
  0
VERTEX
  5
48B
100
AcDbEntity
  8
0
100
AcDbVertex
100
AcDb2dVertex
 10
-0.875
 20
304.438501
 30
0.0
 42
1.0
  0
VERTEX
  5
48C
100
AcDbEntity
  8
0
100
AcDbVertex
100
AcDb2dVertex
 10
0.875
 20
304.438501
 30
0.0
 42
1.0
  0
SEQEND
  5
48D
100
AcDbEntity
  8
0
  0
DIMENSION
  5
49A
100
AcDbEntity
  8
B__3B9
100
AcDbDimension
  2
*D12
 10
0.0
 20
340.811172
 30
0.0
 11
-43.499745
 21
355.811172
 31
0.0
 70
    32
  3
B__3B9
100
AcDbAlignedDimension
 13
-86.999489
 23
130.535977
 33
0.0
 14
0.0
 24
309.438501
 34
0.0
100
AcDbRotatedDimension
  0
DIMENSION
  5
4A6
100
AcDbEntity
  8
B__3B9
100
AcDbDimension
  2
*D13
 10
86.999489
 20
340.811172
 30
0.0
 11
43.499745
 21
355.811172
 31
0.0
 70
    32
  3
B__3B9
100
AcDbAlignedDimension
 13
0.0
 23
309.438501
 33
0.0
 14
86.999489
 24
130.535977
 34
0.0
100
AcDbRotatedDimension
1001
ACAD
1000
DSTYLE
1002
{
1070
    75
1070
     1
1070
   287
1070
     4
1002
}
  0
DIMENSION
  5
4AF
100
AcDbEntity
  8
B__3B9
100
AcDbDimension
  2
*D14
 10
-178.157074
 20
-111.694799
 30
0.0
 11
-220.3146
 21
-127.631958
 31
0.0
 70
    36
  3
B__3B9
100
AcDbRadialDimension
 15
-243.12898
 25
-166.500379
 35
0.0
 40
0.0
  0
DIMENSION
  5
4CA
100
AcDbEntity
  8
B__3B9
100
AcDbDimension
  2
*D15
 10
-18.48
 20
47.7
 30
0.0
 11
-119.124177
 21
123.335637
 31
0.0
 70
    36
  3
B__3B9
100
AcDbRadialDimension
 15
-234.805816
 25
173.012176
 35
0.0
 40
0.0
  0
DIMENSION
  5
4D3
100
AcDbEntity
  8
B__3B9
100
AcDbDimension
  2
*D16
 10
-86.999489
 20
120.535977
 30
0.0
 11
-109.011537
 21
193.785344
 31
0.0
 70
    36
  3
B__3B9
100
AcDbRadialDimension
 15
-157.503184
 25
252.933972
 35
0.0
 40
0.0
  0
SOLID
  5
4DE
100
AcDbEntity
  8
0
  6
BYBLOCK
 62
     4
100
AcDbTrace
 10
-67.0193
 20
-186.369014
 30
0.0
 11
-61.189017
 21
-186.557635
 31
0.0
 12
-64.670022
 22
-203.954174
 32
0.0
 13
-64.670022
 23
-203.954174
 33
0.0
  0
MTEXT
  5
4DF
100
AcDbEntity
  8
0
  6
BYBLOCK
 62
     3
100
AcDbMText
 10
-75.851156
 20
-150.638702
 30
0.0
 40
17.5
 41
0.0
 71
     5
 72
     1
  1
\A1;R2000
  7
VSM_00
 11
0.032335
 21
0.999477
 31
0.0
  0
POINT
  5
4E0
100
AcDbEntity
  8
DEFPOINTS
  6
BYBLOCK
 62
     0
100
AcDbPoint
 10
-64.670022
 20
-203.954174
 30
0.0
  0
POINT
  5
4E1
100
AcDbEntity
  8
DEFPOINTS
  6
BYBLOCK
 62
     0
100
AcDbPoint
 10
0.0
 20
1795.0
 30
0.0
  0
SOLID
  5
4E3
100
AcDbEntity
  8
0
  6
BYBLOCK
 62
     4
100
AcDbTrace
 10
58.767592
 20
255.74519
 30
0.0
 11
64.58942
 21
255.37899
 31
0.0
 12
62.777106
 22
273.027572
 32
0.0
 13
62.777106
 23
273.027572
 33
0.0
  0
MTEXT
  5
4E4
100
AcDbEntity
  8
0
  6
BYBLOCK
 62
     3
100
AcDbMText
 10
46.909305
 20
223.224031
 30
0.0
 40
17.5
 41
0.0
 71
     5
 72
     1
  1
\A1;R1000
  7
VSM_00
 11
0.062777
 21
0.998028
 31
0.0
  0
POINT
  5
4E5
100
AcDbEntity
  8
DEFPOINTS
  6
BYBLOCK
 62
     0
100
AcDbPoint
 10
62.777106
 20
273.027572
 30
0.0
  0
POINT
  5
4E6
100
AcDbEntity
  8
DEFPOINTS
  6
BYBLOCK
 62
     0
100
AcDbPoint
 10
0.0
 20
-725.0
 30
0.0
  0
SOLID
  5
4E8
100
AcDbEntity
  8
0
  6
BYBLOCK
 62
     4
100
AcDbTrace
 10
-251.070868
 20
-53.053827
 30
0.0
 11
-250.738586
 21
-58.877689
 31
0.0
 12
-268.376313
 22
-56.962603
 32
0.0
 13
-268.376313
 23
-56.962603
 33
0.0
  0
MTEXT
  5
4E9
100
AcDbEntity
  8
0
  6
BYBLOCK
 62
     3
100
AcDbMText
 10
-216.590549
 20
-42.99701
 30
0.0
 40
17.5
 41
0.0
 71
     5
 72
     1
  1
\A1;R1000
  7
VSM_00
 11
0.998376
 21
0.056963
 31
0.0
  0
POINT
  5
4EA
100
AcDbEntity
  8
DEFPOINTS
  6
BYBLOCK
 62
     0
100
AcDbPoint
 10
-268.376313
 20
-56.962603
 30
0.0
  0
POINT
  5
4EB
100
AcDbEntity
  8
DEFPOINTS
  6
BYBLOCK
 62
     0
100
AcDbPoint
 10
730.0
 20
0.0
 30
0.0
  0
LINE
  5
4EC
100
AcDbEntity
  8
0
  6
BYBLOCK
 62
     4
100
AcDbLine
 10
134.035062
 20
-34.002924
 30
0.0
 11
-250.904727
 21
-55.965758
 31
0.0
  0
LINE
  5
4ED
100
AcDbEntity
  8
0
  6
BYBLOCK
 62
     4
100
AcDbLine
 10
39.524614
 20
-96.639482
 30
0.0
 11
61.678506
 21
255.56209
 31
0.0
  0
LINE
  5
4EE
100
AcDbEntity
  8
0
  6
BYBLOCK
 62
     4
100
AcDbLine
 10
-54.424626
 20
112.731612
 30
0.0
 11
-64.104159
 21
-186.463325
 31
0.0
  0
LINE
  5
4F0
100
AcDbEntity
  8
V__025
100
AcDbLine
 10
-54.424626
 20
112.731612
 30
0.0
 11
-9.584099
 21
73.422891
 31
0.0
  0
LINE
  5
4F1
100
AcDbEntity
  8
V__025
100
AcDbLine
 10
-9.584099
 20
73.422891
 30
0.0
 11
0.251761
 21
257.252336
 31
0.0
  0
LINE
  5
4F2
100
AcDbEntity
  8
V__025
100
AcDbLine
 10
0.251761
 20
257.252336
 30
0.0
 11
-7.616921
 21
257.252336
 31
0.0
  0
LINE
  5
4F3
100
AcDbEntity
  8
V__025
100
AcDbLine
 10
-7.616921
 20
257.252336
 30
0.0
 11
9.104031
 21
257.252336
 31
0.0
  0
LINE
  5
4F4
100
AcDbEntity
  8
V__025
100
AcDbLine
 10
134.035062
 20
-34.002924
 30
0.0
 11
89.758073
 21
-9.152904
 31
0.0
  0
LINE
  5
4F5
100
AcDbEntity
  8
V__025
100
AcDbLine
 10
89.758073
 20
-9.152904
 30
0.0
 11
246.148213
 21
-0.305495
 31
0.0
  0
LINE
  5
4F6
100
AcDbEntity
  8
V__025
100
AcDbLine
 10
246.148213
 20
-0.305495
 30
0.0
 11
246.148213
 21
4.609733
 31
0.0
  0
LINE
  5
4F7
100
AcDbEntity
  8
V__025
100
AcDbLine
 10
246.148213
 20
4.609733
 30
0.0
 11
246.148213
 21
-7.186814
 31
0.0
  0
LINE
  5
4F8
100
AcDbEntity
  8
V__025
100
AcDbLine
 10
39.524614
 20
-96.639482
 30
0.0
 11
6.153274
 21
-60.27125
 31
0.0
  0
LINE
  5
4F9
100
AcDbEntity
  8
V__025
100
AcDbLine
 10
6.153274
 20
-60.27125
 30
0.0
 11
0.251761
 21
-192.982343
 31
0.0
  0
LINE
  5
4FA
100
AcDbEntity
  8
V__025
100
AcDbLine
 10
0.251761
 20
-192.982343
 30
0.0
 11
-5.649753
 21
-192.982343
 31
0.0
  0
LINE
  5
4FB
100
AcDbEntity
  8
V__025
100
AcDbLine
 10
-5.649753
 20
-192.982343
 30
0.0
 11
11.071208
 21
-192.982343
 31
0.0
  0
DIMENSION
  5
50A
100
AcDbEntity
  8
B__3B9
100
AcDbDimension
  2
*D17
 10
-380.126048
 20
-242.329683
 30
0.0
 11
-335.288186
 21
-273.483896
 31
0.0
 70
    37
  3
B__3B9
100
AcDb3PointAngularDimension
 13
-262.521393
 23
-122.070819
 33
0.0
 14
-186.06483
 24
-196.326161
 34
0.0
 15
-178.157074
 25
-111.694799
 35
0.0
  0
DIMENSION
  5
518
100
AcDbEntity
  8
B__3B9
100
AcDbDimension
  2
*D18
 10
-384.055627
 20
1.533752
 30
0.0
 11
-383.100802
 21
-46.139974
 31
0.0
 70
   165
  3
B__3B9
100
AcDb3PointAngularDimension
 13
-268.000189
 23
63.21094
 33
0.0
 14
-262.521393
 24
-122.070819
 34
0.0
 15
730.0
 25
0.0
 35
0.0
  0
DIMENSION
  5
526
100
AcDbEntity
  8
B__3B9
100
AcDbDimension
  2
*D19
 10
-324.559817
 20
241.582715
 30
0.0
 11
-360.020268
 21
208.075153
 31
0.0
 70
    37
  3
B__3B9
100
AcDb3PointAngularDimension
 13
-189.778723
 23
229.789943
 33
0.0
 14
-267.998367
 24
63.210783
 34
0.0
 15
-18.48
 25
47.7
 35
0.0
  0
DIMENSION
  5
534
100
AcDbEntity
  8
B__3B9
100
AcDbDimension
  2
*D20
 10
-168.685359
 20
367.048969
 30
0.0
 11
-201.18731
 21
370.37235
 31
0.0
 70
    37
  3
B__3B9
100
AcDb3PointAngularDimension
 13
-102.35234
 23
269.748209
 33
0.0
 14
-189.778723
 24
229.789943
 34
0.0
 15
-86.999489
 25
120.535977
 35
0.0
  0
DIMENSION
  5
542
100
AcDbEntity
  8
B__3B9
100
AcDbDimension
  2
*D21
 10
37.915067
 20
383.932103
 30
0.0
 11
0.0
 21
399.580084
 31
0.0
 70
    37
  3
B__3B9
100
AcDb3PointAngularDimension
 13
102.35234
 23
269.748209
 33
0.0
 14
-102.35234
 24
269.748209
 34
0.0
 15
0.0
 25
-725.0
 35
0.0
  0
LINE
  5
543
100
AcDbEntity
  8
V__025
100
AcDbLine
 10
-262.521393
 20
-122.070819
 30
0.0
 11
-178.157074
 21
-111.694799
 31
0.0
  0
LINE
  5
544
100
AcDbEntity
  8
V__025
100
AcDbLine
 10
-186.06483
 20
-196.326161
 30
0.0
 11
-178.157074
 21
-111.694799
 31
0.0
  0
LINE
  5
546
100
AcDbEntity
  8
V__025
100
AcDbLine
 10
-178.157074
 20
-111.694799
 30
0.0
 11
-178.157074
 21
-307.87575
 31
0.0
  0
DIMENSION
  5
556
100
AcDbEntity
  8
B__3B9
100
AcDbDimension
  2
*D22
 10
-178.157074
 20
-111.694799
 30
0.0
 11
-306.290899
 21
-65.458518
 31
0.0
 70
    34
  3
B__3B9
100
AcDb2LineAngularDimension
 13
-178.157074
 23
-111.694799
 33
0.0
 14
-337.609959
 24
-111.694799
 34
0.0
 15
-262.521393
 25
-122.070819
 35
0.0
 16
-329.003582
 26
-122.325974
 36
0.0
  0
LINE
  5
569
100
AcDbEntity
  8
V__025
100
AcDbLine
 10
-18.48
 20
47.7
 30
0.0
 11
-321.626693
 21
47.7
 31
0.0
  0
DIMENSION
  5
57A
100
AcDbEntity
  8
B__3B9
100
AcDbDimension
  2
*D23
 10
-332.692034
 20
47.7
 30
0.0
 11
-319.086202
 21
122.736881
 31
0.0
 70
    34
  3
B__3B9
100
AcDb2LineAngularDimension
 13
-267.998367
 23
63.210783
 33
0.0
 14
-18.48
 24
47.7
 34
0.0
 15
-18.48
 25
47.7
 35
0.0
 16
-313.020315
 26
60.766187
 36
0.0
  0
LINE
  5
57B
100
AcDbEntity
  8
V__025
100
AcDbLine
 10
-86.999489
 20
120.535977
 30
0.0
 11
-86.999489
 21
356.908539
 31
0.0
  0
LINE
  5
57C
100
AcDbEntity
  8
V__025
100
AcDbLine
 10
-102.35234
 20
269.748209
 30
0.0
 11
-86.999489
 21
120.535977
 31
0.0
  0
LINE
  5
59C
100
AcDbEntity
  8
0
  6
BYBLOCK
 62
     4
100
AcDbLine
 10
-102.35234
 20
269.748209
 30
0.0
 11
-110.089484
 21
344.944435
 31
0.0
  0
ARC
  5
59E
100
AcDbEntity
  8
0
  6
BYBLOCK
 62
     4
100
AcDbCircle
 10
-86.999489
 20
120.535977
 30
0.0
 40
220.593227
100
AcDbArc
 50
100.4212
 51
104.967755
  0
ARC
  5
59F
100
AcDbEntity
  8
0
  6
BYBLOCK
 62
     4
100
AcDbCircle
 10
-86.999489
 20
120.535977
 30
0.0
 40
220.593227
100
AcDbArc
 50
90.0
 51
95.874645
  0
SOLID
  5
5A0
100
AcDbEntity
  8
0
  6
BYBLOCK
 62
     4
100
AcDbTrace
 10
-69.628954
 20
337.520682
 30
0.0
 11
-69.39757
 21
343.349424
 31
0.0
 12
-86.999489
 22
341.129204
 32
0.0
 13
-86.999489
 23
341.129204
 33
0.0
  0
SOLID
  5
5A1
100
AcDbEntity
  8
0
  6
BYBLOCK
 62
     4
100
AcDbTrace
 10
-127.314445
 20
340.377657
 30
0.0
 11
-126.487691
 21
334.603208
 31
0.0
 12
-109.577722
 22
339.970694
 32
0.0
 13
-109.577722
 23
339.970694
 33
0.0
  0
MTEXT
  5
5A2
100
AcDbEntity
  8
0
  6
BYBLOCK
 62
     3
100
AcDbMText
 10
-131.711377
 20
350.874307
 30
0.0
 40
17.5
 41
0.0
 71
     5
 72
     1
  1
\A1;5.87°
  7
VSM_00
 11
0.996497
 21
0.08363
 31
0.0
  0
POINT
  5
5A3
100
AcDbEntity
  8
DEFPOINTS
  6
BYBLOCK
 62
     0
100
AcDbPoint
 10
-94.537302
 20
341.00038
 30
0.0
  0
POINT
  5
5A4
100
AcDbEntity
  8
DEFPOINTS
  6
BYBLOCK
 62
     0
100
AcDbPoint
 10
-86.999489
 20
120.535977
 30
0.0
  0
POINT
  5
5A5
100
AcDbEntity
  8
DEFPOINTS
  6
BYBLOCK
 62
     0
100
AcDbPoint
 10
-102.35234
 20
269.748209
 30
0.0
  0
POINT
  5
5A6
100
AcDbEntity
  8
DEFPOINTS
  6
BYBLOCK
 62
     0
100
AcDbPoint
 10
-86.999489
 20
120.535977
 30
0.0
  0
POINT
  5
5A7
100
AcDbEntity
  8
DEFPOINTS
  6
BYBLOCK
 62
     0
100
AcDbPoint
 10
-86.999489
 20
356.908539
 30
0.0
  0
LINE
  5
5C3
100
AcDbEntity
  8
0
  6
BYBLOCK
 62
     4
100
AcDbLine
 10
-186.06483
 20
-196.326161
 30
0.0
 11
-198.773883
 21
-332.342575
 31
0.0
  0
LINE
  5
5C4
100
AcDbEntity
  8
0
  6
BYBLOCK
 62
     4
100
AcDbLine
 10
-178.157074
 20
-307.87575
 30
0.0
 11
-178.157074
 21
-333.303675
 31
0.0
  0
ARC
  5
5C5
100
AcDbEntity
  8
0
  6
BYBLOCK
 62
     4
100
AcDbCircle
 10
-178.157074
 20
-111.694799
 30
0.0
 40
216.608875
100
AcDbArc
 50
255.401455
 51
260.031686
  0
ARC
  5
5C6
100
AcDbEntity
  8
0
  6
BYBLOCK
 62
     4
100
AcDbCircle
 10
-178.157074
 20
-111.694799
 30
0.0
 40
216.608875
100
AcDbArc
 50
274.630231
 51
279.260461
  0
ARC
  5
5C7
100
AcDbEntity
  8
0
  6
BYBLOCK
 62
     4
100
AcDbCircle
 10
-178.157074
 20
-111.694799
 30
0.0
 40
216.608875
100
AcDbArc
 50
264.661916
 51
270.0
  0
SOLID
  5
5C8
100
AcDbEntity
  8
0
  6
BYBLOCK
 62
     4
100
AcDbTrace
 10
-215.264405
 20
-322.142982
 30
0.0
 11
-216.041269
 21
-327.924353
 31
0.0
 12
-198.308721
 22
-327.364259
 32
0.0
 13
-198.308721
 23
-327.364259
 33
0.0
  0
SOLID
  5
5C9
100
AcDbEntity
  8
0
  6
BYBLOCK
 62
     4
100
AcDbTrace
 10
-160.553539
 20
-330.511041
 30
0.0
 11
-160.789178
 21
-324.682469
 31
0.0
 12
-178.157074
 22
-328.303675
 32
0.0
 13
-178.157074
 23
-328.303675
 33
0.0
  0
MTEXT
  5
5CA
100
AcDbEntity
  8
0
  6
BYBLOCK
 62
     3
100
AcDbMText
 10
-149.864136
 20
-314.822704
 30
0.0
 40
17.5
 41
0.0
 71
     5
 72
     1
  1
\A1;5.34°
  7
VSM_00
 11
0.999542
 21
-0.030272
 31
0.0
  0
POINT
  5
5CB
100
AcDbEntity
  8
DEFPOINTS
  6
BYBLOCK
 62
     0
100
AcDbPoint
 10
-191.602312
 20
-327.885989
 30
0.0
  0
POINT
  5
5CC
100
AcDbEntity
  8
DEFPOINTS
  6
BYBLOCK
 62
     0
100
AcDbPoint
 10
-186.06483
 20
-196.326161
 30
0.0
  0
POINT
  5
5CD
100
AcDbEntity
  8
DEFPOINTS
  6
BYBLOCK
 62
     0
100
AcDbPoint
 10
-178.157074
 20
-111.694799
 30
0.0
  0
POINT
  5
5CE
100
AcDbEntity
  8
DEFPOINTS
  6
BYBLOCK
 62
     0
100
AcDbPoint
 10
-178.157074
 20
-307.87575
 30
0.0
  0
POINT
  5
5CF
100
AcDbEntity
  8
DEFPOINTS
  6
BYBLOCK
 62
     0
100
AcDbPoint
 10
-178.157074
 20
-111.694799
 30
0.0
  0
LINE
  5
5DE
100
AcDbEntity
  8
V__025
100
AcDbLine
 10
-178.157074
 20
-111.694799
 30
0.0
 11
-337.609959
 21
-111.694799
 31
0.0
  0
LINE
  5
5DF
100
AcDbEntity
  8
V__025
100
AcDbLine
 10
-268.000189
 20
63.21094
 30
0.0
 11
-18.48
 21
47.7
 31
0.0
  0
POLYLINE
  5
5E1
100
AcDbEntity
  8
V__025
100
AcDb2dPolyline
 66
     1
 10
0.0
 20
0.0
 30
0.0
 70
     1
 40
0.5
 41
0.5
  0
VERTEX
  5
5E2
100
AcDbEntity
  8
V__025
100
AcDbVertex
100
AcDb2dVertex
 10
85.749489
 20
120.535977
 30
0.0
 42
1.0
  0
VERTEX
  5
5E3
100
AcDbEntity
  8
V__025
100
AcDbVertex
100
AcDb2dVertex
 10
88.249489
 20
120.535977
 30
0.0
 42
1.0
  0
SEQEND
  5
5E4
100
AcDbEntity
  8
V__025
  0
POLYLINE
  5
5E5
100
AcDbEntity
  8
V__025
100
AcDb2dPolyline
 66
     1
 10
0.0
 20
0.0
 30
0.0
 70
     1
 40
0.5
 41
0.5
  0
VERTEX
  5
5E6
100
AcDbEntity
  8
V__025
100
AcDbVertex
100
AcDb2dVertex
 10
-88.249489
 20
120.535977
 30
0.0
 42
1.0
  0
VERTEX
  5
5E7
100
AcDbEntity
  8
V__025
100
AcDbVertex
100
AcDb2dVertex
 10
-85.749489
 20
120.535977
 30
0.0
 42
1.0
  0
SEQEND
  5
5E8
100
AcDbEntity
  8
V__025
  0
POLYLINE
  5
5E9
100
AcDbEntity
  8
V__025
100
AcDb2dPolyline
 66
     1
 10
0.0
 20
0.0
 30
0.0
 70
     1
 40
0.5
 41
0.5
  0
VERTEX
  5
5EA
100
AcDbEntity
  8
V__025
100
AcDbVertex
100
AcDb2dVertex
 10
176.907074
 20
-111.694799
 30
0.0
 42
1.0
  0
VERTEX
  5
5EB
100
AcDbEntity
  8
V__025
100
AcDbVertex
100
AcDb2dVertex
 10
179.407074
 20
-111.694799
 30
0.0
 42
1.0
  0
SEQEND
  5
5EC
100
AcDbEntity
  8
V__025
  0
POLYLINE
  5
5ED
100
AcDbEntity
  8
V__025
100
AcDb2dPolyline
 66
     1
 10
0.0
 20
0.0
 30
0.0
 70
     1
 40
0.5
 41
0.5
  0
VERTEX
  5
5EE
100
AcDbEntity
  8
V__025
100
AcDbVertex
100
AcDb2dVertex
 10
-179.407074
 20
-111.694799
 30
0.0
 42
1.0
  0
VERTEX
  5
5EF
100
AcDbEntity
  8
V__025
100
AcDbVertex
100
AcDb2dVertex
 10
-176.907074
 20
-111.694799
 30
0.0
 42
1.0
  0
SEQEND
  5
5F0
100
AcDbEntity
  8
V__025
  0
POLYLINE
  5
5F1
100
AcDbEntity
  8
V__025
100
AcDb2dPolyline
 66
     1
 10
0.0
 20
0.0
 30
0.0
 70
     1
 40
0.5
 41
0.5
  0
VERTEX
  5
5F2
100
AcDbEntity
  8
V__025
100
AcDbVertex
100
AcDb2dVertex
 10
-19.73
 20
47.7
 30
0.0
 42
1.0
  0
VERTEX
  5
5F3
100
AcDbEntity
  8
V__025
100
AcDbVertex
100
AcDb2dVertex
 10
-17.23
 20
47.7
 30
0.0
 42
1.0
  0
SEQEND
  5
5F4
100
AcDbEntity
  8
V__025
  0
POLYLINE
  5
5F5
100
AcDbEntity
  8
V__025
100
AcDb2dPolyline
 66
     1
 10
0.0
 20
0.0
 30
0.0
 70
     1
 40
0.5
 41
0.5
  0
VERTEX
  5
5F6
100
AcDbEntity
  8
V__025
100
AcDbVertex
100
AcDb2dVertex
 10
17.23
 20
47.7
 30
0.0
 42
1.0
  0
VERTEX
  5
5F7
100
AcDbEntity
  8
V__025
100
AcDbVertex
100
AcDb2dVertex
 10
19.73
 20
47.7
 30
0.0
 42
1.0
  0
SEQEND
  5
5F8
100
AcDbEntity
  8
V__025
  0
POINT
  5
6A1
100
AcDbEntity
  8
DEFPOINTS
  6
BYBLOCK
 62
     0
100
AcDbPoint
 10
-11556.278809
 20
1795.0
 30
0.0
  0
INSERT
  5
AEA
100
AcDbEntity
  8
V__070
100
AcDbBlockReference
  2
BIB01BI_BIB031
 10
-11554.502322
 20
0.648318
 30
0.0
  0
VIEWPORT
  5
1
100
AcDbEntity
 67
     1
  8
0
100
AcDbViewport
 10
225.17991
 20
142.5
 30
0.0
 40
461.371308
 41
285.0
 68
     1
 69
     1
1001
ACAD
1000
MVIEW
1002
{
1070
    16
1010
0.0
1020
0.0
1030
0.0
1010
0.0
1020
0.0
1030
1.0
1040
0.0
1040
285.0
1040
225.17991
1040
142.5
1040
50.0
1040
0.0
1040
0.0
1070
     0
1070
  1000
1070
     1
1070
     1
1070
     0
1070
     0
1070
     0
1070
     0
1040
0.0
1040
0.0
1040
0.0
1040
1.0
1040
1.0
1040
10.0
1040
10.0
1070
     0
1002
{
1002
}
1002
}
  0
INSERT
  5
34C
100
AcDbEntity
 67
     1
  8
TITLEBLK
100
AcDbBlockReference
 66
     1
  2
AMW_TITLE
 10
0.0
 20
0.0
 30
0.0
  0
ATTRIB
  5
34D
100
AcDbEntity
 67
     1
  8
RAHMEN
 62
     1
100
AcDbText
 10
140.434048
 20
2.981002
 30
0.0
 40
7.0
  1
4
 41
0.8
 72
     2
 11
144.434048
 21
2.981002
 31
0.0
100
AcDbAttribute
  2
TITLESHEET
 70
     0
  0
ATTRIB
  5
34E
100
AcDbEntity
 67
     1
  8
RAHMEN
 62
     1
100
AcDbText
 10
34.76026
 20
39.011724
 30
0.0
 40
6.0
  1
Beckensortiment PR
 41
0.8
  7
NORM
100
AcDbAttribute
  2
BESCHR1
 70
     0
  0
ATTRIB
  5
34F
100
AcDbEntity
 67
     1
  8
RAHMEN
 62
     1
100
AcDbText
 10
34.183454
 20
24.883345
 30
0.0
 40
7.0
  1
PR 54/48
 41
0.8
100
AcDbAttribute
  2
ZEICHNU_NA
 70
     0
  0
ATTRIB
  5
350
100
AcDbEntity
 67
     1
  8
RAHMEN
 62
     3
100
AcDbText
 10
34.280391
 20
17.15916
 30
0.0
 40
4.0
  1
Ausmasszeichnung
 41
0.8
100
AcDbAttribute
  2
BESCHR2
 70
     0
  0
ATTRIB
  5
351
100
AcDbEntity
 67
     1
  8
RAHMEN
 62
     3
100
AcDbText
 10
28.714253
 20
1.384573
 30
0.0
 40
3.5
  1

 50
90.0
 41
0.8
100
AcDbAttribute
  2
ART-NR
 70
     0
  0
ATTRIB
  5
352
100
AcDbEntity
 67
     1
  8
RAHMEN
 62
     4
100
AcDbText
 10
52.234106
 20
54.44498
 30
0.0
 40
2.0
  1

 41
0.8
100
AcDbAttribute
  2
AEND_BES2
 70
     0
  0
ATTRIB
  5
353
100
AcDbEntity
 67
     1
  8
RAHMEN
 62
     4
100
AcDbText
 10
52.234106
 20
51.064591
 30
0.0
 40
2.0
  1

 41
0.8
100
AcDbAttribute
  2
AEND_BES3
 70
     0
  0
ATTRIB
  5
354
100
AcDbEntity
 67
     1
  8
RAHMEN
 62
     4
100
AcDbText
 10
52.234106
 20
57.941936
 30
0.0
 40
2.0
  1

 41
0.8
100
AcDbAttribute
  2
AEND_BES1
 70
     0
  0
ATTRIB
  5
355
100
AcDbEntity
 67
     1
  8
RAHMEN
 62
     1
100
AcDbText
 10
153.582385
 20
2.969943
 30
0.0
 40
7.0
  1
298460
 41
0.8
100
AcDbAttribute
  2
ZEICHNU_NR
 70
     0
  0
ATTRIB
  5
356
100
AcDbEntity
 67
     1
  8
RAHMEN
 62
     4
100
AcDbText
 10
167.985836
 20
16.373464
 30
0.0
 40
2.0
  1

 41
0.8
100
AcDbAttribute
  2
GES_DAT
 70
     0
  0
ATTRIB
  5
357
100
AcDbEntity
 67
     1
  8
RAHMEN
 62
     4
100
AcDbText
 10
167.985836
 20
26.536029
 30
0.0
 40
2.0
  1

 41
0.8
100
AcDbAttribute
  2
PRUEF_DAT
 70
     0
  0
ATTRIB
  5
358
100
AcDbEntity
 67
     1
  8
RAHMEN
 62
     4
100
AcDbText
 10
167.985836
 20
31.491569
 30
0.0
 40
2.0
  1
07.08.98
 41
0.8
100
AcDbAttribute
  2
ERST_DAT
 70
     0
  0
ATTRIB
  5
359
100
AcDbEntity
 67
     1
  8
RAHMEN
 62
     4
100
AcDbText
 10
167.051795
 20
35.945168
 30
0.0
 40
2.5
  1

 41
0.8
100
AcDbAttribute
  2
ERSETZT
 70
     0
  0
ATTRIB
  5
35A
100
AcDbEntity
 67
     1
  8
RAHMEN
 62
     4
100
AcDbText
 10
167.051795
 20
45.64252
 30
0.0
 40
2.5
  1

 41
0.8
100
AcDbAttribute
  2
ERSATZ
 70
     0
  0
ATTRIB
  5
35B
100
AcDbEntity
 67
     1
  8
RAHMEN
 62
     4
100
AcDbText
 10
167.051795
 20
53.975061
 30
0.0
 40
2.5
  1

 41
0.8
100
AcDbAttribute
  2
URBEZ
 70
     0
  0
ATTRIB
  5
35C
100
AcDbEntity
 67
     1
  8
RAHMEN
 62
     4
100
AcDbText
 10
138.156305
 20
23.918399
 30
0.0
 40
2.0
  1

 41
0.8
100
AcDbAttribute
  2
SCALE2
 70
     0
  0
ATTRIB
  5
35D
100
AcDbEntity
 67
     1
  8
RAHMEN
 62
     4
100
AcDbText
 10
138.156305
 20
27.242743
 30
0.0
 40
2.0
  1
1:5
 41
0.8
100
AcDbAttribute
  2
SCALE
 70
     0
  0
ATTRIB
  5
35E
100
AcDbEntity
 67
     1
  8
RAHMEN
 62
     4
100
AcDbText
 10
183.864559
 20
16.373464
 30
0.0
 40
2.0
  1

 41
0.8
100
AcDbAttribute
  2
GESVIS
 70
     0
  0
ATTRIB
  5
35F
100
AcDbEntity
 67
     1
  8
RAHMEN
 62
     4
100
AcDbText
 10
183.864559
 20
26.536029
 30
0.0
 40
2.0
  1

 41
0.8
100
AcDbAttribute
  2
PRUEFVIS
 70
     0
  0
ATTRIB
  5
360
100
AcDbEntity
 67
     1
  8
RAHMEN
 62
     4
100
AcDbText
 10
183.864559
 20
31.491569
 30
0.0
 40
2.0
  1
RMA
 41
0.8
100
AcDbAttribute
  2
ZEICHNER
 70
     0
  0
SEQEND
  5
361
100
AcDbEntity
 67
     1
  8
TITLEBLK
  0
VIEWPORT
  5
3B9
100
AcDbEntity
 67
     1
  8
A__MANSFEN
100
AcDbViewport
 10
99.463354
 20
175.778443
 30
0.0
 40
192.523487
 41
211.19012
 68
     2
 69
     2
1001
ACAD
1000
MVIEW
1002
{
1070
    16
1010
0.0
1020
0.0
1030
0.0
1010
0.0
1020
0.0
1030
1.0
1040
0.0
1040
1055.950599
1040
15.733219
1040
-2.744823
1040
50.0
1040
0.0
1040
0.0
1070
     0
1070
  1000
1070
     1
1070
     3
1070
     0
1070
     0
1070
     0
1070
     0
1040
0.0
1040
0.0
1040
0.0
1040
1.0
1040
1.0
1040
10.0
1040
10.0
1070
     0
1002
{
1002
}
1002
}
  0
ENDSEC
  0
SECTION
  2
OBJECTS
  0
DICTIONARY
  5
12C
100
AcDbDictionary
  3
ACAD_GROUP
350
12D
  3
ACAD_MLINESTYLE
350
12E
  0
DICTIONARY
  5
12D
102
{ACAD_REACTORS
330
12C
102
}
100
AcDbDictionary
  0
DICTIONARY
  5
12E
102
{ACAD_REACTORS
330
12C
102
}
100
AcDbDictionary
  3
STANDARD
350
13B
  0
MLINESTYLE
  5
13B
102
{ACAD_REACTORS
330
12E
102
}
100
AcDbMlineStyle
  2
STANDARD
 70
     0
  3

 62
     0
 51
90.0
 52
90.0
 71
     2
 49
0.5
 62
   256
  6
BYLAYER
 49
-0.5
 62
   256
  6
BYLAYER
  0
ENDSEC
  0
EOF
