  0
SECTION
  2
HEADER
  9
$ACADVER
  1
AC1024
  9
$ACADMAINTVER
 70
   157
  9
$DWGCODEPAGE
  3
ANSI_1252
  9
$LASTSAVEDBY
  1
PW003
  9
$INSBASE
 10
0.0
 20
0.0
 30
0.0
  9
$EXTMIN
 10
23846.13752458939
 20
3528.302616484769
 30
0.0
  9
$EXTMAX
 10
24799.59791626326
 20
4046.52522774224
 30
0.4
  9
$LIMMIN
 10
0.0
 20
0.0
  9
$LIMMAX
 10
12.0
 20
9.0
  9
$ORTHOMODE
 70
     1
  9
$REGENMODE
 70
     1
  9
$FILLMODE
 70
     1
  9
$QTEXTMODE
 70
     0
  9
$MIRRTEXT
 70
     1
  9
$LTSCALE
 40
25.0
  9
$ATTMODE
 70
     1
  9
$TEXTSIZE
 40
10.0
  9
$TRACEWID
 40
0.05
  9
$TEXTSTYLE
  7
STANDARD
  9
$CLAYER
  8
0
  9
$CELTYPE
  6
BYLAYER
  9
$CECOLOR
 62
   256
  9
$CELTSCALE
 40
1.0
  9
$DISPSILH
 70
     0
  9
$DIMSCALE
 40
1.0
  9
$DIMASZ
 40
15.0
  9
$DIMEXO
 40
0.0625
  9
$DIMDLI
 40
0.38
  9
$DIMRND
 40
0.0
  9
$DIMDLE
 40
0.0
  9
$DIMEXE
 40
0.18
  9
$DIMTP
 40
0.0
  9
$DIMTM
 40
0.0
  9
$DIMTXT
 40
25.0
  9
$DIMCEN
 40
0.09
  9
$DIMTSZ
 40
0.0
  9
$DIMTOL
 70
     0
  9
$DIMLIM
 70
     0
  9
$DIMTIH
 70
     1
  9
$DIMTOH
 70
     1
  9
$DIMSE1
 70
     0
  9
$DIMSE2
 70
     0
  9
$DIMTAD
 70
     0
  9
$DIMZIN
 70
     0
  9
$DIMBLK
  1

  9
$DIMASO
 70
     1
  9
$DIMSHO
 70
     1
  9
$DIMPOST
  1

  9
$DIMAPOST
  1

  9
$DIMALT
 70
     0
  9
$DIMALTD
 70
     2
  9
$DIMALTF
 40
25.4
  9
$DIMLFAC
 40
1.0
  9
$DIMTOFL
 70
     0
  9
$DIMTVP
 40
0.0
  9
$DIMTIX
 70
     0
  9
$DIMSOXD
 70
     0
  9
$DIMSAH
 70
     0
  9
$DIMBLK1
  1

  9
$DIMBLK2
  1

  9
$DIMSTYLE
  2
STANDARD
  9
$DIMCLRD
 70
     0
  9
$DIMCLRE
 70
     0
  9
$DIMCLRT
 70
     1
  9
$DIMTFAC
 40
1.0
  9
$DIMGAP
 40
0.09
  9
$DIMJUST
 70
     0
  9
$DIMSD1
 70
     0
  9
$DIMSD2
 70
     0
  9
$DIMTOLJ
 70
     1
  9
$DIMTZIN
 70
     0
  9
$DIMALTZ
 70
     0
  9
$DIMALTTZ
 70
     0
  9
$DIMUPT
 70
     0
  9
$DIMDEC
 70
     2
  9
$DIMTDEC
 70
     2
  9
$DIMALTU
 70
     2
  9
$DIMALTTD
 70
     2
  9
$DIMTXSTY
  7
STANDARD
  9
$DIMAUNIT
 70
     0
  9
$DIMADEC
 70
     0
  9
$DIMALTRND
 40
0.0
  9
$DIMAZIN
 70
     0
  9
$DIMDSEP
 70
    46
  9
$DIMATFIT
 70
     3
  9
$DIMFRAC
 70
     0
  9
$DIMLDRBLK
  1

  9
$DIMLUNIT
 70
     2
  9
$DIMLWD
 70
    -2
  9
$DIMLWE
 70
    -2
  9
$DIMTMOVE
 70
     0
  9
$DIMFXL
 40
1.0
  9
$DIMFXLON
 70
     0
  9
$DIMJOGANG
 40
0.7853981633974483
  9
$DIMTFILL
 70
     0
  9
$DIMTFILLCLR
 70
     0
  9
$DIMARCSYM
 70
     0
  9
$DIMLTYPE
  6

  9
$DIMLTEX1
  6

  9
$DIMLTEX2
  6

  9
$DIMTXTDIRECTION
 70
     0
  9
$LUNITS
 70
     2
  9
$LUPREC
 70
     4
  9
$SKETCHINC
 40
0.1
  9
$FILLETRAD
 40
25.0
  9
$AUNITS
 70
     0
  9
$AUPREC
 70
     0
  9
$MENU
  1
acad
  9
$ELEVATION
 40
0.0
  9
$PELEVATION
 40
0.0
  9
$THICKNESS
 40
0.4
  9
$LIMCHECK
 70
     0
  9
$CHAMFERA
 40
0.5
  9
$CHAMFERB
 40
0.5
  9
$CHAMFERC
 40
1.0
  9
$CHAMFERD
 40
0.0
  9
$SKPOLY
 70
     0
  9
$TDCREATE
 40
2451093.087950000
  9
$TDUCREATE
 40
2451093.337950000
  9
$TDUPDATE
 40
2457415.463122824
  9
$TDUUPDATE
 40
2457415.713122824
  9
$TDINDWG
 40
36.0945442361
  9
$TDUSRTIMER
 40
36.0945442361
  9
$USRTIMER
 70
     1
  9
$ANGBASE
 50
0.0
  9
$ANGDIR
 70
     0
  9
$PDMODE
 70
     3
  9
$PDSIZE
 40
0.0
  9
$PLINEWID
 40
0.0
  9
$SPLFRAME
 70
     0
  9
$SPLINETYPE
 70
     6
  9
$SPLINESEGS
 70
     8
  9
$HANDSEED
  5
3ACF1
  9
$SURFTAB1
 70
     6
  9
$SURFTAB2
 70
     6
  9
$SURFTYPE
 70
     6
  9
$SURFU
 70
     6
  9
$SURFV
 70
     6
  9
$UCSBASE
  2

  9
$UCSNAME
  2

  9
$UCSORG
 10
0.0
 20
0.0
 30
0.0
  9
$UCSXDIR
 10
1.0
 20
0.0
 30
0.0
  9
$UCSYDIR
 10
0.0
 20
1.0
 30
0.0
  9
$UCSORTHOREF
  2

  9
$UCSORTHOVIEW
 70
     0
  9
$UCSORGTOP
 10
0.0
 20
0.0
 30
0.0
  9
$UCSORGBOTTOM
 10
0.0
 20
0.0
 30
0.0
  9
$UCSORGLEFT
 10
0.0
 20
0.0
 30
0.0
  9
$UCSORGRIGHT
 10
0.0
 20
0.0
 30
0.0
  9
$UCSORGFRONT
 10
0.0
 20
0.0
 30
0.0
  9
$UCSORGBACK
 10
0.0
 20
0.0
 30
0.0
  9
$PUCSBASE
  2

  9
$PUCSNAME
  2

  9
$PUCSORG
 10
0.0
 20
0.0
 30
0.0
  9
$PUCSXDIR
 10
1.0
 20
0.0
 30
0.0
  9
$PUCSYDIR
 10
0.0
 20
1.0
 30
0.0
  9
$PUCSORTHOREF
  2

  9
$PUCSORTHOVIEW
 70
     0
  9
$PUCSORGTOP
 10
0.0
 20
0.0
 30
0.0
  9
$PUCSORGBOTTOM
 10
0.0
 20
0.0
 30
0.0
  9
$PUCSORGLEFT
 10
0.0
 20
0.0
 30
0.0
  9
$PUCSORGRIGHT
 10
0.0
 20
0.0
 30
0.0
  9
$PUCSORGFRONT
 10
0.0
 20
0.0
 30
0.0
  9
$PUCSORGBACK
 10
0.0
 20
0.0
 30
0.0
  9
$USERI1
 70
     0
  9
$USERI2
 70
     0
  9
$USERI3
 70
     0
  9
$USERI4
 70
     0
  9
$USERI5
 70
     0
  9
$USERR1
 40
0.0
  9
$USERR2
 40
0.0
  9
$USERR3
 40
0.0
  9
$USERR4
 40
0.0
  9
$USERR5
 40
0.0
  9
$WORLDVIEW
 70
     1
  9
$SHADEDGE
 70
     3
  9
$SHADEDIF
 70
    70
  9
$TILEMODE
 70
     1
  9
$MAXACTVP
 70
    48
  9
$PINSBASE
 10
0.0
 20
0.0
 30
0.0
  9
$PLIMCHECK
 70
     0
  9
$PEXTMIN
 10
0.0
 20
0.0
 30
0.0
  9
$PEXTMAX
 10
1137.5
 20
815.5749270608541
 30
0.0
  9
$PLIMMIN
 10
-26.01275026172184
 20
-12.74375850202686
  9
$PLIMMAX
 10
1163.480501293941
 20
827.7161359646902
  9
$UNITMODE
 70
     0
  9
$VISRETAIN
 70
     1
  9
$PLINEGEN
 70
     0
  9
$PSLTSCALE
 70
     1
  9
$TREEDEPTH
 70
  3020
  9
$CMLSTYLE
  2
STANDARD
  9
$CMLJUST
 70
     0
  9
$CMLSCALE
 40
1.0
  9
$PROXYGRAPHICS
 70
     1
  9
$MEASUREMENT
 70
     0
  9
$CELWEIGHT
370
    -1
  9
$ENDCAPS
280
     0
  9
$JOINSTYLE
280
     0
  9
$LWDISPLAY
290
     0
  9
$INSUNITS
 70
     0
  9
$HYPERLINKBASE
  1

  9
$STYLESHEET
  1
Carron Phoenix.ctb
  9
$XEDIT
290
     1
  9
$CEPSNTYPE
380
     0
  9
$PSTYLEMODE
290
     1
  9
$FINGERPRINTGUID
  2
{96215AC6-D87D-11D3-94FF-0060B0FBE80E}
  9
$VERSIONGUID
  2
{E07CB9CC-DBAF-4901-8ACF-9EAECF57FD95}
  9
$EXTNAMES
290
     1
  9
$PSVPSCALE
 40
0.0
  9
$OLESTARTUP
290
     0
  9
$SORTENTS
280
   127
  9
$INDEXCTL
280
     0
  9
$HIDETEXT
280
     0
  9
$XCLIPFRAME
280
     0
  9
$HALOGAP
280
     0
  9
$OBSCOLOR
 70
   257
  9
$OBSLTYPE
280
     0
  9
$INTERSECTIONDISPLAY
280
     0
  9
$INTERSECTIONCOLOR
 70
   257
  9
$DIMASSOC
280
     1
  9
$PROJECTNAME
  1

  9
$CAMERADISPLAY
290
     0
  9
$LENSLENGTH
 40
50.0
  9
$CAMERAHEIGHT
 40
0.0
  9
$STEPSPERSEC
 40
2.0
  9
$STEPSIZE
 40
6.0
  9
$3DDWFPREC
 40
2.0
  9
$PSOLWIDTH
 40
0.25
  9
$PSOLHEIGHT
 40
4.0
  9
$LOFTANG1
 40
1.570796326794896
  9
$LOFTANG2
 40
1.570796326794896
  9
$LOFTMAG1
 40
0.0
  9
$LOFTMAG2
 40
0.0
  9
$LOFTPARAM
 70
     7
  9
$LOFTNORMALS
280
     1
  9
$LATITUDE
 40
37.795
  9
$LONGITUDE
 40
-122.394
  9
$NORTHDIRECTION
 40
0.0
  9
$TIMEZONE
 70
 -8000
  9
$LIGHTGLYPHDISPLAY
280
     1
  9
$TILEMODELIGHTSYNCH
280
     1
  9
$CMATERIAL
347
1EF89
  9
$SOLIDHIST
280
     1
  9
$SHOWHIST
280
     1
  9
$DWFFRAME
280
     2
  9
$DGNFRAME
280
     0
  9
$REALWORLDSCALE
290
     1
  9
$INTERFERECOLOR
 62
     1
  9
$INTERFEREOBJVS
345
1EFAB
  9
$INTERFEREVPVS
346
1EFA8
  9
$CSHADOW
280
     0
  9
$SHADOWPLANELOCATION
 40
0.0
  0
ENDSEC
  0
SECTION
  2
CLASSES
  0
CLASS
  1
DICTIONARYVAR
  2
AcDbDictionaryVar
  3
ObjectDBX Classes
 90
        0
 91
       13
280
     0
281
     0
  0
CLASS
  1
ACDBDICTIONARYWDFLT
  2
AcDbDictionaryWithDefault
  3
ObjectDBX Classes
 90
        0
 91
        1
280
     0
281
     0
  0
CLASS
  1
MATERIAL
  2
AcDbMaterial
  3
ObjectDBX Classes
 90
     1153
 91
        3
280
     0
281
     0
  0
CLASS
  1
VISUALSTYLE
  2
AcDbVisualStyle
  3
ObjectDBX Classes
 90
     4095
 91
       26
280
     0
281
     0
  0
CLASS
  1
TABLESTYLE
  2
AcDbTableStyle
  3
ObjectDBX Classes
 90
     4095
 91
        1
280
     0
281
     0
  0
CLASS
  1
SCALE
  2
AcDbScale
  3
ObjectDBX Classes
 90
     1153
 91
       33
280
     0
281
     0
  0
CLASS
  1
MLEADERSTYLE
  2
AcDbMLeaderStyle
  3
ACDB_MLEADERSTYLE_CLASS
 90
     4095
 91
        1
280
     0
281
     0
  0
CLASS
  1
CELLSTYLEMAP
  2
AcDbCellStyleMap
  3
ObjectDBX Classes
 90
     1152
 91
        1
280
     0
281
     0
  0
CLASS
  1
SORTENTSTABLE
  2
AcDbSortentsTable
  3
ObjectDBX Classes
 90
        0
 91
        2
280
     0
281
     0
  0
CLASS
  1
ACDBSECTIONVIEWSTYLE
  2
AcDbSectionViewStyle
  3
ObjectDBX Classes
 90
     1025
 91
        4
280
     0
281
     0
  0
CLASS
  1
ACDBDETAILVIEWSTYLE
  2
AcDbDetailViewStyle
  3
ObjectDBX Classes
 90
     1025
 91
        4
280
     0
281
     0
  0
CLASS
  1
ACME_DOCUMENT
  2
AcMeDbDoc
  3
AcMeServices
 90
     1024
 91
        2
280
     0
281
     0
  0
CLASS
  1
ACMESCOPE
  2
AcMeScope
  3
AcMeServices
 90
     1024
 91
        1
280
     0
281
     0
  0
CLASS
  1
ACMECOMMANDHISTORY
  2
AcMeCommandHistory
  3
AcMeServices
 90
     1024
 91
        1
280
     0
281
     0
  0
CLASS
  1
ACIMSYSVARMAN
  2
AcImSysVarManager
  3
AcMeServices
 90
     1024
 91
        3
280
     0
281
     0
  0
CLASS
  1
ACIMINTSYSVAR
  2
AcImIntSysVar
  3
AcMeServices
 90
     1024
 91
        3
280
     0
281
     0
  0
CLASS
  1
ACMESTATEMGR
  2
AcMeStateMgr
  3
AcMeServices
 90
     1024
 91
        1
280
     0
281
     0
  0
CLASS
  1
ACDBENTITYCACHE
  2
AcMeEntityCache
  3
AcMeServices
 90
     1024
 91
        1
280
     0
281
     0
  0
CLASS
  1
ACGREFMASTER
  2
AcGrefMaster
  3
AcAttribServices
 90
     1024
 91
        1
280
     0
281
     0
  0
CLASS
  1
ACME_DATABASE
  2
AcMeDbDatabase
  3
AcMeServices
 90
     1024
 91
        2
280
     0
281
     0
  0
CLASS
  1
ACRFINSADJUSTERMGR
  2
AcRfInsAdjusterMgr
  3
AcMeServices
 90
     1024
 91
        1
280
     0
281
     0
  0
CLASS
  1
ACGREFACADMASTER
  2
AcGrefacadMaster
  3
AcGrefServices
 90
     1024
 91
        1
280
     0
281
     0
  0
CLASS
  1
AMDTMENUSTATEMGR
  2
AmdtMenuStateMgr
  3
McadcomServices
 90
     1024
 91
        1
280
     0
281
     0
  0
CLASS
  1
AMDTMCOMMENUSTATE
  2
AmdtMcomMenuState
  3
McadcomServices
 90
     1024
 91
        1
280
     0
281
     0
  0
CLASS
  1
AMIMASTER
  2
AmiMaster
  3
AmiServices
 90
     1024
 91
        1
280
     0
281
     0
  0
CLASS
  1
AMGSETTINGSOBJ
  2
AmgSettingsObj
  3
"AcadM|Product Description: AutoCAD Mechanical|Company: Autodesk, Inc."
 90
     1024
 91
        2
280
     0
281
     0
  0
CLASS
  1
MAPIAMMOUDLE
  2
MApiAmModule
  3
MApiAmServices
 90
     1024
 91
        1
280
     0
281
     0
  0
CLASS
  1
ACIMSTRSYSVAR
  2
AcImStrSysVar
  3
AcMeServices
 90
     1024
 91
        5
280
     0
281
     0
  0
CLASS
  1
AMDTAMMENUSTATE
  2
AmdtAmMenuState
  3
DesignerAssemblies
 90
     1024
 91
        1
280
     0
281
     0
  0
CLASS
  1
ACAMPROJECT
  2
AcAmProject
  3
DesignerAssemblies
 90
     1024
 91
        1
280
     0
281
     0
  0
CLASS
  1
ACAMGRCOMPDEF
  2
AcAmGrCompDef
  3
DesignerAssemblies
 90
     1024
 91
        1
280
     0
281
     0
  0
CLASS
  1
ACAMCOMPDEF
  2
AcAmCompDef
  3
DesignerAssemblies
 90
     1024
 91
        1
280
     0
281
     0
  0
CLASS
  1
ACAMCOMPDEFMGR
  2
AcAmCompDefMgr
  3
DesignerAssemblies
 90
     1024
 91
        1
280
     0
281
     0
  0
CLASS
  1
AMCONTEXTMGR
  2
AcAmContextMgr
  3
DesignerAssemblies
 90
     1024
 91
        1
280
     0
281
     0
  0
CLASS
  1
ACAMCONTEXTMODELER
  2
AcAmContextModeler
  3
DesignerAssemblies
 90
     1024
 91
        1
280
     0
281
     0
  0
CLASS
  1
ACMDATADICTIONARY
  2
AcmDataDictionary
  3
"AcmSymBB|Product Description: AutoCAD Mechanical|Company: Autodesk, Inc."
 90
     1024
 91
        1
280
     0
281
     0
  0
CLASS
  1
ACAMGRCOMPDEFSET
  2
AcAmGrCompDefSet
  3
DesignerAssemblies
 90
     1024
 91
        1
280
     0
281
     0
  0
CLASS
  1
AMDTBROWSERDBTAB
  2
AmdtBrowserDbTab
  3
McadcomServices
 90
     1024
 91
        1
280
     0
281
     0
  0
CLASS
  1
CBROWSERAPPOBJECT
  2
CBrowserAppObject
  3
McadcomServices
 90
     1024
 91
        2
280
     0
281
     0
  0
CLASS
  1
DM_PLACEHOLDER
  2
AcDmSelsetPlaceholder
  3
McadcomServices
 90
     1024
 91
        1
280
     0
281
     0
  0
CLASS
  1
ACMSTANDARDANSI
  2
AcmStandardANSI
  3
"Amdt_StdImp|Product Description: AutoCAD Mechanical|Company: Autodesk, Inc."
 90
     1024
 91
        1
280
     0
281
     0
  0
CLASS
  1
ACMSURFSTANDARDANSI
  2
AcmSurfTextStdANSI
  3
"Amdt_StdImp|Product Description: AutoCAD Mechanical|Company: Autodesk, Inc."
 90
     1024
 91
        1
280
     0
281
     0
  0
CLASS
  1
ACMFCFSTANDARDANSI
  2
AcmFCFStdANSI
  3
"Amdt_StdImp|Product Description: AutoCAD Mechanical|Company: Autodesk, Inc."
 90
     1024
 91
        1
280
     0
281
     0
  0
CLASS
  1
ACMWELDSTANDARDANSI
  2
AcmWeldingStdANSI
  3
"Amdt_StdImp|Product Description: AutoCAD Mechanical|Company: Autodesk, Inc."
 90
     1024
 91
        1
280
     0
281
     0
  0
CLASS
  1
ACMIDSTANDARDANSI
  2
AcmIdStdANSI
  3
"Amdt_StdImp|Product Description: AutoCAD Mechanical|Company: Autodesk, Inc."
 90
     1024
 91
        1
280
     0
281
     0
  0
CLASS
  1
ACMDATUMSTANDARDANSI
  2
AcmDatumStdANSI
  3
"Amdt_StdImp|Product Description: AutoCAD Mechanical|Company: Autodesk, Inc."
 90
     1024
 91
        1
280
     0
281
     0
  0
CLASS
  1
ACMBOMSTANDARDANSI
  2
AcmBOMStdANSI
  3
"Amdt_StdImp|Product Description: AutoCAD Mechanical|Company: Autodesk, Inc."
 90
     1024
 91
        1
280
     0
281
     0
  0
CLASS
  1
ACMDETAILSTANDARDANSI
  2
AmdtDetailSymStdANSI
  3
"Amdt_StdImp|Product Description: AutoCAD Mechanical|Company: Autodesk, Inc."
 90
     1024
 91
        1
280
     0
281
     0
  0
CLASS
  1
ACMSECTIONSTANDARDANSI
  2
AmdtSectionSymStdANSI
  3
"Amdt_StdImp|Product Description: AutoCAD Mechanical|Company: Autodesk, Inc."
 90
     1024
 91
        1
280
     0
281
     0
  0
CLASS
  1
ACMCENTERLINESTANDARDANSI
  2
AmdtCenterLineStdANSI
  3
"Amdt_StdImp|Product Description: AutoCAD Mechanical|Company: Autodesk, Inc."
 90
     1024
 91
        1
280
     0
281
     0
  0
CLASS
  1
ACMTHREADLINESTANDARDANSI
  2
AmdtThreadLineStdANSI
  3
"Amdt_StdImp|Product Description: AutoCAD Mechanical|Company: Autodesk, Inc."
 90
     1024
 91
        1
280
     0
281
     0
  0
CLASS
  1
ACMNOTESTANDARDANSI
  2
AmdtNoteStdANSI
  3
"Amdt_StdImp|Product Description: AutoCAD Mechanical|Company: Autodesk, Inc."
 90
     1024
 91
        1
280
     0
281
     0
  0
CLASS
  1
ACMTAPERSTANDARDANSI
  2
AcmTaperStdANSI
  3
"Amdt_StdImp|Product Description: AutoCAD Mechanical|Company: Autodesk, Inc."
 90
     1024
 91
        1
280
     0
281
     0
  0
CLASS
  1
ACMANOOTATIONVIEWSTANDARDANSI
  2
AmdtAnViewStdANSI
  3
"Amdt_StdImp|Product Description: AutoCAD Mechanical|Company: Autodesk, Inc."
 90
     1024
 91
        1
280
     0
281
     0
  0
CLASS
  1
ACAMGLAYSTD
  2
AcAmgLayStd
  3
"AmgLay|Product Description: AutoCAD Mechanical|Company: Autodesk, Inc."
 90
     1024
 91
        2
280
     0
281
     0
  0
CLASS
  1
ACAMGDIMSTD
  2
AcAmgDimStd
  3
"AmgDim|Product Description: AutoCAD Mechanical|Company: Autodesk, Inc."
 90
     1024
 91
        2
280
     0
281
     0
  0
CLASS
  1
AMGOBJPROPCFG
  2
AmgObjPropCfg
  3
"AmgLay|Product Description: AutoCAD Mechanical|Company: Autodesk, Inc."
 90
     1024
 91
        1
280
     0
281
     0
  0
CLASS
  1
ACAMGHOLECHARTSTDANSI
  2
AcAmgHoleChartStdANSI
  3
AmgDim|Product Description: AutoCAD Mechanical|Company: Autodesk, Inc.
 90
     1024
 91
        1
280
     0
281
     0
  0
CLASS
  1
ACAMGTITLESTD
  2
AcAmgTitleStd
  3
"AmgTitle|Product Description: AutoCAD Mechanical|Company: Autodesk, Inc."
 90
     1024
 91
        2
280
     0
281
     0
  0
CLASS
  1
ACMSECTIONSTANDARDCUSTOM
  2
AmdtSectionSymStdCustom
  3
"Amdt_StdImp|Product Description: AutoCAD Mechanical|Company: Autodesk, Inc."
 90
     1024
 91
        4
280
     0
281
     0
  0
CLASS
  1
ACMDETAILTANDARDCUSTOM
  2
AmdtDetailSymStdCustom
  3
"Amdt_StdImp|Product Description: AutoCAD Mechanical|Company: Autodesk, Inc."
 90
     1024
 91
        4
280
     0
281
     0
  0
CLASS
  1
FIELD
  2
AcDbField
  3
ObjectDBX Classes
 90
     1152
 91
        7
280
     0
281
     0
  0
CLASS
  1
FIELDLIST
  2
AcDbFieldList
  3
ObjectDBX Classes
 90
     1152
 91
        1
280
     0
281
     0
  0
CLASS
  1
AMDTNOTETEMPLATEDB
  2
AmdtNoteTemplateDB
  3
AcmSymBB|Product Description: AutoCAD Mechanical|Company: Autodesk, Inc.
 90
     1024
 91
       14
280
     0
281
     0
  0
CLASS
  1
EXACXREFPANELOBJECT
  2
ExAcXREFPanelObject
  3
EXAC_ESW
 90
     1025
 91
        2
280
     0
281
     0
  0
CLASS
  1
NPOCOLLECTION
  2
AcDbImpNonPersistentObjectsCollection
  3
ObjectDBX Classes
 90
     1153
 91
        1
280
     0
281
     0
  0
CLASS
  1
ACAMGFILTERDAT
  2
AcAmgFilterDat
  3
"AcadM|Product Description: AutoCAD Mechanical|Company: Autodesk, Inc."
 90
     1024
 91
        6
280
     0
281
     0
  0
CLASS
  1
CAMSSTRUCTBTNSTATE
  2
StructBtnState
  3
DesignerAssemblies
 90
     1024
 91
        1
280
     0
281
     0
  0
CLASS
  1
ACMSTANDARDISO
  2
AcmStandardISO
  3
"Amdt_StdImp|Product Description: AutoCAD Mechanical|Company: Autodesk, Inc."
 90
     1024
 91
        1
280
     0
281
     0
  0
CLASS
  1
AMDTEDGESTANDARDISO13715
  2
AmdtEdgeStdISO13715
  3
"Amdt_StdImp|Product Description: AutoCAD Mechanical|Company: Autodesk, Inc."
 90
     1024
 91
        1
280
     0
281
     0
  0
CLASS
  1
ACMSURFSTANDARDISO2002
  2
AcmSurfTextStdISO2002
  3
"Amdt_StdImp|Product Description: AutoCAD Mechanical|Company: Autodesk, Inc."
 90
     1024
 91
        1
280
     0
281
     0
  0
CLASS
  1
ACMFCFSTANDARDISO2004
  2
AcmFCFStdISO2004
  3
"Amdt_StdImp|Product Description: AutoCAD Mechanical|Company: Autodesk, Inc."
 90
     1024
 91
        1
280
     0
281
     0
  0
CLASS
  1
ACMWELDSTANDARDISO
  2
AcmWeldingStdISO
  3
"Amdt_StdImp|Product Description: AutoCAD Mechanical|Company: Autodesk, Inc."
 90
     1024
 91
        1
280
     0
281
     0
  0
CLASS
  1
ACMIDSTANDARDISO2004
  2
AcmIdStdISO2004
  3
"Amdt_StdImp|Product Description: AutoCAD Mechanical|Company: Autodesk, Inc."
 90
     1024
 91
        1
280
     0
281
     0
  0
CLASS
  1
ACMDATUMSTANDARDISO
  2
AcmDatumStdISO
  3
"Amdt_StdImp|Product Description: AutoCAD Mechanical|Company: Autodesk, Inc."
 90
     1024
 91
        1
280
     0
281
     0
  0
CLASS
  1
ACMBOMSTANDARDISO
  2
AcmBOMStdISO
  3
"Amdt_StdImp|Product Description: AutoCAD Mechanical|Company: Autodesk, Inc."
 90
     1024
 91
        1
280
     0
281
     0
  0
CLASS
  1
ACMDETAILSTANDARDISO
  2
AmdtDetailSymStdISO
  3
"Amdt_StdImp|Product Description: AutoCAD Mechanical|Company: Autodesk, Inc."
 90
     1024
 91
        1
280
     0
281
     0
  0
CLASS
  1
ACMSECTIONSTANDARDISO2001
  2
AmdtSectionSymStdISO2001
  3
"Amdt_StdImp|Product Description: AutoCAD Mechanical|Company: Autodesk, Inc."
 90
     1024
 91
        1
280
     0
281
     0
  0
CLASS
  1
ACMCENTERLINESTANDARDISO
  2
AmdtCenterLineStdISO
  3
"Amdt_StdImp|Product Description: AutoCAD Mechanical|Company: Autodesk, Inc."
 90
     1024
 91
        1
280
     0
281
     0
  0
CLASS
  1
ACMTHREADLINESTANDARDISO
  2
AmdtThreadLineStdISO
  3
"Amdt_StdImp|Product Description: AutoCAD Mechanical|Company: Autodesk, Inc."
 90
     1024
 91
        1
280
     0
281
     0
  0
CLASS
  1
ACMNOTESTANDARDISO
  2
AmdtNoteStdISO
  3
"Amdt_StdImp|Product Description: AutoCAD Mechanical|Company: Autodesk, Inc."
 90
     1024
 91
        1
280
     0
281
     0
  0
CLASS
  1
ACMTAPERSTANDARDISO
  2
AcmTaperStdISO
  3
"Amdt_StdImp|Product Description: AutoCAD Mechanical|Company: Autodesk, Inc."
 90
     1024
 91
        1
280
     0
281
     0
  0
CLASS
  1
ACMANOOTATIONVIEWSTANDARDISO
  2
AmdtAnViewStdISO
  3
"Amdt_StdImp|Product Description: AutoCAD Mechanical|Company: Autodesk, Inc."
 90
     1024
 91
        1
280
     0
281
     0
  0
CLASS
  1
ACAMGHOLECHARTSTDISO
  2
AcAmgHoleChartStdISO
  3
AmgDim|Product Description: AutoCAD Mechanical|Company: Autodesk, Inc.
 90
     1024
 91
        1
280
     0
281
     0
  0
ENDSEC
  0
SECTION
  2
TABLES
  0
TABLE
  2
VPORT
  5
8
330
0
100
AcDbSymbolTable
 70
     1
  0
VPORT
  5
1EF86
330
8
100
AcDbSymbolTableRecord
100
AcDbViewportTableRecord
  2
*Active
 70
     0
 10
0.0
 20
0.0
 11
1.0
 21
1.0
 12
24195.98214209405
 22
3707.843504831774
 13
0.0
 23
0.0
 14
0.5
 24
0.5
 15
0.5
 25
0.5
 16
0.0
 26
0.0
 36
1.0
 17
0.0
 27
0.0
 37
0.0
 40
675.4080175147675
 41
1.746906636670416
 42
50.0
 43
0.0
 44
0.0
 50
0.0
 51
0.0
 71
     0
 72
   100
 73
     1
 74
     1
 75
     0
 76
     0
 77
     0
 78
     0
281
     0
 65
     0
110
0.0
120
0.0
130
0.0
111
1.0
121
0.0
131
0.0
112
0.0
122
1.0
132
0.0
 79
     0
146
0.0
348
1EFA7
 60
     3
 61
     5
292
     1
282
     1
141
0.0
142
0.0
 63
   250
421
  3355443
1001
ACAD_NAV_VCDISPLAY
1070
     3
  0
ENDTAB
  0
TABLE
  2
LTYPE
  5
5
330
0
100
AcDbSymbolTable
 70
    12
  0
LTYPE
  5
12
330
5
100
AcDbSymbolTableRecord
100
AcDbLinetypeTableRecord
  2
BYBLOCK
 70
     0
  3

 72
    65
 73
     0
 40
0.0
  0
LTYPE
  5
13
330
5
100
AcDbSymbolTableRecord
100
AcDbLinetypeTableRecord
  2
BYLAYER
 70
     0
  3

 72
    65
 73
     0
 40
0.0
  0
LTYPE
  5
14
330
5
100
AcDbSymbolTableRecord
100
AcDbLinetypeTableRecord
  2
CONTINUOUS
 70
     0
  3
Solid line
 72
    65
 73
     0
 40
0.0
  0
LTYPE
  5
114
330
5
100
AcDbSymbolTableRecord
100
AcDbLinetypeTableRecord
  2
CENTER
 70
     0
  3
____ _ ____ _ ____ _ ____ _ ____ _ ____ _ ____
 72
    65
 73
     4
 40
2.0
 49
1.25
 74
     0
 49
-0.25
 74
     0
 49
0.25
 74
     0
 49
-0.25
 74
     0
  0
LTYPE
  5
1DFF2
330
5
100
AcDbSymbolTableRecord
100
AcDbLinetypeTableRecord
  2
CENTER2
 70
     0
  3
Center (.5x) ___ _ ___ _ ___ _ ___ _ ___ _ ___
 72
    65
 73
     4
 40
1.125
 49
0.75
 74
     0
 49
-0.125
 74
     0
 49
0.125
 74
     0
 49
-0.125
 74
     0
  0
LTYPE
  5
39E20
330
5
100
AcDbSymbolTableRecord
100
AcDbLinetypeTableRecord
  2
HIDDEN
 70
     0
  3
Hidden __ __ __ __ __ __ __ __ __ __ __ __ __ _
 72
    65
 73
     2
 40
0.375
 49
0.25
 74
     0
 49
-0.125
 74
     0
  0
LTYPE
  5
39E21
330
5
100
AcDbSymbolTableRecord
100
AcDbLinetypeTableRecord
  2
PHANTOM2
 70
     0
  3
Phantom (.5x) ___ _ _ ___ _ _ ___ _ _ ___ _ _
 72
    65
 73
     6
 40
1.25
 49
0.625
 74
     0
 49
-0.125
 74
     0
 49
0.125
 74
     0
 49
-0.125
 74
     0
 49
0.125
 74
     0
 49
-0.125
 74
     0
  0
LTYPE
  5
39E5E
330
5
100
AcDbSymbolTableRecord
100
AcDbLinetypeTableRecord
  2
HIDDEN2
 70
     0
  3
Hidden (.5x) _ _ _ _ _ _ _ _ _ _ _ _ _ _ _ _ _
 72
    65
 73
     2
 40
0.1875
 49
0.125
 74
     0
 49
-0.0625
 74
     0
  0
LTYPE
  5
39E6E
330
5
100
AcDbSymbolTableRecord
100
AcDbLinetypeTableRecord
  2
ACANSTGB
 70
     0
  3
__ . . __ . .
 72
    65
 73
     6
 40
0.35433070866
 49
0.15748031496
 74
     0
 49
-0.03937007874
 74
     0
 49
0.03937007874
 74
     0
 49
-0.03937007874
 74
     0
 49
0.03937007874
 74
     0
 49
-0.03937007874
 74
     0
  0
LTYPE
  5
39E6F
330
5
100
AcDbSymbolTableRecord
100
AcDbLinetypeTableRecord
  2
ACANSTGL
 70
     0
  3
_ _ _ _ _
 72
    65
 73
     2
 40
0.11811023622
 49
0.07874015748
 74
     0
 49
-0.03937007874
 74
     0
  0
LTYPE
  5
3AC00
330
5
100
AcDbSymbolTableRecord
100
AcDbLinetypeTableRecord
  2
ACISOWELD
 70
     0
  3
_ _ _ _ _
 72
    65
 73
     2
 40
2.0
 49
2.0
 74
     0
 49
-1.0
 74
     0
  0
LTYPE
  5
3AC01
330
5
100
AcDbSymbolTableRecord
100
AcDbLinetypeTableRecord
  2
ACISOTGL
 70
     0
  3
_ _ _ _ _
 72
    65
 73
     2
 40
3.0
 49
2.0
 74
     0
 49
-1.0
 74
     0
  0
LTYPE
  5
3AC02
330
5
100
AcDbSymbolTableRecord
100
AcDbLinetypeTableRecord
  2
ACISOTGB
 70
     0
  3
__ . . __ . .
 72
    65
 73
     6
 40
9.0
 49
4.0
 74
     0
 49
-1.0
 74
     0
 49
1.0
 74
     0
 49
-1.0
 74
     0
 49
1.0
 74
     0
 49
-1.0
 74
     0
  0
ENDTAB
  0
TABLE
  2
LAYER
  5
2
102
{ACAD_XDICTIONARY
360
1EFED
102
}
330
0
100
AcDbSymbolTable
 70
     9
  0
LAYER
  5
E
102
{ACAD_XDICTIONARY
360
1EFF5
102
}
330
2
100
AcDbSymbolTableRecord
100
AcDbLayerTableRecord
  2
0
 70
     0
 62
     7
  6
CONTINUOUS
370
    -3
390
3B07
347
1EF99
  0
LAYER
  5
34
102
{ACAD_XDICTIONARY
360
1EFF7
102
}
330
2
100
AcDbSymbolTableRecord
100
AcDbLayerTableRecord
  2
SHEET
 70
     0
 62
     7
  6
CONTINUOUS
370
    -3
390
3B07
347
1EF99
  0
LAYER
  5
38
102
{ACAD_XDICTIONARY
360
1EFF9
102
}
330
2
100
AcDbSymbolTableRecord
100
AcDbLayerTableRecord
  2
VP
 70
     1
 62
     4
  6
CONTINUOUS
370
    -3
390
3B07
347
1EF99
  0
LAYER
  5
39
102
{ACAD_XDICTIONARY
360
1EFFB
102
}
330
2
100
AcDbSymbolTableRecord
100
AcDbLayerTableRecord
  2
SINK
 70
     0
 62
     4
  6
CONTINUOUS
370
    -3
390
3B07
347
1EF99
  0
LAYER
  5
E8
330
2
100
AcDbSymbolTableRecord
100
AcDbLayerTableRecord
  2
DEFPOINTS
 70
     0
 62
     7
  6
CONTINUOUS
290
     0
370
    -3
390
3B07
347
1EF99
  0
LAYER
  5
1DFF3
102
{ACAD_XDICTIONARY
360
1EFFF
102
}
330
2
100
AcDbSymbolTableRecord
100
AcDbLayerTableRecord
  2
CL
 70
     0
 62
     2
  6
CENTER2
370
    -3
390
3B07
347
1EF99
  0
LAYER
  5
299BF
330
2
100
AcDbSymbolTableRecord
100
AcDbLayerTableRecord
  2
DIM
 70
     0
 62
     1
  6
CONTINUOUS
370
    -3
390
3B07
347
1EF99
1001
AcAecLayerStandard
1000

1000

1001
ACCMTRANSPARENCY
1071
        0
  0
LAYER
  5
3A357
102
{ACAD_XDICTIONARY
360
3A358
102
}
330
2
100
AcDbSymbolTableRecord
100
AcDbLayerTableRecord
  2
P-0000
 70
     0
 62
     7
  6
CONTINUOUS
370
    -3
390
3B07
347
1EF99
  0
LAYER
  5
3A7DB
330
2
100
AcDbSymbolTableRecord
100
AcDbLayerTableRecord
  2
AM_5
 70
     0
 62
     3
  6
CONTINUOUS
370
    15
390
3B07
347
1EF99
1001
AcAecLayerStandard
1000

1000

  0
ENDTAB
  0
TABLE
  2
STYLE
  5
3
330
0
100
AcDbSymbolTable
 70
     8
  0
STYLE
  5
F
330
3
100
AcDbSymbolTableRecord
100
AcDbTextStyleTableRecord
  2
STANDARD
 70
     0
 40
25.0
 41
1.0
 50
0.0
 71
     0
 42
10.0
  3
comic.ttf
  4

1001
ACAD
1000
Comic Sans MS
1071
       66
  0
STYLE
  5
3F
330
3
100
AcDbSymbolTableRecord
100
AcDbTextStyleTableRecord
  2
TITLE
 70
     0
 40
0.0
 41
1.0
 50
0.0
 71
     0
 42
4.0
  3
C:\R13\COM\fonts\eur_____.pfb
  4

  0
STYLE
  5
39E6C
330
3
100
AcDbSymbolTableRecord
100
AcDbTextStyleTableRecord
  2
ACANSTS
 70
     0
 40
0.0
 41
1.0
 50
0.0
 71
     0
 42
10.0
  3
romans.shx
  4

  0
STYLE
  5
39E6D
330
3
100
AcDbSymbolTableRecord
100
AcDbTextStyleTableRecord
  2
ACANSGDT
 70
     0
 40
0.0
 41
1.0
 50
0.0
 71
     0
 42
10.0
  3
amgdt.shx
  4

  0
STYLE
  5
3A359
330
3
100
AcDbSymbolTableRecord
100
AcDbTextStyleTableRecord
  2
Text_3.5mm
 70
     0
 40
0.0
 41
0.899999976158142
 50
0.0
 71
     0
 42
0.2
  3
arial.ttf
  4

1001
ACAD
1000
Arial
1071
      256
  0
STYLE
  5
3A35A
330
3
100
AcDbSymbolTableRecord
100
AcDbTextStyleTableRecord
  2
Franke
 70
     0
 40
0.0
 41
1.0
 50
0.0
 71
     0
 42
40.0
  3
swissc.ttf
  4

1001
ACAD
1000
Swis721 Cn BT
1071
       34
  0
STYLE
  5
3AC03
330
3
100
AcDbSymbolTableRecord
100
AcDbTextStyleTableRecord
  2
Text__5.0mm
 70
     0
 40
0.0
 41
0.899999976158142
 50
0.0
 71
     0
 42
0.2
  3
arial.ttf
  4

1001
ACAD
1000
Arial
1071
      256
  0
STYLE
  5
3AC04
330
3
100
AcDbSymbolTableRecord
100
AcDbTextStyleTableRecord
  2
ACISOGDT
 70
     0
 40
0.0
 41
1.0
 50
0.0
 71
     0
 42
0.2
  3
amgdt.shx
  4

  0
ENDTAB
  0
TABLE
  2
VIEW
  5
6
330
0
100
AcDbSymbolTable
 70
     1
  0
VIEW
  5
278
330
6
100
AcDbSymbolTableRecord
100
AcDbViewTableRecord
  2
P
 70
     0
 40
815.0
 10
608.7931217819457
 20
3.744870706040615
 41
1137.5
 11
0.0
 21
0.0
 31
1.0
 12
0.0
 22
0.0
 32
0.0
 42
50.0
 43
0.0
 44
0.0
 50
0.0
 71
     0
281
     0
 72
     0
 73
     0
348
1EFA7
  0
ENDTAB
  0
TABLE
  2
UCS
  5
7
330
0
100
AcDbSymbolTable
 70
     0
  0
ENDTAB
  0
TABLE
  2
APPID
  5
9
330
0
100
AcDbSymbolTable
 70
    26
  0
APPID
  5
10
330
9
100
AcDbSymbolTableRecord
100
AcDbRegAppTableRecord
  2
ACAD
 70
     0
  0
APPID
  5
1EFD9
330
9
100
AcDbSymbolTableRecord
100
AcDbRegAppTableRecord
  2
ACAD_MLEADERVER
 70
     0
  0
APPID
  5
1F03C
330
9
100
AcDbSymbolTableRecord
100
AcDbRegAppTableRecord
  2
ACAD_EXEMPT_FROM_CAD_STANDARDS
 70
     0
  0
APPID
  5
1F19E
330
9
100
AcDbSymbolTableRecord
100
AcDbRegAppTableRecord
  2
ACAD_PSEXT
 70
     0
  0
APPID
  5
1F1F6
330
9
100
AcDbSymbolTableRecord
100
AcDbRegAppTableRecord
  2
ACAD_DSTYLE_DIMRADIAL_EXTENSION
 70
     0
  0
APPID
  5
1F2EA
330
9
100
AcDbSymbolTableRecord
100
AcDbRegAppTableRecord
  2
ACAD_NAV_VCDISPLAY
 70
     0
  0
APPID
  5
1F941
330
9
100
AcDbSymbolTableRecord
100
AcDbRegAppTableRecord
  2
GradientColor1ACI
 70
     0
  0
APPID
  5
1F942
330
9
100
AcDbSymbolTableRecord
100
AcDbRegAppTableRecord
  2
GradientColor2ACI
 70
     0
  0
APPID
  5
2540D
330
9
100
AcDbSymbolTableRecord
100
AcDbRegAppTableRecord
  2
AcAecLayerStandard
 70
     0
  0
APPID
  5
2540E
330
9
100
AcDbSymbolTableRecord
100
AcDbRegAppTableRecord
  2
ACCMTRANSPARENCY
 70
     0
  0
APPID
  5
26B83
330
9
100
AcDbSymbolTableRecord
100
AcDbRegAppTableRecord
  2
AcadAnnoPO
 70
     0
  0
APPID
  5
28711
330
9
100
AcDbSymbolTableRecord
100
AcDbRegAppTableRecord
  2
ACAD_DSTYLE_DIMJAG
 70
     0
  0
APPID
  5
28712
330
9
100
AcDbSymbolTableRecord
100
AcDbRegAppTableRecord
  2
ACAD_DSTYLE_DIMTALN
 70
     0
  0
APPID
  5
39E19
330
9
100
AcDbSymbolTableRecord
100
AcDbRegAppTableRecord
  2
MCAD_NO_VIS
 70
     0
  0
APPID
  5
39E1A
330
9
100
AcDbSymbolTableRecord
100
AcDbRegAppTableRecord
  2
ACAD_TEMP_GRAPHIC
 70
     0
  0
APPID
  5
39E26
330
9
100
AcDbSymbolTableRecord
100
AcDbRegAppTableRecord
  2
ACATTRIBSERVICES
 70
     0
  0
APPID
  5
39E42
330
9
100
AcDbSymbolTableRecord
100
AcDbRegAppTableRecord
  2
DESIGNERASSEMBLIES
 70
     0
  0
APPID
  5
39E5C
330
9
100
AcDbSymbolTableRecord
100
AcDbRegAppTableRecord
  2
ACAD_DSTYLE_DIMBREAK
 70
     0
  0
APPID
  5
39E88
330
9
100
AcDbSymbolTableRecord
100
AcDbRegAppTableRecord
  2
GENIUS_GENSCREG_15
 70
     0
  0
APPID
  5
39E89
330
9
100
AcDbSymbolTableRecord
100
AcDbRegAppTableRecord
  2
GENIUS_GENOBJ-N-SDF_13
 70
     0
  0
APPID
  5
39E8A
330
9
100
AcDbSymbolTableRecord
100
AcDbRegAppTableRecord
  2
GENIUS_GENODEF_13
 70
     0
  0
APPID
  5
39E8E
330
9
100
AcDbSymbolTableRecord
100
AcDbRegAppTableRecord
  2
ACAD_DSTYLE_DIMINSPECT
 70
     0
  0
APPID
  5
39E97
330
9
100
AcDbSymbolTableRecord
100
AcDbRegAppTableRecord
  2
AcadAnnoMonitorAlertIconDisabled
 70
     0
  0
APPID
  5
39E99
330
9
100
AcDbSymbolTableRecord
100
AcDbRegAppTableRecord
  2
GENIUS_GENDTOL_13
 70
     0
  0
APPID
  5
3A161
330
9
100
AcDbSymbolTableRecord
100
AcDbRegAppTableRecord
  2
AMAcad
 70
     0
  0
APPID
  5
3A35D
330
9
100
AcDbSymbolTableRecord
100
AcDbRegAppTableRecord
  2
TOP
 70
     0
  0
ENDTAB
  0
TABLE
  2
DIMSTYLE
  5
A
330
0
100
AcDbSymbolTable
 70
    18
100
AcDbDimStyleTable
 71
     1
340
1D
  0
DIMSTYLE
105
1D
330
A
100
AcDbSymbolTableRecord
100
AcDbDimStyleTableRecord
  2
STANDARD
 70
     0
 41
15.0
140
25.0
178
     1
271
     2
272
     2
340
F
1001
ACAD_DSTYLE_DIMJAG
1070
   388
1040
1.5
1001
ACAD_DSTYLE_DIMTALN
1070
   392
1070
     0
  0
DIMSTYLE
105
39E5B
102
{ACAD_REACTORS
330
39E4B
102
}
330
A
100
AcDbSymbolTableRecord
100
AcDbDimStyleTableRecord
  2
AM_ANSI
 70
     0
  4
mm
 41
0.12
 42
0.05
 43
0.5
 44
0.1
 47
0.1
 48
0.1
 78
     7
 79
     2
 90
     1
140
0.12
141
0.0
146
0.71
147
0.06
176
   256
177
   256
178
     2
274
     4
284
     7
340
F
345
12
346
12
347
12
371
    -1
372
    -1
1001
ACAD_DSTYLE_DIMJAG
1070
   388
1040
1.5
1001
ACAD_DSTYLE_DIMBREAK
1070
   391
1040
0.125
  0
DIMSTYLE
105
39E5F
330
A
100
AcDbSymbolTableRecord
100
AcDbDimStyleTableRecord
  2
AM_ANSI$3
 70
     0
  4
mm
 41
0.12
 42
0.05
 43
0.5
 44
0.1
 47
0.1
 48
0.1
 78
     7
 79
     2
 90
     1
140
0.12
141
0.0
146
0.71
147
0.06
176
   256
177
   256
178
     2
274
     4
284
     7
288
     1
289
     0
340
F
345
12
346
12
347
12
371
    -1
372
    -1
1001
ACAD_DSTYLE_DIMBREAK
1070
   391
1040
0.125
1001
ACAD_DSTYLE_DIMJAG
1070
   388
1040
1.5
  0
DIMSTYLE
105
39E60
330
A
100
AcDbSymbolTableRecord
100
AcDbDimStyleTableRecord
  2
AM_ANSI$4
 70
     0
  4
mm
 41
0.12
 42
0.05
 43
0.5
 44
0.1
 47
0.1
 48
0.1
 78
     7
 79
     2
 90
     1
140
0.12
141
0.0
146
0.71
147
0.06
176
   256
177
   256
178
     2
274
     4
284
     7
288
     1
289
     0
340
F
345
12
346
12
347
12
371
    -1
372
    -1
1001
ACAD_DSTYLE_DIMBREAK
1070
   391
1040
0.125
1001
ACAD_DSTYLE_DIMJAG
1070
   388
1040
1.5
  0
DIMSTYLE
105
39E61
330
A
100
AcDbSymbolTableRecord
100
AcDbDimStyleTableRecord
  2
AM_ANSI$7
 70
     0
  4
mm
 41
0.12
 42
0.05
 43
0.5
 44
0.1
 47
0.1
 48
0.1
 78
     7
 79
     2
 90
     1
140
0.12
141
0.0
146
0.71
147
0.06
176
   256
177
   256
178
     2
274
     4
284
     7
340
F
345
12
346
12
347
12
371
    -1
372
    -1
1001
ACAD_DSTYLE_DIMBREAK
1070
   391
1040
0.125
1001
ACAD_DSTYLE_DIMJAG
1070
   388
1040
1.5
  0
DIMSTYLE
105
39E62
330
A
100
AcDbSymbolTableRecord
100
AcDbDimStyleTableRecord
  2
AM_ANSI$SF
 70
     0
  4
mm
 41
0.12
 42
0.05
 43
0.5
 44
0.1
 47
0.1
 48
0.1
 75
     1
 76
     1
 78
     7
 79
     2
 90
     1
140
0.12
141
0.0
146
0.71
147
0.06
176
   256
177
   256
178
     2
274
     4
284
     7
340
F
345
12
346
12
347
12
371
    -1
372
    -1
1001
ACAD_DSTYLE_DIMBREAK
1070
   391
1040
0.125
1001
ACAD_DSTYLE_DIMJAG
1070
   388
1040
1.5
  0
DIMSTYLE
105
39E67
330
A
100
AcDbSymbolTableRecord
100
AcDbDimStyleTableRecord
  2
AM_ANSI$SH
 70
     0
  4
mm
 41
0.12
 42
0.05
 43
0.5
 44
0.1
 47
0.1
 48
0.1
 75
     1
 76
     1
 78
     7
 79
     2
 90
     1
140
0.12
141
0.0
146
0.71
147
0.06
173
     1
176
   256
177
   256
178
     2
274
     4
284
     7
340
F
343
39E63
345
12
346
12
347
12
371
    -1
372
    -1
1001
ACAD_DSTYLE_DIMBREAK
1070
   391
1040
0.125
1001
ACAD_DSTYLE_DIMJAG
1070
   388
1040
1.5
  0
DIMSTYLE
105
3A35B
102
{ACAD_REACTORS
330
3A4A0
102
}
330
A
100
AcDbSymbolTableRecord
100
AcDbDimStyleTableRecord
  2
Lead of KS-STANDARD
 70
     0
 40
6.666666666666666
 41
2.5
 42
0.0
 43
6.0
 44
3.174999999999998
 45
0.00000001
 46
10.0
 73
     0
 77
     1
 78
     8
 79
     2
140
3.5
143
0.03937
146
0.7142857142857145
147
0.8000000000000001
171
     3
176
     4
177
     7
178
     7
271
     1
272
     1
274
     3
284
     8
286
     8
340
3A359
371
    25
372
    25
1001
ACAD_DSTYLE_DIMBREAK
1070
   391
1040
3.75
1001
ACAD_DSTYLE_DIMJAG
1070
   388
1040
1.5
1001
ACAD_DSTYLE_DIMTALN
1070
   392
1070
     0
  0
DIMSTYLE
105
3A35C
102
{ACAD_REACTORS
330
3A49F
330
3A99B
102
}
330
A
100
AcDbSymbolTableRecord
100
AcDbDimStyleTableRecord
  2
Lead of KS-STANDARD$0
 70
     0
 40
6.666666666666666
 41
2.5
 42
0.0
 43
6.0
 44
3.174999999999998
 45
0.00000001
 46
10.0
 73
     0
 77
     1
 78
     8
 79
     2
140
3.5
143
0.03937
146
0.7142857142857145
147
0.8000000000000001
171
     3
176
     4
177
     7
178
     7
271
     1
272
     1
274
     3
284
     8
286
     8
340
3A359
371
    25
372
    25
1001
ACAD_DSTYLE_DIMBREAK
1070
   391
1040
3.75
1001
ACAD_DSTYLE_DIMJAG
1070
   388
1040
1.5
  0
DIMSTYLE
105
3A7DC
330
A
100
AcDbSymbolTableRecord
100
AcDbDimStyleTableRecord
  2
STANDARD$0
 70
     0
 41
15.0
140
25.0
178
     1
271
     2
272
     2
340
F
1001
ACAD_DSTYLE_DIMBREAK
1070
   391
1040
0.125
1001
ACAD_DSTYLE_DIMJAG
1070
   388
1040
1.5
  0
DIMSTYLE
105
3AC05
330
A
100
AcDbSymbolTableRecord
100
AcDbDimStyleTableRecord
  2
KS-Marketing
 70
     0
  3
 in
 40
10.0
 41
3.5
 42
0.0
 43
12.0
 44
3.174999999999998
 45
0.00000001
 46
10.0
 73
     0
 74
     0
 77
     1
 78
     2
 79
     2
140
5.0
143
1.0
144
0.0393700787401575
146
0.7
147
0.8
171
     3
172
     1
176
     7
177
     7
178
     7
271
     3
274
     3
276
     2
277
     5
278
    44
284
     8
286
     8
340
3AC03
371
    25
372
    25
  0
DIMSTYLE
105
3AC06
102
{ACAD_REACTORS
330
3AC1C
102
}
330
A
100
AcDbSymbolTableRecord
100
AcDbDimStyleTableRecord
  2
AM_ISO
 70
     0
  4
"
 41
3.5
 42
1.0
 43
10.0
 44
1.0
 47
0.1
 48
0.1
 73
     0
 74
     0
 77
     1
 78
     8
 79
     2
 90
     1
140
3.5
141
0.0
143
0.0393701
146
0.71
147
1.5
172
     1
176
   256
177
   256
178
     2
271
     2
272
     3
274
     4
283
     0
284
     8
340
F
345
12
346
12
347
12
371
    -1
372
    -1
1001
ACAD_DSTYLE_DIMJAG
1070
   388
1040
1.5
1001
ACAD_DSTYLE_DIMBREAK
1070
   391
1040
3.75
  0
DIMSTYLE
105
3AC07
330
A
100
AcDbSymbolTableRecord
100
AcDbDimStyleTableRecord
  2
AM_ISO$3
 70
     0
  4
"
 41
3.5
 42
1.0
 43
10.0
 44
1.0
 47
0.1
 48
0.1
 73
     0
 77
     1
 78
     8
 79
     2
 90
     1
140
3.5
141
0.0
143
0.0393701
146
0.71
147
1.5
176
   256
177
   256
178
     2
271
     2
272
     3
274
     4
283
     0
284
     8
288
     1
289
     0
340
F
345
12
346
12
347
12
371
    -1
372
    -1
1001
ACAD_DSTYLE_DIMBREAK
1070
   391
1040
3.75
1001
ACAD_DSTYLE_DIMJAG
1070
   388
1040
1.5
  0
DIMSTYLE
105
3AC08
330
A
100
AcDbSymbolTableRecord
100
AcDbDimStyleTableRecord
  2
AM_ISO$4
 70
     0
  4
"
 41
3.5
 42
1.0
 43
10.0
 44
1.0
 47
0.1
 48
0.1
 73
     0
 77
     1
 78
     8
 79
     2
 90
     1
140
3.5
141
0.0
143
0.0393701
146
0.71
147
1.5
176
   256
177
   256
178
     2
271
     2
272
     3
274
     4
283
     0
284
     8
288
     1
289
     0
340
F
345
12
346
12
347
12
371
    -1
372
    -1
1001
ACAD_DSTYLE_DIMBREAK
1070
   391
1040
3.75
1001
ACAD_DSTYLE_DIMJAG
1070
   388
1040
1.5
  0
DIMSTYLE
105
3AC09
330
A
100
AcDbSymbolTableRecord
100
AcDbDimStyleTableRecord
  2
AM_ISO$6
 70
     0
  4
"
 41
3.5
 42
1.0
 43
10.0
 44
1.0
 47
0.1
 48
0.1
 73
     0
 74
     0
 78
     8
 79
     2
 90
     1
140
3.5
141
0.0
143
0.0393701
146
0.71
147
1.5
172
     1
176
   256
177
   256
178
     2
271
     2
272
     3
274
     4
283
     0
284
     8
340
F
345
12
346
12
347
12
371
    -1
372
    -1
1001
ACAD_DSTYLE_DIMBREAK
1070
   391
1040
3.75
1001
ACAD_DSTYLE_DIMJAG
1070
   388
1040
1.5
  0
DIMSTYLE
105
3AC0A
330
A
100
AcDbSymbolTableRecord
100
AcDbDimStyleTableRecord
  2
AM_ISO$7
 70
     0
  4
"
 41
3.5
 42
1.0
 43
10.0
 44
1.0
 47
0.1
 48
0.1
 73
     0
 74
     0
 77
     1
 78
     8
 79
     2
 90
     1
140
3.5
141
0.0
143
0.0393701
146
0.71
147
1.5
172
     1
176
   256
177
   256
178
     2
271
     2
272
     3
274
     4
283
     0
284
     8
340
F
345
12
346
12
347
12
371
    -1
372
    -1
1001
ACAD_DSTYLE_DIMBREAK
1070
   391
1040
3.75
1001
ACAD_DSTYLE_DIMJAG
1070
   388
1040
1.5
  0
DIMSTYLE
105
3AC0B
330
A
100
AcDbSymbolTableRecord
100
AcDbDimStyleTableRecord
  2
AM_ISO$SF
 70
     0
  4
"
 41
3.5
 42
1.0
 43
10.0
 44
1.0
 47
0.1
 48
0.1
 73
     0
 74
     0
 75
     1
 76
     1
 77
     1
 78
     8
 79
     2
 90
     1
140
3.5
141
0.0
143
0.0393701
146
0.71
147
1.5
172
     1
176
   256
177
   256
178
     2
271
     2
272
     3
274
     4
283
     0
284
     8
340
F
345
12
346
12
347
12
371
    -1
372
    -1
1001
ACAD_DSTYLE_DIMBREAK
1070
   391
1040
3.75
1001
ACAD_DSTYLE_DIMJAG
1070
   388
1040
1.5
  0
DIMSTYLE
105
3AC0C
330
A
100
AcDbSymbolTableRecord
100
AcDbDimStyleTableRecord
  2
AM_ISO$SH
 70
     0
  4
"
 41
3.5
 42
1.0
 43
10.0
 44
1.0
 47
0.1
 48
0.1
 73
     0
 74
     0
 75
     1
 76
     1
 77
     1
 78
     8
 79
     2
 90
     1
140
3.5
141
0.0
143
0.0393701
144
2.0
146
0.71
147
1.5
172
     1
173
     1
176
   256
177
   256
178
     2
271
     2
272
     3
274
     4
283
     0
284
     8
340
F
343
39E63
345
12
346
12
347
12
371
    -1
372
    -1
1001
ACAD_DSTYLE_DIMBREAK
1070
   391
1040
3.75
1001
ACAD_DSTYLE_DIMJAG
1070
   388
1040
1.5
  0
ENDTAB
  0
TABLE
  2
BLOCK_RECORD
  5
1
330
0
100
AcDbSymbolTable
 70
     9
  0
BLOCK_RECORD
  5
18
102
{ACAD_XDICTIONARY
360
1F039
102
}
330
1
100
AcDbSymbolTableRecord
100
AcDbBlockTableRecord
  2
*MODEL_SPACE
340
3B0A
 70
     0
280
     1
281
     0
  0
BLOCK_RECORD
  5
15
330
1
100
AcDbSymbolTableRecord
100
AcDbBlockTableRecord
  2
*PAPER_SPACE
340
3B0B
 70
     0
280
     1
281
     0
  0
BLOCK_RECORD
  5
39E63
330
1
100
AcDbSymbolTableRecord
100
AcDbBlockTableRecord
  2
GENAXEH
340
0
 70
     0
280
     1
281
     0
  0
BLOCK_RECORD
  5
39E71
330
1
100
AcDbSymbolTableRecord
100
AcDbBlockTableRecord
  2
_ACMFILLEDHALF
340
0
 70
     0
280
     1
281
     0
  0
BLOCK_RECORD
  5
3A4AE
330
1
100
AcDbSymbolTableRecord
100
AcDbBlockTableRecord
  2
*D3
340
0
 70
     0
280
     1
281
     0
  0
BLOCK_RECORD
  5
3A4BA
330
1
100
AcDbSymbolTableRecord
100
AcDbBlockTableRecord
  2
*D4
340
0
 70
     0
280
     1
281
     0
  0
BLOCK_RECORD
  5
3A99C
330
1
100
AcDbSymbolTableRecord
100
AcDbBlockTableRecord
  2
*D5
340
0
 70
     0
280
     1
281
     0
  0
BLOCK_RECORD
  5
3AC41
330
1
100
AcDbSymbolTableRecord
100
AcDbBlockTableRecord
  2
*D7
340
0
 70
     0
280
     1
281
     0
  0
BLOCK_RECORD
  5
3AC8C
330
1
100
AcDbSymbolTableRecord
100
AcDbBlockTableRecord
  2
*D8
340
0
 70
     0
280
     1
281
     0
  0
ENDTAB
  0
ENDSEC
  0
SECTION
  2
BLOCKS
  0
BLOCK
  5
19
330
18
100
AcDbEntity
  8
0
100
AcDbBlockBegin
  2
*MODEL_SPACE
 70
     0
 10
0.0
 20
0.0
 30
0.0
  3
*MODEL_SPACE
  1

  0
ENDBLK
  5
1A
330
18
100
AcDbEntity
  8
0
100
AcDbBlockEnd
  0
BLOCK
  5
16
330
15
100
AcDbEntity
 67
     1
  8
0
100
AcDbBlockBegin
  2
*PAPER_SPACE
 70
     0
 10
0.0
 20
0.0
 30
0.0
  3
*PAPER_SPACE
  1

  0
ENDBLK
  5
17
330
15
100
AcDbEntity
 67
     1
  8
0
100
AcDbBlockEnd
  0
BLOCK
  5
39E65
330
39E63
100
AcDbEntity
  8
0
100
AcDbBlockBegin
  2
GENAXEH
 70
     0
 10
0.0
 20
0.0
 30
0.0
  3
GENAXEH
  1

  0
LINE
  5
39E64
330
39E63
100
AcDbEntity
  8
0
100
AcDbLine
 10
-1.0
 20
0.0
 30
0.0
 11
1.0
 21
0.0
 31
0.0
  0
ENDBLK
  5
39E66
330
39E63
100
AcDbEntity
  8
0
100
AcDbBlockEnd
  0
BLOCK
  5
39E74
330
39E71
100
AcDbEntity
  8
0
100
AcDbBlockBegin
  2
_ACMFILLEDHALF
 70
     0
 10
0.0
 20
0.0
 30
0.0
  3
_ACMFILLEDHALF
  1

  0
TRACE
  5
39E72
330
39E71
100
AcDbEntity
  8
DIM
 62
     0
100
AcDbTrace
 10
-0.8
 20
0.0
 30
0.0
 11
-1.0
 21
0.166666666
 31
0.0
 12
0.0
 22
0.0
 32
0.0
 13
0.0
 23
0.0
 33
0.0
  0
LINE
  5
39E73
330
39E71
100
AcDbEntity
  8
DIM
 62
     0
100
AcDbLine
 10
-1.0
 20
0.0
 30
0.0
 11
-0.8
 21
0.0
 31
0.0
  0
ENDBLK
  5
39E75
330
39E71
100
AcDbEntity
  8
0
100
AcDbBlockEnd
  0
BLOCK
  5
3A4AF
330
3A4AE
100
AcDbEntity
  8
0
100
AcDbBlockBegin
  2
*D3
 70
     1
 10
0.0
 20
0.0
 30
0.0
  3
*D3
  1

  0
LINE
  5
3AB64
330
3A4AE
100
AcDbEntity
  8
0
 62
     7
440
 16777216
370
    25
100
AcDbLine
 10
23846.13752458939
 20
3554.890601755634
 30
0.0
 11
23846.13752458939
 21
3591.388370012783
 31
0.0
  0
LINE
  5
3AB65
330
3A4AE
100
AcDbEntity
  8
0
 62
     7
440
 16777216
370
    25
100
AcDbLine
 10
24636.71352458939
 20
3554.890601755634
 30
0.0
 11
24636.71352458939
 21
3591.388370012783
 31
0.0
  0
LINE
  5
3AB66
330
3A4AE
100
AcDbEntity
  8
0
 62
     1
440
 16777216
370
    25
100
AcDbLine
 10
23862.80419125605
 20
3570.221703346117
 30
0.0
 11
24620.04685792272
 21
3570.221703346117
 31
0.0
  0
SOLID
  5
3AB67
330
3A4AE
100
AcDbEntity
  8
0
 62
     1
440
 16777216
100
AcDbTrace
 10
23862.80419125605
 20
3572.999481123895
 30
0.0
 11
23862.80419125605
 21
3567.44392556834
 31
0.0
 12
23846.13752458939
 22
3570.221703346117
 32
0.0
 13
23846.13752458939
 23
3570.221703346117
 33
0.0
  0
SOLID
  5
3AB68
330
3A4AE
100
AcDbEntity
  8
0
 62
     1
440
 16777216
100
AcDbTrace
 10
24620.04685792272
 20
3572.999481123895
 30
0.0
 11
24620.04685792272
 21
3567.44392556834
 31
0.0
 12
24636.71352458939
 22
3570.221703346117
 32
0.0
 13
24636.71352458939
 23
3570.221703346117
 33
0.0
  0
MTEXT
  5
3AB69
330
3A4AE
100
AcDbEntity
  8
0
 62
     1
440
 16777216
100
AcDbMText
 10
24382.78507671905
 20
3579.004280074175
 30
0.0
 40
23.33333333333333
 41
0.0
 46
0.0
 71
     5
 72
     1
  1
\A1;{\H0.28571x;31-1/8"}
  7
Text_3.5mm
 73
     1
 44
1.0
  0
POINT
  5
3AB6A
330
3A4AE
100
AcDbEntity
  8
DEFPOINTS
 62
     0
440
 16777216
100
AcDbPoint
 10
23846.13752458939
 20
3554.890601755634
 30
0.0
  0
POINT
  5
3AB6B
330
3A4AE
100
AcDbEntity
  8
DEFPOINTS
 62
     0
440
 16777216
100
AcDbPoint
 10
24636.71352458939
 20
3554.890601755634
 30
0.0
  0
POINT
  5
3AB6C
330
3A4AE
100
AcDbEntity
  8
DEFPOINTS
 62
     0
440
 16777216
100
AcDbPoint
 10
24636.71352458939
 20
3570.221703346117
 30
0.0
  0
ENDBLK
  5
3A4B0
330
3A4AE
100
AcDbEntity
  8
0
100
AcDbBlockEnd
  0
BLOCK
  5
3A4BB
330
3A4BA
100
AcDbEntity
  8
0
100
AcDbBlockBegin
  2
*D4
 70
     1
 10
0.0
 20
0.0
 30
0.0
  3
*D4
  1

  0
LINE
  5
3A9DE
330
3A4BA
100
AcDbEntity
  8
0
 62
     1
440
 16777216
370
    25
100
AcDbLine
 10
24530.1348520358
 20
3916.339075097747
 30
0.0
 11
24556.79765274406
 21
3916.339075097747
 31
0.0
  0
LINE
  5
3A9DF
330
3A4BA
100
AcDbEntity
  8
0
 62
     1
440
 16777216
370
    25
100
AcDbLine
 10
24556.79765274406
 20
3916.339075097747
 30
0.0
 11
24610.23923808858
 21
3943.911056888371
 31
0.0
  0
MTEXT
  5
3A9E0
330
3A4BA
100
AcDbEntity
  8
0
 62
     1
440
 16777216
100
AcDbMText
 10
24540.79958572326
 20
3924.055082373781
 30
0.0
 40
4.666666666666666
 41
0.0
 46
0.0
 71
     5
 72
     1
  1
\A1;R 25mm
  7
Text_3.5mm
 73
     1
 44
1.0
  0
SOLID
  5
3A9E1
330
3A4BA
100
AcDbEntity
  8
0
 62
     1
440
 16777216
100
AcDbTrace
 10
24608.96562290761
 20
3946.379650365134
 30
0.0
 11
24611.51285326955
 21
3941.442463411607
 31
0.0
 12
24625.05079894917
 22
3951.552747974182
 32
0.0
 13
24625.05079894917
 23
3951.552747974182
 33
0.0
  0
LINE
  5
3A9E2
330
3A4BA
100
AcDbEntity
  8
0
 62
     7
440
 16777216
370
    25
100
AcDbLine
 10
24635.11512276879
 20
3957.054765555963
 30
0.0
 11
24636.31512276879
 21
3957.054765555962
 31
0.0
  0
LINE
  5
3A9E3
330
3A4BA
100
AcDbEntity
  8
0
 62
     7
440
 16777216
370
    25
100
AcDbLine
 10
24635.71512276879
 20
3956.454765555963
 30
0.0
 11
24635.71512276879
 21
3957.654765555965
 31
0.0
  0
POINT
  5
3A9E4
330
3A4BA
100
AcDbEntity
  8
DEFPOINTS
 62
     0
440
 16777216
100
AcDbPoint
 10
24625.05079894917
 20
3951.552747974182
 30
0.0
  0
POINT
  5
3A9E5
330
3A4BA
100
AcDbEntity
  8
DEFPOINTS
 62
     0
440
 16777216
100
AcDbPoint
 10
24635.71512276879
 20
3957.054765555963
 30
0.0
  0
ENDBLK
  5
3A4BC
330
3A4BA
100
AcDbEntity
  8
0
100
AcDbBlockEnd
  0
BLOCK
  5
3A99D
330
3A99C
100
AcDbEntity
  8
0
100
AcDbBlockBegin
  2
*D5
 70
     1
 10
0.0
 20
0.0
 30
0.0
  3
*D5
  1

  0
LINE
  5
3AB76
330
3A99C
100
AcDbEntity
  8
0
 62
     7
440
 16777216
370
    25
100
AcDbLine
 10
24610.12552458939
 20
3964.865601755636
 30
0.0
 11
24481.75767603817
 21
3964.865601755636
 31
0.0
  0
LINE
  5
3AB77
330
3A99C
100
AcDbEntity
  8
0
 62
     7
440
 16777216
370
    25
100
AcDbLine
 10
24610.12552458939
 20
3529.890601755634
 30
0.0
 11
24481.75767603817
 21
3529.890601755634
 31
0.0
  0
LINE
  5
3AB78
330
3A99C
100
AcDbEntity
  8
0
 62
     1
440
 16777216
370
    25
100
AcDbLine
 10
24502.92434270484
 20
3948.198935088969
 30
0.0
 11
24502.92434270484
 21
3546.557268422301
 31
0.0
  0
SOLID
  5
3AB79
330
3A99C
100
AcDbEntity
  8
0
 62
     1
440
 16777216
100
AcDbTrace
 10
24500.14656492706
 20
3948.198935088969
 30
0.0
 11
24505.70212048261
 21
3948.198935088969
 31
0.0
 12
24502.92434270484
 22
3964.865601755636
 32
0.0
 13
24502.92434270484
 23
3964.865601755636
 33
0.0
  0
SOLID
  5
3AB7A
330
3A99C
100
AcDbEntity
  8
0
 62
     1
440
 16777216
100
AcDbTrace
 10
24500.14656492706
 20
3546.557268422301
 30
0.0
 11
24505.70212048261
 21
3546.557268422301
 31
0.0
 12
24502.92434270484
 22
3529.890601755634
 32
0.0
 13
24502.92434270484
 23
3529.890601755634
 33
0.0
  0
MTEXT
  5
3AB7B
330
3A99C
100
AcDbEntity
  8
0
 62
     1
440
 16777216
100
AcDbMText
 10
24494.14403970347
 20
3745.698647867848
 30
0.0
 40
23.33333333333333
 41
0.0
 46
0.0
 71
     5
 72
     1
  1
\A1;{\H0.28571x;17-1/8"}
  7
Text_3.5mm
 11
0.0000000000000001
 21
1.0
 31
0.0
 73
     1
 44
1.0
  0
POINT
  5
3AB7C
330
3A99C
100
AcDbEntity
  8
DEFPOINTS
 62
     0
440
 16777216
100
AcDbPoint
 10
24610.12552458939
 20
3964.865601755636
 30
0.0
  0
POINT
  5
3AB7D
330
3A99C
100
AcDbEntity
  8
DEFPOINTS
 62
     0
440
 16777216
100
AcDbPoint
 10
24610.12552458939
 20
3529.890601755634
 30
0.0
  0
POINT
  5
3AB7E
330
3A99C
100
AcDbEntity
  8
DEFPOINTS
 62
     0
440
 16777216
100
AcDbPoint
 10
24502.92434270484
 20
3529.890601755634
 30
0.0
  0
ENDBLK
  5
3A99E
330
3A99C
100
AcDbEntity
  8
0
100
AcDbBlockEnd
  0
BLOCK
  5
3AC42
330
3AC41
100
AcDbEntity
  8
0
100
AcDbBlockBegin
  2
*D7
 70
     1
 10
0.0
 20
0.0
 30
0.0
  3
*D7
  1

  0
LINE
  5
3AC81
330
3AC41
100
AcDbEntity
  8
AM_5
 62
     0
440
 16777216
370
    -2
100
AcDbLine
 10
24239.90002458939
 20
3529.890601755635
 30
0.0
 11
24741.81952654743
 21
3529.890601755635
 31
0.0
  0
LINE
  5
3AC82
330
3AC41
100
AcDbEntity
  8
AM_5
 62
     0
440
 16777216
370
    -2
100
AcDbLine
 10
24241.48802458939
 20
3966.453587026501
 30
0.0
 11
24741.81952654743
 21
3966.453587026501
 31
0.0
  0
LINE
  5
3AC83
330
3AC41
100
AcDbEntity
  8
AM_5
 62
     0
440
 16777216
370
    -2
100
AcDbLine
 10
24741.63952654743
 20
3544.890601755635
 30
0.0
 11
24741.63952654743
 21
3734.102053795669
 31
0.0
  0
LINE
  5
3AC84
330
3AC41
100
AcDbEntity
  8
AM_5
 62
     0
440
 16777216
370
    -2
100
AcDbLine
 10
24741.63952654743
 20
3951.453587026501
 30
0.0
 11
24741.63952654743
 21
3762.242134986467
 31
0.0
  0
SOLID
  5
3AC85
330
3AC41
100
AcDbEntity
  8
AM_5
 62
     0
440
 16777216
100
AcDbTrace
 10
24739.13952654743
 20
3544.890601755635
 30
0.0
 11
24744.13952654743
 21
3544.890601755635
 31
0.0
 12
24741.63952654743
 22
3529.890601755635
 32
0.0
 13
24741.63952654743
 23
3529.890601755635
 33
0.0
  0
SOLID
  5
3AC86
330
3AC41
100
AcDbEntity
  8
AM_5
 62
     0
440
 16777216
100
AcDbTrace
 10
24739.13952654743
 20
3951.453587026501
 30
0.0
 11
24744.13952654743
 21
3951.453587026501
 31
0.0
 12
24741.63952654743
 22
3966.453587026501
 32
0.0
 13
24741.63952654743
 23
3966.453587026501
 33
0.0
  0
MTEXT
  5
3AC87
330
3AC41
100
AcDbEntity
  8
AM_5
 62
     1
440
 16777216
100
AcDbMText
 10
24741.63952654743
 20
3748.172094391072
 30
0.0
 40
25.0
 41
0.0
 46
0.0
 71
     5
 72
     1
  1
\A1;436.56
 73
     1
 44
1.0
  0
POINT
  5
3AC88
330
3AC41
100
AcDbEntity
  8
DEFPOINTS
 62
     0
440
 16777216
100
AcDbPoint
 10
24239.83752458939
 20
3529.890601755635
 30
0.0
  0
POINT
  5
3AC89
330
3AC41
100
AcDbEntity
  8
DEFPOINTS
 62
     0
440
 16777216
100
AcDbPoint
 10
24241.42552458939
 20
3966.453587026501
 30
0.0
  0
POINT
  5
3AC8A
330
3AC41
100
AcDbEntity
  8
DEFPOINTS
 62
     0
440
 16777216
100
AcDbPoint
 10
24741.63952654743
 20
3966.453587026501
 30
0.0
  0
ENDBLK
  5
3AC43
330
3AC41
100
AcDbEntity
  8
0
100
AcDbBlockEnd
  0
BLOCK
  5
3AC8D
330
3AC8C
100
AcDbEntity
  8
0
100
AcDbBlockBegin
  2
*D8
 70
     1
 10
0.0
 20
0.0
 30
0.0
  3
*D8
  1

  0
LINE
  5
3ACA3
330
3AC8C
100
AcDbEntity
  8
AM_5
 62
     0
440
 16777216
370
    -2
100
AcDbLine
 10
24636.71352458939
 20
3939.928101755636
 30
0.0
 11
24636.71352458939
 21
4020.225187146841
 31
0.0
  0
LINE
  5
3ACA4
330
3AC8C
100
AcDbEntity
  8
AM_5
 62
     0
440
 16777216
370
    -2
100
AcDbLine
 10
23846.13752458939
 20
3939.928101755636
 30
0.0
 11
23846.13752458939
 21
4020.225187146841
 31
0.0
  0
LINE
  5
3ACA5
330
3AC8C
100
AcDbEntity
  8
AM_5
 62
     0
440
 16777216
370
    -2
100
AcDbLine
 10
24621.71352458939
 20
4020.045187146842
 30
0.0
 11
24297.04664772877
 21
4020.045187146842
 31
0.0
  0
LINE
  5
3ACA6
330
3AC8C
100
AcDbEntity
  8
AM_5
 62
     0
440
 16777216
370
    -2
100
AcDbLine
 10
23861.13752458939
 20
4020.045187146842
 30
0.0
 11
24185.80440145001
 21
4020.045187146842
 31
0.0
  0
SOLID
  5
3ACA7
330
3AC8C
100
AcDbEntity
  8
AM_5
 62
     0
440
 16777216
100
AcDbTrace
 10
24621.71352458939
 20
4022.545187146842
 30
0.0
 11
24621.71352458939
 21
4017.545187146843
 31
0.0
 12
24636.71352458939
 22
4020.045187146842
 32
0.0
 13
24636.71352458939
 23
4020.045187146842
 33
0.0
  0
SOLID
  5
3ACA8
330
3AC8C
100
AcDbEntity
  8
AM_5
 62
     0
440
 16777216
100
AcDbTrace
 10
23861.13752458939
 20
4022.545187146842
 30
0.0
 11
23861.13752458939
 21
4017.545187146843
 31
0.0
 12
23846.13752458939
 22
4020.045187146842
 32
0.0
 13
23846.13752458939
 23
4020.045187146842
 33
0.0
  0
MTEXT
  5
3ACA9
330
3AC8C
100
AcDbEntity
  8
AM_5
 62
     1
440
 16777216
100
AcDbMText
 10
24241.42552458939
 20
4020.045187146842
 30
0.0
 40
25.0
 41
0.0
 46
0.0
 71
     5
 72
     1
  1
\A1;790.58
 73
     1
 44
1.0
  0
POINT
  5
3ACAA
330
3AC8C
100
AcDbEntity
  8
DEFPOINTS
 62
     0
440
 16777216
100
AcDbPoint
 10
24636.71352458939
 20
3939.865601755636
 30
0.0
  0
POINT
  5
3ACAB
330
3AC8C
100
AcDbEntity
  8
DEFPOINTS
 62
     0
440
 16777216
100
AcDbPoint
 10
23846.13752458939
 20
3939.865601755636
 30
0.0
  0
POINT
  5
3ACAC
330
3AC8C
100
AcDbEntity
  8
DEFPOINTS
 62
     0
440
 16777216
100
AcDbPoint
 10
23846.13752458939
 20
4020.045187146842
 30
0.0
  0
ENDBLK
  5
3AC8E
330
3AC8C
100
AcDbEntity
  8
0
100
AcDbBlockEnd
  0
ENDSEC
  0
SECTION
  2
ENTITIES
  0
ARC
  5
39652
330
18
100
AcDbEntity
  8
0
100
AcDbCircle
 39
0.4
 10
23871.13752458939
 20
3939.865601755636
 30
0.0
 40
25.0
100
AcDbArc
 50
90.0
 51
180.0
  0
ARC
  5
3967D
330
18
100
AcDbEntity
  8
0
100
AcDbCircle
 39
0.4
 10
24611.71352458939
 20
3939.865601755636
 30
0.0
 40
25.0
100
AcDbArc
 50
0.0
 51
90.0
  0
ARC
  5
39690
330
18
100
AcDbEntity
  8
0
100
AcDbCircle
 39
0.4
 10
23871.13752458939
 20
3554.890601755635
 30
0.0
 40
25.0
100
AcDbArc
 50
180.0
 51
270.0
  0
ARC
  5
39698
330
18
100
AcDbEntity
  8
0
100
AcDbCircle
 39
0.4
 10
24611.71352458939
 20
3554.890601755634
 30
0.0
 40
25.0
100
AcDbArc
 50
270.0
 51
0.0
  0
LINE
  5
3A408
330
18
100
AcDbEntity
  8
P-0000
  6
Continuous
 62
    22
100
AcDbLine
 10
23885.34234359655
 20
3929.13659834991
 30
0.0
 11
23886.04668280994
 21
3929.13659834991
 31
0.0
  0
LINE
  5
3A409
330
18
100
AcDbEntity
  8
P-0000
  6
Continuous
 62
    22
100
AcDbLine
 10
23905.76818078483
 20
3924.206223856172
 30
0.0
 11
23906.47251999822
 21
3924.206223856172
 31
0.0
  0
LINE
  5
3A40A
330
18
100
AcDbEntity
  8
P-0000
  6
Continuous
 62
    22
100
AcDbLine
 10
23905.41601117817
 20
3922.093206215999
 30
0.0
 11
23905.41601117817
 21
3924.206223856172
 31
0.0
  0
LINE
  5
3A40B
330
18
100
AcDbEntity
  8
P-0000
  6
Continuous
 62
    22
100
AcDbLine
 10
23905.41601117817
 20
3924.206223856172
 30
0.0
 11
23904.71167196477
 21
3924.206223856172
 31
0.0
  0
LINE
  5
3A40C
330
18
100
AcDbEntity
  8
P-0000
  6
Continuous
 62
    22
100
AcDbLine
 10
23904.71167196477
 20
3924.206223856172
 30
0.0
 11
23903.30299353799
 21
3929.13659834991
 31
0.0
  0
LINE
  5
3A40D
330
18
100
AcDbEntity
  8
P-0000
  6
Continuous
 62
    22
100
AcDbLine
 10
23903.30299353799
 20
3929.13659834991
 30
0.0
 11
23903.93689883006
 21
3929.13659834991
 31
0.0
  0
LINE
  5
3A40E
330
18
100
AcDbEntity
  8
P-0000
  6
Continuous
 62
    22
100
AcDbLine
 10
23903.93689883006
 20
3929.13659834991
 30
0.0
 11
23903.93689883006
 21
3931.249615990068
 31
0.0
  0
LINE
  5
3A40F
330
18
100
AcDbEntity
  8
P-0000
  6
Continuous
 62
    22
100
AcDbLine
 10
23903.93689883006
 20
3931.249615990068
 30
0.0
 11
23897.59784590954
 21
3931.249615990068
 31
0.0
  0
LINE
  5
3A410
330
18
100
AcDbEntity
  8
P-0000
  6
Continuous
 62
    22
100
AcDbLine
 10
23897.59784590954
 20
3931.249615990068
 30
0.0
 11
23897.59784590954
 21
3929.13659834991
 31
0.0
  0
LINE
  5
3A411
330
18
100
AcDbEntity
  8
P-0000
  6
Continuous
 62
    22
100
AcDbLine
 10
23897.59784590954
 20
3929.13659834991
 30
0.0
 11
23898.23175120155
 21
3929.13659834991
 31
0.0
  0
LINE
  5
3A412
330
18
100
AcDbEntity
  8
P-0000
  6
Continuous
 62
    22
100
AcDbLine
 10
23898.23175120155
 20
3929.13659834991
 30
0.0
 11
23897.10480846018
 21
3924.206223856172
 31
0.0
  0
LINE
  5
3A413
330
18
100
AcDbEntity
  8
P-0000
  6
Continuous
 62
    22
100
AcDbLine
 10
23897.10480846018
 20
3924.206223856172
 30
0.0
 11
23896.25960140408
 21
3924.206223856172
 31
0.0
  0
LINE
  5
3A414
330
18
100
AcDbEntity
  8
P-0000
  6
Continuous
 62
    22
100
AcDbLine
 10
23896.25960140408
 20
3924.206223856172
 30
0.0
 11
23896.25960140408
 21
3922.093206215999
 31
0.0
  0
LINE
  5
3A415
330
18
100
AcDbEntity
  8
P-0000
  6
Continuous
 62
    22
100
AcDbLine
 10
23896.25960140408
 20
3922.093206215999
 30
0.0
 11
23900.06303315638
 21
3922.093206215999
 31
0.0
  0
LINE
  5
3A416
330
18
100
AcDbEntity
  8
P-0000
  6
Continuous
 62
    22
100
AcDbLine
 10
23900.06303315638
 20
3922.093206215999
 30
0.0
 11
23900.06303315638
 21
3924.206223856172
 31
0.0
  0
LINE
  5
3A417
330
18
100
AcDbEntity
  8
P-0000
  6
Continuous
 62
    22
100
AcDbLine
 10
23900.06303315638
 20
3924.206223856172
 30
0.0
 11
23899.35869394299
 21
3924.206223856172
 31
0.0
  0
LINE
  5
3A418
330
18
100
AcDbEntity
  8
P-0000
  6
Continuous
 62
    22
100
AcDbLine
 10
23899.35869394299
 20
3924.206223856172
 30
0.0
 11
23899.6806775834
 21
3925.614902282955
 31
0.0
  0
LINE
  5
3A419
330
18
100
AcDbEntity
  8
P-0000
  6
Continuous
 62
    22
100
AcDbLine
 10
23899.6806775834
 20
3925.614902282955
 30
0.0
 11
23901.49183556073
 21
3925.614902282955
 31
0.0
  0
LINE
  5
3A41A
330
18
100
AcDbEntity
  8
P-0000
  6
Continuous
 62
    22
100
AcDbLine
 10
23901.49183556073
 20
3925.614902282955
 30
0.0
 11
23901.89431511121
 21
3924.206223856172
 31
0.0
  0
LINE
  5
3A41B
330
18
100
AcDbEntity
  8
P-0000
  6
Continuous
 62
    22
100
AcDbLine
 10
23901.89431511121
 20
3924.206223856172
 30
0.0
 11
23900.83780629109
 21
3924.206223856172
 31
0.0
  0
LINE
  5
3A41C
330
18
100
AcDbEntity
  8
P-0000
  6
Continuous
 62
    22
100
AcDbLine
 10
23900.83780629109
 20
3924.206223856172
 30
0.0
 11
23900.83780629109
 21
3922.093206215999
 31
0.0
  0
LINE
  5
3A41D
330
18
100
AcDbEntity
  8
P-0000
  6
Continuous
 62
    22
100
AcDbLine
 10
23900.83780629109
 20
3922.093206215999
 30
0.0
 11
23905.41601117817
 21
3922.093206215999
 31
0.0
  0
LINE
  5
3A41E
330
18
100
AcDbEntity
  8
P-0000
  6
Continuous
 62
    22
100
AcDbLine
 10
23915.6289297723
 20
3916.810662115582
 30
0.0
 11
23915.6289297723
 21
3936.5321600905
 31
0.0
  0
LINE
  5
3A41F
330
18
100
AcDbEntity
  8
P-0000
  6
Continuous
 62
    22
100
AcDbLine
 10
23915.6289297723
 20
3936.5321600905
 30
0.0
 11
23895.90743179742
 21
3936.5321600905
 31
0.0
  0
LINE
  5
3A420
330
18
100
AcDbEntity
  8
P-0000
  6
Continuous
 62
    22
100
AcDbLine
 10
23895.90743179742
 20
3936.5321600905
 30
0.0
 11
23895.90743179742
 21
3916.810662115582
 31
0.0
  0
LINE
  5
3A421
330
18
100
AcDbEntity
  8
P-0000
  6
Continuous
 62
    22
100
AcDbLine
 10
23895.90743179742
 20
3916.810662115582
 30
0.0
 11
23915.6289297723
 21
3916.810662115582
 31
0.0
  0
LINE
  5
3A422
330
18
100
AcDbEntity
  8
P-0000
  6
Continuous
 62
    22
100
AcDbLine
 10
23900.00266122381
 20
3927.023580709737
 30
0.0
 11
23901.08935601018
 21
3927.023580709737
 31
0.0
  0
LINE
  5
3A423
330
18
100
AcDbEntity
  8
P-0000
  6
Continuous
 62
    22
100
AcDbLine
 10
23901.08935601018
 20
3927.023580709737
 30
0.0
 11
23900.48563668443
 21
3929.13659834991
 31
0.0
  0
LINE
  5
3A424
330
18
100
AcDbEntity
  8
P-0000
  6
Continuous
 62
    22
100
AcDbLine
 10
23900.48563668443
 20
3929.13659834991
 30
0.0
 11
23900.00266122381
 21
3927.023580709737
 31
0.0
  0
LINE
  5
3A425
330
18
100
AcDbEntity
  8
P-0000
  6
Continuous
 62
    22
100
AcDbLine
 10
23877.23591799493
 20
3929.085861657031
 30
0.0
 11
23877.23591799493
 21
3924.206223856172
 31
0.0
  0
LINE
  5
3A426
330
18
100
AcDbEntity
  8
P-0000
  6
Continuous
 62
    22
100
AcDbLine
 10
23877.19820174679
 20
3924.180461847836
 30
0.0
 11
23876.2590827956
 21
3924.180461847836
 31
0.0
  0
LINE
  5
3A427
330
18
100
AcDbEntity
  8
P-0000
  6
Continuous
 62
    22
100
AcDbLine
 10
23876.2590827956
 20
3924.180461847836
 30
0.0
 11
23876.2492924495
 21
3922.093206215999
 31
0.0
  0
LINE
  5
3A428
330
18
100
AcDbEntity
  8
P-0000
  6
Continuous
 62
    22
100
AcDbLine
 10
23876.18593382247
 20
3922.093206215999
 30
0.0
 11
23881.11630831621
 21
3922.093206215999
 31
0.0
  0
LINE
  5
3A429
330
18
100
AcDbEntity
  8
P-0000
  6
Continuous
 62
    22
100
AcDbLine
 10
23881.11630831621
 20
3922.093206215999
 30
0.0
 11
23881.11630831621
 21
3924.206223856172
 31
0.0
  0
LINE
  5
3A42A
330
18
100
AcDbEntity
  8
P-0000
  6
Continuous
 62
    22
100
AcDbLine
 10
23881.11630831621
 20
3924.206223856172
 30
0.0
 11
23880.41196910281
 21
3924.206223856172
 31
0.0
  0
LINE
  5
3A42B
330
18
100
AcDbEntity
  8
P-0000
  6
Continuous
 62
    22
100
AcDbLine
 10
23880.41196910281
 20
3924.206223856172
 30
0.0
 11
23880.41196910281
 21
3925.826204046978
 31
0.0
  0
LINE
  5
3A42C
330
18
100
AcDbEntity
  8
P-0000
  6
Continuous
 62
    22
100
AcDbLine
 10
23880.41196910281
 20
3925.826204046978
 30
0.0
 11
23881.82064752959
 21
3925.826204046978
 31
0.0
  0
LINE
  5
3A42D
330
18
100
AcDbEntity
  8
P-0000
  6
Continuous
 62
    22
100
AcDbLine
 10
23881.82064752959
 20
3925.826204046978
 30
0.0
 11
23881.82064752959
 21
3927.516618159104
 31
0.0
  0
LINE
  5
3A42E
330
18
100
AcDbEntity
  8
P-0000
  6
Continuous
 62
    22
100
AcDbLine
 10
23881.82064752959
 20
3927.516618159104
 30
0.0
 11
23880.41196910281
 21
3927.516618159104
 31
0.0
  0
LINE
  5
3A42F
330
18
100
AcDbEntity
  8
P-0000
  6
Continuous
 62
    22
100
AcDbLine
 10
23880.41196910281
 20
3927.516618159104
 30
0.0
 11
23880.41196910281
 21
3929.13659834991
 31
0.0
  0
LINE
  5
3A430
330
18
100
AcDbEntity
  8
P-0000
  6
Continuous
 62
    22
100
AcDbLine
 10
23880.41196910281
 20
3929.13659834991
 30
0.0
 11
23882.52498674299
 21
3929.13659834991
 31
0.0
  0
LINE
  5
3A431
330
18
100
AcDbEntity
  8
P-0000
  6
Continuous
 62
    22
100
AcDbLine
 10
23882.52498674299
 20
3929.13659834991
 30
0.0
 11
23882.52498674299
 21
3928.432259136518
 31
0.0
  0
LINE
  5
3A432
330
18
100
AcDbEntity
  8
P-0000
  6
Continuous
 62
    22
100
AcDbLine
 10
23882.52498674299
 20
3928.432259136518
 30
0.0
 11
23884.63800438316
 21
3928.432259136518
 31
0.0
  0
LINE
  5
3A433
330
18
100
AcDbEntity
  8
P-0000
  6
Continuous
 62
    22
100
AcDbLine
 10
23884.63800438316
 20
3928.432259136518
 30
0.0
 11
23884.63800438316
 21
3931.249615990068
 31
0.0
  0
LINE
  5
3A434
330
18
100
AcDbEntity
  8
P-0000
  6
Continuous
 62
    22
100
AcDbLine
 10
23884.63800438316
 20
3931.249615990068
 30
0.0
 11
23876.18593382247
 21
3931.249615990068
 31
0.0
  0
LINE
  5
3A435
330
18
100
AcDbEntity
  8
P-0000
  6
Continuous
 62
    22
100
AcDbLine
 10
23876.23484779317
 20
3931.222219947065
 30
0.0
 11
23876.23484779317
 21
3929.13659834991
 31
0.0
  0
LINE
  5
3A436
330
18
100
AcDbEntity
  8
P-0000
  6
Continuous
 62
    22
100
AcDbLine
 10
23876.29679904375
 20
3929.085861657031
 30
0.0
 11
23877.23591799493
 21
3929.085861657031
 31
0.0
  0
ARC
  5
3A437
330
18
100
AcDbEntity
  8
P-0000
  6
Continuous
 62
    22
100
AcDbCircle
 10
23890.27271809029
 20
3928.432259136518
 30
0.0
 40
0.7043392133903155
100
AcDbArc
 50
270.0000193187132
 51
89.99998633941322
  0
LINE
  5
3A438
330
18
100
AcDbEntity
  8
P-0000
  6
Continuous
 62
    22
100
AcDbLine
 10
23890.2727182582
 20
3929.13659834991
 30
0.0
 11
23889.5683788769
 21
3929.13659834991
 31
0.0
  0
LINE
  5
3A439
330
18
100
AcDbEntity
  8
P-0000
  6
Continuous
 62
    22
100
AcDbLine
 10
23889.5683788769
 20
3929.13659834991
 30
0.0
 11
23889.5683788769
 21
3927.727919923129
 31
0.0
  0
LINE
  5
3A43A
330
18
100
AcDbEntity
  8
P-0000
  6
Continuous
 62
    22
100
AcDbLine
 10
23889.5683788769
 20
3927.727919923129
 30
0.0
 11
23890.27271809029
 21
3927.727919923129
 31
0.0
  0
LINE
  5
3A43B
330
18
100
AcDbEntity
  8
P-0000
  6
Continuous
 62
    22
100
AcDbLine
 10
23886.04668280994
 20
3924.206223856172
 30
0.0
 11
23885.34234359655
 21
3924.206223856172
 31
0.0
  0
LINE
  5
3A43C
330
18
100
AcDbEntity
  8
P-0000
  6
Continuous
 62
    22
100
AcDbLine
 10
23885.34234359655
 20
3924.206223856172
 30
0.0
 11
23886.04668280994
 21
3924.206223856172
 31
0.0
  0
LINE
  5
3A43D
330
18
100
AcDbEntity
  8
P-0000
  6
Continuous
 62
    22
100
AcDbLine
 10
23886.04668280994
 20
3924.206223856172
 30
0.0
 11
23886.04668280994
 21
3929.13659834991
 31
0.0
  0
LINE
  5
3A43E
330
18
100
AcDbEntity
  8
P-0000
  6
Continuous
 62
    22
100
AcDbLine
 10
23886.04668280994
 20
3929.13659834991
 30
0.0
 11
23885.34234359655
 21
3929.13659834991
 31
0.0
  0
LINE
  5
3A43F
330
18
100
AcDbEntity
  8
P-0000
  6
Continuous
 62
    22
100
AcDbLine
 10
23885.34234359655
 20
3929.13659834991
 30
0.0
 11
23885.34234359655
 21
3931.249615990068
 31
0.0
  0
LINE
  5
3A440
330
18
100
AcDbEntity
  8
P-0000
  6
Continuous
 62
    22
100
AcDbLine
 10
23885.34234359655
 20
3931.249615990068
 30
0.0
 11
23891.86231816768
 21
3931.249615990068
 31
0.0
  0
ARC
  5
3A441
330
18
100
AcDbEntity
  8
P-0000
  6
Continuous
 62
    22
100
AcDbCircle
 10
23892.09952318965
 20
3928.690253841608
 30
0.0
 40
2.570330879366269
100
AcDbArc
 50
299.3919370094388
 51
95.29512076159722
  0
LINE
  5
3A442
330
18
100
AcDbEntity
  8
P-0000
  6
Continuous
 62
    22
100
AcDbLine
 10
23893.36099312569
 20
3926.450768536901
 30
0.0
 11
23894.14658376391
 21
3924.206223856172
 31
0.0
  0
LINE
  5
3A443
330
18
100
AcDbEntity
  8
P-0000
  6
Continuous
 62
    22
100
AcDbLine
 10
23894.14658376391
 20
3924.206223856172
 30
0.0
 11
23894.8509229773
 21
3924.206223856172
 31
0.0
  0
LINE
  5
3A444
330
18
100
AcDbEntity
  8
P-0000
  6
Continuous
 62
    22
100
AcDbLine
 10
23894.8509229773
 20
3924.206223856172
 30
0.0
 11
23894.8509229773
 21
3922.093206215999
 31
0.0
  0
LINE
  5
3A445
330
18
100
AcDbEntity
  8
P-0000
  6
Continuous
 62
    22
100
AcDbLine
 10
23894.8509229773
 20
3922.093206215999
 30
0.0
 11
23891.75183043839
 21
3922.093206215999
 31
0.0
  0
LINE
  5
3A446
330
18
100
AcDbEntity
  8
P-0000
  6
Continuous
 62
    22
100
AcDbLine
 10
23891.75183043839
 20
3922.093206215999
 30
0.0
 11
23890.27271809029
 21
3926.319241496345
 31
0.0
  0
LINE
  5
3A447
330
18
100
AcDbEntity
  8
P-0000
  6
Continuous
 62
    22
100
AcDbLine
 10
23890.27271809029
 20
3926.319241496345
 30
0.0
 11
23889.5683788769
 21
3926.319241496345
 31
0.0
  0
LINE
  5
3A448
330
18
100
AcDbEntity
  8
P-0000
  6
Continuous
 62
    22
100
AcDbLine
 10
23889.5683788769
 20
3926.319241496345
 30
0.0
 11
23889.5683788769
 21
3924.206223856172
 31
0.0
  0
LINE
  5
3A449
330
18
100
AcDbEntity
  8
P-0000
  6
Continuous
 62
    22
100
AcDbLine
 10
23889.5683788769
 20
3924.206223856172
 30
0.0
 11
23890.27271809029
 21
3924.206223856172
 31
0.0
  0
LINE
  5
3A44A
330
18
100
AcDbEntity
  8
P-0000
  6
Continuous
 62
    22
100
AcDbLine
 10
23890.27271809029
 20
3924.206223856172
 30
0.0
 11
23890.27271809029
 21
3922.093206215999
 31
0.0
  0
LINE
  5
3A44B
330
18
100
AcDbEntity
  8
P-0000
  6
Continuous
 62
    22
100
AcDbLine
 10
23890.27271809029
 20
3922.093206215999
 30
0.0
 11
23885.34234359655
 21
3922.093206215999
 31
0.0
  0
LINE
  5
3A44C
330
18
100
AcDbEntity
  8
P-0000
  6
Continuous
 62
    22
100
AcDbLine
 10
23885.34234359655
 20
3922.093206215999
 30
0.0
 11
23885.34234359655
 21
3924.206223856172
 31
0.0
  0
LINE
  5
3A44D
330
18
100
AcDbEntity
  8
P-0000
  6
Continuous
 62
    22
100
AcDbLine
 10
23875.48159460908
 20
3916.810662115582
 30
0.0
 11
23895.20309258402
 21
3916.810662115582
 31
0.0
  0
LINE
  5
3A44E
330
18
100
AcDbEntity
  8
P-0000
  6
Continuous
 62
    22
100
AcDbLine
 10
23895.20309258402
 20
3916.810662115582
 30
0.0
 11
23895.20309258402
 21
3936.5321600905
 31
0.0
  0
LINE
  5
3A44F
330
18
100
AcDbEntity
  8
P-0000
  6
Continuous
 62
    22
100
AcDbLine
 10
23895.20309258402
 20
3936.5321600905
 30
0.0
 11
23875.48159460908
 21
3936.5321600905
 31
0.0
  0
LINE
  5
3A450
330
18
100
AcDbEntity
  8
P-0000
  6
Continuous
 62
    22
100
AcDbLine
 10
23875.48159460908
 20
3936.5321600905
 30
0.0
 11
23875.48159460908
 21
3916.810662115582
 31
0.0
  0
LINE
  5
3A451
330
18
100
AcDbEntity
  8
P-0000
  6
Continuous
 62
    22
100
AcDbLine
 10
23916.68543859242
 20
3929.13659834991
 30
0.0
 11
23916.68543859242
 21
3931.249615990068
 31
0.0
  0
LINE
  5
3A452
330
18
100
AcDbEntity
  8
P-0000
  6
Continuous
 62
    22
100
AcDbLine
 10
23916.68543859242
 20
3931.249615990068
 30
0.0
 11
23921.61581308616
 21
3931.249615990068
 31
0.0
  0
LINE
  5
3A453
330
18
100
AcDbEntity
  8
P-0000
  6
Continuous
 62
    22
100
AcDbLine
 10
23921.61581308616
 20
3931.249615990068
 30
0.0
 11
23921.61581308616
 21
3929.13659834991
 31
0.0
  0
LINE
  5
3A454
330
18
100
AcDbEntity
  8
P-0000
  6
Continuous
 62
    22
100
AcDbLine
 10
23921.61581308616
 20
3929.13659834991
 30
0.0
 11
23920.91147387277
 21
3929.13659834991
 31
0.0
  0
LINE
  5
3A455
330
18
100
AcDbEntity
  8
P-0000
  6
Continuous
 62
    22
100
AcDbLine
 10
23920.91147387277
 20
3929.13659834991
 30
0.0
 11
23920.91147387277
 21
3927.221859515704
 31
0.0
  0
LINE
  5
3A456
330
18
100
AcDbEntity
  8
P-0000
  6
Continuous
 62
    22
100
AcDbLine
 10
23920.91147387277
 20
3927.221859515704
 30
0.0
 11
23922.67232190621
 21
3929.13659834991
 31
0.0
  0
LINE
  5
3A457
330
18
100
AcDbEntity
  8
P-0000
  6
Continuous
 62
    22
100
AcDbLine
 10
23922.67232190621
 20
3929.13659834991
 30
0.0
 11
23921.96798269282
 21
3929.13659834991
 31
0.0
  0
LINE
  5
3A458
330
18
100
AcDbEntity
  8
P-0000
  6
Continuous
 62
    22
100
AcDbLine
 10
23921.96798269282
 20
3929.13659834991
 30
0.0
 11
23921.96798269282
 21
3931.249615990068
 31
0.0
  0
LINE
  5
3A459
330
18
100
AcDbEntity
  8
P-0000
  6
Continuous
 62
    22
100
AcDbLine
 10
23921.96798269282
 20
3931.249615990068
 30
0.0
 11
23926.19401797317
 21
3931.249615990068
 31
0.0
  0
LINE
  5
3A45A
330
18
100
AcDbEntity
  8
P-0000
  6
Continuous
 62
    22
100
AcDbLine
 10
23926.19401797317
 20
3931.249615990068
 30
0.0
 11
23926.19401797317
 21
3929.13659834991
 31
0.0
  0
LINE
  5
3A45B
330
18
100
AcDbEntity
  8
P-0000
  6
Continuous
 62
    22
100
AcDbLine
 10
23926.19401797317
 20
3929.13659834991
 30
0.0
 11
23925.48967875978
 21
3929.13659834991
 31
0.0
  0
LINE
  5
3A45C
330
18
100
AcDbEntity
  8
P-0000
  6
Continuous
 62
    22
100
AcDbLine
 10
23925.48967875978
 20
3929.13659834991
 30
0.0
 11
23923.78513728592
 21
3927.283087034645
 31
0.0
  0
LINE
  5
3A45D
330
18
100
AcDbEntity
  8
P-0000
  6
Continuous
 62
    22
100
AcDbLine
 10
23923.78513728592
 20
3927.283087034645
 30
0.0
 11
23925.84184836644
 21
3924.206223856172
 31
0.0
  0
LINE
  5
3A45E
330
18
100
AcDbEntity
  8
P-0000
  6
Continuous
 62
    22
100
AcDbLine
 10
23925.84184836644
 20
3924.206223856172
 30
0.0
 11
23926.5461875799
 21
3924.206223856172
 31
0.0
  0
LINE
  5
3A45F
330
18
100
AcDbEntity
  8
P-0000
  6
Continuous
 62
    22
100
AcDbLine
 10
23926.5461875799
 20
3924.206223856172
 30
0.0
 11
23926.5461875799
 21
3922.093206215999
 31
0.0
  0
LINE
  5
3A460
330
18
100
AcDbEntity
  8
P-0000
  6
Continuous
 62
    22
100
AcDbLine
 10
23926.5461875799
 20
3922.093206215999
 30
0.0
 11
23921.96798269282
 21
3922.093206215999
 31
0.0
  0
LINE
  5
3A461
330
18
100
AcDbEntity
  8
P-0000
  6
Continuous
 62
    22
100
AcDbLine
 10
23921.96798269282
 20
3922.093206215999
 30
0.0
 11
23921.96798269282
 21
3924.206223856172
 31
0.0
  0
LINE
  5
3A462
330
18
100
AcDbEntity
  8
P-0000
  6
Continuous
 62
    22
100
AcDbLine
 10
23921.96798269282
 20
3924.206223856172
 30
0.0
 11
23922.67232190621
 21
3924.206223856172
 31
0.0
  0
LINE
  5
3A463
330
18
100
AcDbEntity
  8
P-0000
  6
Continuous
 62
    22
100
AcDbLine
 10
23922.67232190621
 20
3924.206223856172
 30
0.0
 11
23920.91147387277
 21
3926.840472549765
 31
0.0
  0
LINE
  5
3A464
330
18
100
AcDbEntity
  8
P-0000
  6
Continuous
 62
    22
100
AcDbLine
 10
23920.91147387277
 20
3926.840472549765
 30
0.0
 11
23920.91147387277
 21
3924.206223856172
 31
0.0
  0
LINE
  5
3A465
330
18
100
AcDbEntity
  8
P-0000
  6
Continuous
 62
    22
100
AcDbLine
 10
23920.91147387277
 20
3924.206223856172
 30
0.0
 11
23921.61581308616
 21
3924.206223856172
 31
0.0
  0
LINE
  5
3A466
330
18
100
AcDbEntity
  8
P-0000
  6
Continuous
 62
    22
100
AcDbLine
 10
23921.61581308616
 20
3924.206223856172
 30
0.0
 11
23921.61581308616
 21
3922.093206215999
 31
0.0
  0
LINE
  5
3A467
330
18
100
AcDbEntity
  8
P-0000
  6
Continuous
 62
    22
100
AcDbLine
 10
23921.61581308616
 20
3922.093206215999
 30
0.0
 11
23916.68543859242
 21
3922.093206215999
 31
0.0
  0
LINE
  5
3A468
330
18
100
AcDbEntity
  8
P-0000
  6
Continuous
 62
    22
100
AcDbLine
 10
23916.68543859242
 20
3922.093206215999
 30
0.0
 11
23916.68543859242
 21
3924.206223856172
 31
0.0
  0
LINE
  5
3A469
330
18
100
AcDbEntity
  8
P-0000
  6
Continuous
 62
    22
100
AcDbLine
 10
23916.68543859242
 20
3924.206223856172
 30
0.0
 11
23917.38977780581
 21
3924.206223856172
 31
0.0
  0
LINE
  5
3A46A
330
18
100
AcDbEntity
  8
P-0000
  6
Continuous
 62
    22
100
AcDbLine
 10
23917.38977780581
 20
3924.206223856172
 30
0.0
 11
23917.38977780581
 21
3929.13659834991
 31
0.0
  0
LINE
  5
3A46B
330
18
100
AcDbEntity
  8
P-0000
  6
Continuous
 62
    22
100
AcDbLine
 10
23917.38977780581
 20
3929.13659834991
 30
0.0
 11
23916.68543859242
 21
3929.13659834991
 31
0.0
  0
LINE
  5
3A46C
330
18
100
AcDbEntity
  8
P-0000
  6
Continuous
 62
    22
100
AcDbLine
 10
23916.68543859242
 20
3929.13659834991
 30
0.0
 11
23917.38977780581
 21
3929.13659834991
 31
0.0
  0
LINE
  5
3A46D
330
18
100
AcDbEntity
  8
P-0000
  6
Continuous
 62
    22
100
AcDbLine
 10
23916.3332689857
 20
3936.5321600905
 30
0.0
 11
23916.3332689857
 21
3916.810662115582
 31
0.0
  0
LINE
  5
3A46E
330
18
100
AcDbEntity
  8
P-0000
  6
Continuous
 62
    22
100
AcDbLine
 10
23916.3332689857
 20
3916.810662115582
 30
0.0
 11
23936.05476696064
 21
3916.810662115582
 31
0.0
  0
LINE
  5
3A46F
330
18
100
AcDbEntity
  8
P-0000
  6
Continuous
 62
    22
100
AcDbLine
 10
23936.05476696064
 20
3916.810662115582
 30
0.0
 11
23936.05476696064
 21
3936.5321600905
 31
0.0
  0
LINE
  5
3A470
330
18
100
AcDbEntity
  8
P-0000
  6
Continuous
 62
    22
100
AcDbLine
 10
23936.05476696064
 20
3936.5321600905
 30
0.0
 11
23916.3332689857
 21
3936.5321600905
 31
0.0
  0
LINE
  5
3A471
330
18
100
AcDbEntity
  8
P-0000
  6
Continuous
 62
    22
100
AcDbLine
 10
23905.76818078483
 20
3929.13659834991
 30
0.0
 11
23905.76818078483
 21
3931.249615990068
 31
0.0
  0
LINE
  5
3A472
330
18
100
AcDbEntity
  8
P-0000
  6
Continuous
 62
    22
100
AcDbLine
 10
23905.76818078483
 20
3931.249615990068
 30
0.0
 11
23909.08863707657
 21
3931.249615990068
 31
0.0
  0
LINE
  5
3A473
330
18
100
AcDbEntity
  8
P-0000
  6
Continuous
 62
    22
100
AcDbLine
 10
23909.08863707657
 20
3931.249615990068
 30
0.0
 11
23912.10723370535
 21
3927.023580709737
 31
0.0
  0
LINE
  5
3A474
330
18
100
AcDbEntity
  8
P-0000
  6
Continuous
 62
    22
100
AcDbLine
 10
23912.10723370535
 20
3927.023580709737
 30
0.0
 11
23912.10723370535
 21
3929.13659834991
 31
0.0
  0
LINE
  5
3A475
330
18
100
AcDbEntity
  8
P-0000
  6
Continuous
 62
    22
100
AcDbLine
 10
23912.10723370535
 20
3929.13659834991
 30
0.0
 11
23911.40289449196
 21
3929.13659834991
 31
0.0
  0
LINE
  5
3A476
330
18
100
AcDbEntity
  8
P-0000
  6
Continuous
 62
    22
100
AcDbLine
 10
23911.40289449196
 20
3929.13659834991
 30
0.0
 11
23911.40289449196
 21
3931.249615990068
 31
0.0
  0
LINE
  5
3A477
330
18
100
AcDbEntity
  8
P-0000
  6
Continuous
 62
    22
100
AcDbLine
 10
23911.40289449196
 20
3931.249615990068
 30
0.0
 11
23914.92459055891
 21
3931.249615990068
 31
0.0
  0
LINE
  5
3A478
330
18
100
AcDbEntity
  8
P-0000
  6
Continuous
 62
    22
100
AcDbLine
 10
23914.92459055891
 20
3931.249615990068
 30
0.0
 11
23914.92459055891
 21
3929.13659834991
 31
0.0
  0
LINE
  5
3A479
330
18
100
AcDbEntity
  8
P-0000
  6
Continuous
 62
    22
100
AcDbLine
 10
23914.92459055891
 20
3929.13659834991
 30
0.0
 11
23914.22025134552
 21
3929.13659834991
 31
0.0
  0
LINE
  5
3A47A
330
18
100
AcDbEntity
  8
P-0000
  6
Continuous
 62
    22
100
AcDbLine
 10
23914.22025134552
 20
3929.13659834991
 30
0.0
 11
23914.22025134552
 21
3922.093206215999
 31
0.0
  0
LINE
  5
3A47B
330
18
100
AcDbEntity
  8
P-0000
  6
Continuous
 62
    22
100
AcDbLine
 10
23914.22025134552
 20
3922.093206215999
 30
0.0
 11
23912.10723370535
 21
3922.093206215999
 31
0.0
  0
LINE
  5
3A47C
330
18
100
AcDbEntity
  8
P-0000
  6
Continuous
 62
    22
100
AcDbLine
 10
23912.10723370535
 20
3922.093206215999
 30
0.0
 11
23908.58553763839
 21
3927.023580709737
 31
0.0
  0
LINE
  5
3A47D
330
18
100
AcDbEntity
  8
P-0000
  6
Continuous
 62
    22
100
AcDbLine
 10
23908.58553763839
 20
3927.023580709737
 30
0.0
 11
23908.58553763839
 21
3924.206223856172
 31
0.0
  0
LINE
  5
3A47E
330
18
100
AcDbEntity
  8
P-0000
  6
Continuous
 62
    22
100
AcDbLine
 10
23908.58553763839
 20
3924.206223856172
 30
0.0
 11
23909.28987685179
 21
3924.206223856172
 31
0.0
  0
LINE
  5
3A47F
330
18
100
AcDbEntity
  8
P-0000
  6
Continuous
 62
    22
100
AcDbLine
 10
23909.28987685179
 20
3924.206223856172
 30
0.0
 11
23909.28987685179
 21
3922.093206215999
 31
0.0
  0
LINE
  5
3A480
330
18
100
AcDbEntity
  8
P-0000
  6
Continuous
 62
    22
100
AcDbLine
 10
23909.28987685179
 20
3922.093206215999
 30
0.0
 11
23905.76818078483
 21
3922.093206215999
 31
0.0
  0
LINE
  5
3A481
330
18
100
AcDbEntity
  8
P-0000
  6
Continuous
 62
    22
100
AcDbLine
 10
23905.76818078483
 20
3922.093206215999
 30
0.0
 11
23905.76818078483
 21
3924.206223856172
 31
0.0
  0
LINE
  5
3A482
330
18
100
AcDbEntity
  8
P-0000
  6
Continuous
 62
    22
100
AcDbLine
 10
23905.76818078483
 20
3924.206223856172
 30
0.0
 11
23906.47251999822
 21
3924.206223856172
 31
0.0
  0
LINE
  5
3A483
330
18
100
AcDbEntity
  8
P-0000
  6
Continuous
 62
    22
100
AcDbLine
 10
23906.47251999822
 20
3924.206223856172
 30
0.0
 11
23906.47251999822
 21
3929.13659834991
 31
0.0
  0
LINE
  5
3A484
330
18
100
AcDbEntity
  8
P-0000
  6
Continuous
 62
    22
100
AcDbLine
 10
23906.47251999822
 20
3929.13659834991
 30
0.0
 11
23905.76818078483
 21
3929.13659834991
 31
0.0
  0
LINE
  5
3A485
330
18
100
AcDbEntity
  8
P-0000
  6
Continuous
 62
    22
100
AcDbLine
 10
23905.76818078483
 20
3929.13659834991
 30
0.0
 11
23906.47251999822
 21
3929.13659834991
 31
0.0
  0
LINE
  5
3A486
330
18
100
AcDbEntity
  8
P-0000
  6
Continuous
 62
    22
100
AcDbLine
 10
23926.89835718656
 20
3924.206223856172
 30
0.0
 11
23927.60269639995
 21
3924.206223856172
 31
0.0
  0
LINE
  5
3A487
330
18
100
AcDbEntity
  8
P-0000
  6
Continuous
 62
    22
100
AcDbLine
 10
23927.60269639995
 20
3924.206223856172
 30
0.0
 11
23926.89835718656
 21
3924.206223856172
 31
0.0
  0
LINE
  5
3A488
330
18
100
AcDbEntity
  8
P-0000
  6
Continuous
 62
    22
100
AcDbLine
 10
23926.89835718656
 20
3924.206223856172
 30
0.0
 11
23926.89835718656
 21
3922.093206215999
 31
0.0
  0
LINE
  5
3A489
330
18
100
AcDbEntity
  8
P-0000
  6
Continuous
 62
    22
100
AcDbLine
 10
23926.89835718656
 20
3922.093206215999
 30
0.0
 11
23935.35042774725
 21
3922.093206215999
 31
0.0
  0
LINE
  5
3A48A
330
18
100
AcDbEntity
  8
P-0000
  6
Continuous
 62
    22
100
AcDbLine
 10
23935.35042774725
 20
3922.093206215999
 30
0.0
 11
23935.35042774725
 21
3924.910563069564
 31
0.0
  0
LINE
  5
3A48B
330
18
100
AcDbEntity
  8
P-0000
  6
Continuous
 62
    22
100
AcDbLine
 10
23935.35042774725
 20
3924.910563069564
 30
0.0
 11
23933.23741010708
 21
3924.910563069564
 31
0.0
  0
LINE
  5
3A48C
330
18
100
AcDbEntity
  8
P-0000
  6
Continuous
 62
    22
100
AcDbLine
 10
23933.23741010708
 20
3924.910563069564
 30
0.0
 11
23933.23741010708
 21
3924.206223856172
 31
0.0
  0
LINE
  5
3A48D
330
18
100
AcDbEntity
  8
P-0000
  6
Continuous
 62
    22
100
AcDbLine
 10
23933.23741010708
 20
3924.206223856172
 30
0.0
 11
23931.12439246691
 21
3924.206223856172
 31
0.0
  0
LINE
  5
3A48E
330
18
100
AcDbEntity
  8
P-0000
  6
Continuous
 62
    22
100
AcDbLine
 10
23931.12439246691
 20
3924.206223856172
 30
0.0
 11
23931.12439246691
 21
3925.826204046978
 31
0.0
  0
LINE
  5
3A48F
330
18
100
AcDbEntity
  8
P-0000
  6
Continuous
 62
    22
100
AcDbLine
 10
23931.12439246691
 20
3925.826204046978
 30
0.0
 11
23932.53307089369
 21
3925.826204046978
 31
0.0
  0
LINE
  5
3A490
330
18
100
AcDbEntity
  8
P-0000
  6
Continuous
 62
    22
100
AcDbLine
 10
23932.53307089369
 20
3925.826204046978
 30
0.0
 11
23932.53307089369
 21
3927.516618159104
 31
0.0
  0
LINE
  5
3A491
330
18
100
AcDbEntity
  8
P-0000
  6
Continuous
 62
    22
100
AcDbLine
 10
23932.53307089369
 20
3927.516618159104
 30
0.0
 11
23931.12439246691
 21
3927.516618159104
 31
0.0
  0
LINE
  5
3A492
330
18
100
AcDbEntity
  8
P-0000
  6
Continuous
 62
    22
100
AcDbLine
 10
23931.12439246691
 20
3927.516618159104
 30
0.0
 11
23931.12439246691
 21
3929.13659834991
 31
0.0
  0
LINE
  5
3A493
330
18
100
AcDbEntity
  8
P-0000
  6
Continuous
 62
    22
100
AcDbLine
 10
23931.12439246691
 20
3929.13659834991
 30
0.0
 11
23933.23741010708
 21
3929.13659834991
 31
0.0
  0
LINE
  5
3A494
330
18
100
AcDbEntity
  8
P-0000
  6
Continuous
 62
    22
100
AcDbLine
 10
23933.23741010708
 20
3929.13659834991
 30
0.0
 11
23933.23741010708
 21
3928.432259136518
 31
0.0
  0
LINE
  5
3A495
330
18
100
AcDbEntity
  8
P-0000
  6
Continuous
 62
    22
100
AcDbLine
 10
23933.23741010708
 20
3928.432259136518
 30
0.0
 11
23935.35042774725
 21
3928.432259136518
 31
0.0
  0
LINE
  5
3A496
330
18
100
AcDbEntity
  8
P-0000
  6
Continuous
 62
    22
100
AcDbLine
 10
23935.35042774725
 20
3928.432259136518
 30
0.0
 11
23935.35042774725
 21
3931.249615990068
 31
0.0
  0
LINE
  5
3A497
330
18
100
AcDbEntity
  8
P-0000
  6
Continuous
 62
    22
100
AcDbLine
 10
23935.35042774725
 20
3931.249615990068
 30
0.0
 11
23926.89835718656
 21
3931.249615990068
 31
0.0
  0
LINE
  5
3A498
330
18
100
AcDbEntity
  8
P-0000
  6
Continuous
 62
    22
100
AcDbLine
 10
23926.89835718656
 20
3931.249615990068
 30
0.0
 11
23926.89835718656
 21
3929.13659834991
 31
0.0
  0
LINE
  5
3A499
330
18
100
AcDbEntity
  8
P-0000
  6
Continuous
 62
    22
100
AcDbLine
 10
23926.89835718656
 20
3929.13659834991
 30
0.0
 11
23927.60269639995
 21
3929.13659834991
 31
0.0
  0
LINE
  5
3A49A
330
18
100
AcDbEntity
  8
P-0000
  6
Continuous
 62
    22
100
AcDbLine
 10
23927.60269639995
 20
3929.13659834991
 30
0.0
 11
23927.60269639995
 21
3924.206223856172
 31
0.0
  0
TEXT
  5
3A49B
330
18
100
AcDbEntity
  8
P-0000
  6
Continuous
 62
    22
100
AcDbText
 10
23974.81549445643
 20
3927.20777386372
 30
0.0
 40
9.0
  1
CUT-OUT TEMPLATE FOR KBG11031
  7
Franke
100
AcDbText
1001
TOP
1070
     1
  0
MTEXT
  5
3A49C
330
18
100
AcDbEntity
  8
P-0000
  6
Continuous
 62
    22
100
AcDbMText
 10
23876.94548497529
 20
3888.492186078181
 30
0.0
 40
5.022394538402071
 41
74.09365619278912
 46
0.0
 71
     7
 72
     5
  1
Questions?  Call Franke Customer Service USA 1-800-626-5771
  7
Franke
 73
     2
 44
0.9035999999999999
1001
TOP
1070
    22
  0
DIMENSION
  5
3A49F
330
18
100
AcDbEntity
  8
0
100
AcDbDimension
280
     0
  2
*D3
 10
24636.71352458939
 20
3570.221703346117
 30
0.0
 11
24382.78507671905
 21
3570.221703346117
 31
0.0
 70
   160
  1
{\H0.28571x;31-1/8"}
 71
     5
 42
790.5760000000009
 73
     0
 74
     0
 75
     0
  3
Lead of KS-STANDARD$0
100
AcDbAlignedDimension
 13
23846.13752458939
 23
3554.890601755634
 33
0.0
 14
24636.71352458939
 24
3554.890601755634
 34
0.0
100
AcDbRotatedDimension
1001
ACAD
1000
DSTYLE
1002
{
1070
   176
1070
     1
1070
   178
1070
     1
1002
}
1001
ACAD_DSTYLE_DIMINSPECT
1070
   396
1000
100%
1070
   395
1000

1070
   394
1070
    33
1070
   393
1070
     0
  0
DIMENSION
  5
3A4A0
330
18
100
AcDbEntity
  8
0
100
AcDbDimension
280
     0
  2
*D4
 10
24635.71512276879
 20
3957.054765555963
 30
0.0
 11
24540.79958572326
 21
3916.339075097747
 31
0.0
 70
   164
  1
R 25mm
 71
     5
 42
11.99999999999636
 73
     0
 74
     0
 75
     0
  3
Lead of KS-STANDARD
100
AcDbRadialDimension
 15
24625.05079894917
 25
3951.552747974182
 35
0.0
 40
0.0
1001
ACAD_DSTYLE_DIMRADIAL_EXTENSION
1070
   387
1070
     1
1070
   388
1040
3.141592653589793
1070
   390
1040
4.712388980384689
1001
ACAD
1000
DSTYLE
1002
{
1070
   140
1040
0.7
1070
   176
1070
     1
1070
   178
1070
     1
1070
   288
1070
     1
1002
}
1001
ACAD_DSTYLE_DIMINSPECT
1070
   396
1000
100%
1070
   395
1000

1070
   394
1070
    33
1070
   393
1070
     0
  0
ELLIPSE
  5
3A872
330
18
100
AcDbEntity
  8
0
100
AcDbEllipse
 10
24243.01352458939
 20
3964.865601755636
 30
0.0
 11
-368.7000000000007
 21
0.0
 31
0.0
210
0.0
220
0.0
230
1.0
 40
0.0043070246813132
 41
3.141592653589793
 42
4.716696018382329
  0
ELLIPSE
  5
3A873
330
18
100
AcDbEntity
  8
0
100
AcDbEllipse
 10
24239.83752458939
 20
3529.890601755635
 30
0.0
 11
-368.7000000000007
 21
0.0
 31
0.0
210
0.0
220
0.0
230
1.0
 40
0.0043070246813132
 41
0.0
 42
1.575103364792535
  0
DIMENSION
  5
3A99B
330
18
100
AcDbEntity
  8
0
100
AcDbDimension
280
     0
  2
*D5
 10
24502.92434270484
 20
3529.890601755634
 30
0.0
 11
24502.92434270484
 21
3745.698647867848
 31
0.0
 70
   160
  1
{\H0.28571x;17-1/8"}
 71
     5
 42
434.9750000000012
 73
     0
 74
     0
 75
     0
  3
Lead of KS-STANDARD$0
100
AcDbAlignedDimension
 13
24610.12552458939
 23
3964.865601755636
 33
0.0
 14
24610.12552458939
 24
3529.890601755634
 34
0.0
 50
90.0
100
AcDbRotatedDimension
1001
ACAD_DSTYLE_DIMINSPECT
1070
   396
1000
100%
1070
   395
1000

1070
   394
1070
    33
1070
   393
1070
     0
1001
ACAD
1000
DSTYLE
1002
{
1070
   176
1070
     1
1070
   178
1070
     1
1002
}
  0
LINE
  5
3AA73
330
18
100
AcDbEntity
  8
0
100
AcDbLine
 39
0.4
 10
23846.13752458939
 20
3554.890601755634
 30
0.0
 11
23846.13752458939
 21
3939.865601755636
 31
0.0
  0
LINE
  5
3AA74
330
18
100
AcDbEntity
  8
0
100
AcDbLine
 39
0.4
 10
24636.71352458939
 20
3554.890601755634
 30
0.0
 11
24636.71352458939
 21
3939.865601755636
 31
0.0
  0
ELLIPSE
  5
3AA78
330
18
100
AcDbEntity
  8
0
100
AcDbEllipse
 10
24239.83752458939
 20
3964.865601755636
 30
0.0
 11
-368.7000000000007
 21
0.0
 31
0.0
210
0.0
220
0.0
230
1.0
 40
0.0043070246813132
 41
4.70808194238705
 42
6.283185307179586
  0
ELLIPSE
  5
3AA79
330
18
100
AcDbEntity
  8
0
100
AcDbEllipse
 10
24243.01352458939
 20
3529.890601755634
 30
0.0
 11
-368.7000000000007
 21
0.0
 31
0.0
210
0.0
220
0.0
230
1.0
 40
0.0043070246813132
 41
1.566489288797257
 42
3.141592653589793
  0
MTEXT
  5
3ABD0
330
18
100
AcDbEntity
  8
P-0000
  6
Continuous
 62
    22
100
AcDbMText
 10
23872.6657633496
 20
3542.852605906955
 30
0.0
 40
5.022394538402071
 41
74.09365619278912
 46
0.0
 71
     7
 72
     5
  1
TEM-KBG11031
  7
Franke
 73
     2
 44
0.9035999999999999
1001
TOP
1070
    22
  0
MTEXT
  5
3AC3B
102
{ACAD_XDICTIONARY
360
3AC3C
102
}
330
18
100
AcDbEntity
  8
P-0000
  6
Continuous
 62
    22
100
AcDbMText
 10
23975.07826826086
 20
3915.369640431686
 30
0.0
 40
5.5
 41
228.7030505324378
 46
0.0
 71
     1
 72
     5
  3
\pi-16.5,l16.5,t16.5;Any deviation from this template could prevent the homeowner from being able to\Puse the Franke custom fit accessories that match this sink, so we strongly\Precommend following this cutout template.\P\PClosely follow installation
  3
 instructions before making any cuts to countertop\P\PThis template file, like any template, is meant to be a guideline.  The actual sink\Pand accessories should ALWAYS be present to ensure a perfect cut.\P\pi0,l0,tz;\PFRANKE IS NOT RESPONSIBLE FOR A
  1
N IMPROPERLY CUT COUNTERTOP OR \PAN IMPROPER INSTALLATION\P
  7
Franke
 73
     1
 44
1.0
1001
ACAD
1000
ACAD_MTEXT_COLUMN_INFO_BEGIN
1070
    75
1070
     2
1070
    79
1070
     0
1070
    76
1070
     1
1070
    78
1070
     0
1070
    48
1040
228.7030505324378
1070
    49
1040
15.0
1070
    50
1070
     1
1040
163.6401225953889
1000
ACAD_MTEXT_COLUMN_INFO_END
  0
VIEWPORT
  5
3D
330
15
100
AcDbEntity
 67
     1
  8
0
100
AcDbViewport
 10
732.6970587980667
 20
407.806800694682
 30
0.0
 40
1673.910886403679
 41
822.5407100573512
 68
     1
 69
     1
 12
732.6970587980667
 22
407.806800694682
 13
0.0
 23
0.0
 14
0.5
 24
0.5
 15
0.5
 25
0.5
 16
0.0
 26
0.0
 36
1.0
 17
0.0
 27
0.0
 37
0.0
 42
50.0
 43
0.0
 44
0.0
 45
822.5407100573512
 50
0.0
 51
0.0
 72
   100
 90
    32800
  1

281
     0
 71
     1
 74
     0
110
0.0
120
0.0
130
0.0
111
1.0
121
0.0
131
0.0
112
0.0
122
1.0
132
0.0
 79
     0
146
0.0
170
     0
 61
     5
348
1EFA7
292
     1
282
     1
141
0.0
142
0.0
 63
   250
421
  3355443
1001
GENIUS_GENSCREG_15
1000
PF
1040
1.0
1000
DF
1040
1.0
1000
MIN
1011
-104.2583844037726
1021
-3.46355433399367
1031
0.0
1000
MAX
1011
1569.652501999906
1021
819.0771557233576
1031
0.0
1000
FLAGS
1070
     4
1001
GENIUS_GENOBJ-N-SDF_13
1002
{
1000
OWNER
1000
GEN
1002
}
1001
GENIUS_GENODEF_13
1002
{
1000
HIER
1070
     0
1002
}
1002
{
1000
MANEDIT
1070
     0
1002
}
1002
{
1000
NOSEL
1070
     0
1002
}
1002
{
1000
BEHIND
1070
     0
1002
}
1002
{
1000
OTHER
1070
     0
1002
}
1002
{
1000
REACTOR
1002
}
  0
VIEWPORT
  5
91
330
15
100
AcDbEntity
 67
     1
  8
VP
100
AcDbViewport
 10
568.75
 20
407.5
 30
0.0
 40
1137.5
 41
815.0
 68
     2
 69
     2
 12
24237.42516975837
 22
3759.464413193393
 13
0.0
 23
0.0
 14
0.5
 24
0.5
 15
0.5
 25
0.5
 16
0.0
 26
0.0
 36
1.0
 17
0.0
 27
0.0
 37
0.0
 42
50.0
 43
0.0
 44
0.0
 45
815.0000036287861
 50
0.0
 51
0.0
 72
   100
 90
    32800
  1

281
     0
 71
     1
 74
     0
110
0.0
120
0.0
130
0.0
111
1.0
121
0.0
131
0.0
112
0.0
122
1.0
132
0.0
 79
     0
146
0.0
170
     0
 61
     5
348
1EFA7
292
     1
282
     1
141
0.0
142
0.0
 63
   250
421
  3355443
1001
GENIUS_GENSCREG_15
1000
PF
1040
0.0
1000
DF
1040
0.0
1000
MIN
1011
0.0
1021
0.0
1031
0.0
1000
MAX
1011
1137.5
1021
815.0
1031
0.0
1000
FLAGS
1070
     4
1001
GENIUS_GENOBJ-N-SDF_13
1002
{
1000
OWNER
1000
GEN
1002
}
1001
GENIUS_GENODEF_13
1002
{
1000
HIER
1070
     0
1002
}
1002
{
1000
MANEDIT
1070
     0
1002
}
1002
{
1000
NOSEL
1070
     0
1002
}
1002
{
1000
BEHIND
1070
     0
1002
}
1002
{
1000
OTHER
1070
     0
1002
}
1002
{
1000
REACTOR
1002
}
  0
LINE
  5
92
330
15
100
AcDbEntity
 67
     1
  8
SHEET
100
AcDbLine
 10
1137.5
 20
815.0
 30
0.0
 11
1137.5
 21
0.0
 31
0.0
  0
LINE
  5
C2
330
15
100
AcDbEntity
 67
     1
  8
SHEET
100
AcDbLine
 10
0.0
 20
815.0
 30
0.0
 11
1137.5
 21
815.0
 31
0.0
  0
TEXT
  5
C3
330
15
100
AcDbEntity
 67
     1
  8
SHEET
100
AcDbText
 10
955.1074401272233
 20
29.1462164538458
 30
0.0
 40
7.0
  1
CARRON PHOENIX LIMITED
 41
1.25
  7
TITLE
100
AcDbText
  0
TEXT
  5
C4
330
15
100
AcDbEntity
 67
     1
  8
SHEET
100
AcDbText
 10
997.5323540312032
 20
9.996084583200179
 30
0.0
 40
3.0
  1
T.PATON
100
AcDbText
  0
TEXT
  5
C5
330
15
100
AcDbEntity
 67
     1
  8
SHEET
100
AcDbText
 10
944.3414978404748
 20
9.996084583200179
 30
0.0
 40
3.0
  1
SCALE
100
AcDbText
  0
TEXT
  5
C6
330
15
100
AcDbEntity
 67
     1
  8
SHEET
100
AcDbText
 10
973.4584781159993
 20
20.99891592694101
 30
0.0
 40
4.0
  1
FALKIRK
 41
1.25
  7
TITLE
100
AcDbText
  0
TEXT
  5
C7
330
15
100
AcDbEntity
 67
     1
  8
SHEET
100
AcDbText
 10
972.3840537883388
 20
9.996084583200179
 30
0.0
 40
3.0
  1
DRN.
100
AcDbText
  0
TEXT
  5
C8
330
15
100
AcDbEntity
 67
     1
  8
SHEET
100
AcDbText
 10
1052.979642734028
 20
20.99891592694101
 30
0.0
 40
4.0
  1
SCOTLAND
 41
1.25
  7
TITLE
100
AcDbText
  0
TEXT
  5
CA
330
15
100
AcDbEntity
 67
     1
  8
SHEET
100
AcDbText
 10
1030.426609736202
 20
9.996084583200179
 30
0.0
 40
3.0
  1
DATE
100
AcDbText
  0
TEXT
  5
CB
330
15
100
AcDbEntity
 67
     1
  8
SHEET
100
AcDbText
 10
1079.937248723168
 20
9.996084583200179
 30
0.0
 40
3.0
  1
DWG. No.
100
AcDbText
  0
TEXT
  5
CE
330
15
100
AcDbEntity
 67
     1
  8
SHEET
100
AcDbText
 10
939.9372487231685
 20
64.52122657551583
 30
0.0
 40
3.5
  1
TITLE
100
AcDbText
  0
LINE
  5
D0
330
15
100
AcDbEntity
 67
     1
  8
SHEET
100
AcDbLine
 10
937.5
 20
38.0
 30
0.0
 11
1137.5
 21
38.0
 31
0.0
  0
LINE
  5
D1
330
15
100
AcDbEntity
 67
     1
  8
SHEET
100
AcDbLine
 10
937.5
 20
16.0
 30
0.0
 11
1137.5
 21
16.0
 31
0.0
  0
LINE
  5
D2
330
15
100
AcDbEntity
 67
     1
  8
SHEET
100
AcDbLine
 10
937.5
 20
70.0
 30
0.0
 11
1137.5
 21
70.0
 31
0.0
  0
LINE
  5
D3
330
15
100
AcDbEntity
 67
     1
  8
SHEET
100
AcDbLine
 10
937.5
 20
0.0
 30
0.0
 11
937.5
 21
70.0
 31
0.0
  0
LINE
  5
D4
330
15
100
AcDbEntity
 67
     1
  8
SHEET
100
AcDbLine
 10
1077.5
 20
8.0
 30
0.0
 11
937.5
 21
8.0
 31
0.0
  0
TEXT
  5
D5
330
15
100
AcDbEntity
 67
     1
  8
SHEET
100
AcDbText
 10
947.5230835199594
 20
1.996084583200179
 30
0.0
 40
3.0
  1
1 : 1
100
AcDbText
  0
LINE
  5
D6
330
15
100
AcDbEntity
 67
     1
  8
SHEET
100
AcDbLine
 10
967.5
 20
16.0
 30
0.0
 11
967.5
 21
0.0
 31
0.0
  0
TEXT
  5
D7
330
15
100
AcDbEntity
 67
     1
  8
SHEET
100
AcDbText
 10
1030.426609736202
 20
1.996084583200179
 30
0.0
 40
3.0
  1
DATE
100
AcDbText
  0
LINE
  5
D8
330
15
100
AcDbEntity
 67
     1
  8
SHEET
100
AcDbLine
 10
1027.5
 20
16.0
 30
0.0
 11
1027.5
 21
0.0
 31
0.0
  0
LINE
  5
D9
330
15
100
AcDbEntity
 67
     1
  8
SHEET
100
AcDbLine
 10
1047.5
 20
16.0
 30
0.0
 11
1047.5
 21
0.0
 31
0.0
  0
LINE
  5
DA
330
15
100
AcDbEntity
 67
     1
  8
SHEET
100
AcDbLine
 10
1077.5
 20
16.0
 30
0.0
 11
1077.5
 21
0.0
 31
0.0
  0
LINE
  5
DB
330
15
100
AcDbEntity
 67
     1
  8
SHEET
100
AcDbLine
 10
1137.5
 20
0.0
 30
0.0
 11
0.0
 21
0.0
 31
0.0
  0
LINE
  5
DC
330
15
100
AcDbEntity
 67
     1
  8
SHEET
100
AcDbLine
 10
0.0
 20
0.0
 30
0.0
 11
0.0
 21
815.0
 31
0.0
  0
LINE
  5
14E
330
15
100
AcDbEntity
 67
     1
  8
SHEET
100
AcDbLine
 10
0.0
 20
790.0149865118175
 30
0.0
 11
1137.5
 21
790.0
 31
0.0
  0
TEXT
  5
154
330
15
100
AcDbEntity
 67
     1
  8
SHEET
100
AcDbText
 10
7.267076309069352
 20
800.3549735064748
 30
0.0
 40
4.5
  1
AMENDMENTS
  7
TITLE
100
AcDbText
  0
TEXT
  5
170
330
15
100
AcDbEntity
 67
     1
  8
SHEET
100
AcDbText
 10
957.214337418628
 20
800.5964753277783
 30
0.0
 40
4.0
  1
THIRD ANGLE PROJECTION
 41
1.25
  7
TITLE
100
AcDbText
  0
TEXT
  5
171
330
15
100
AcDbEntity
 67
     1
  8
SHEET
100
AcDbText
 10
793.7548096935724
 20
798.092991447784
 30
0.0
 40
3.0
  1
UNLESS OTHERWISE SPECIFIED
  7
TITLE
100
AcDbText
  0
TEXT
  5
172
330
15
100
AcDbEntity
 67
     1
  8
SHEET
100
AcDbText
 10
789.7731496697663
 20
803.7365461352838
 30
0.0
 40
3.0
  1
ALL DIMENSIONS IN MILLIMETRES
  7
TITLE
100
AcDbText
  0
TEXT
  5
173
330
15
100
AcDbEntity
 67
     1
  8
SHEET
100
AcDbText
 10
893.4291848841144
 20
798.092991447784
 30
0.0
 40
3.0
  1
IF IN DOUBT ASK
  7
TITLE
100
AcDbText
  0
TEXT
  5
174
330
15
100
AcDbEntity
 67
     1
  8
SHEET
100
AcDbText
 10
872.191825957794
 20
803.7365461352838
 30
0.0
 40
3.0
  1
DO NOT SCALE FROM THIS DRAWING
  7
TITLE
100
AcDbText
  0
LINE
  5
175
330
15
100
AcDbEntity
 67
     1
  8
SHEET
100
AcDbLine
 10
1087.5
 20
807.4999999999999
 30
0.0
 11
1122.5
 21
810.0
 31
0.0
  0
LINE
  5
176
330
15
100
AcDbEntity
 67
     1
  8
SHEET
  6
CENTER
100
AcDbLine
 10
1052.5
 20
802.5
 30
0.0
 11
1127.5
 21
802.5
 31
0.0
  0
LINE
  5
177
330
15
100
AcDbEntity
 67
     1
  8
SHEET
100
AcDbLine
 10
1087.5
 20
797.5
 30
0.0
 11
1122.5
 21
795.0
 31
0.0
  0
CIRCLE
  5
178
330
15
100
AcDbEntity
 67
     1
  8
SHEET
100
AcDbCircle
 10
1062.5
 20
802.5
 30
0.0
 40
5.0
  0
CIRCLE
  5
179
330
15
100
AcDbEntity
 67
     1
  8
SHEET
100
AcDbCircle
 10
1062.5
 20
802.5
 30
0.0
 40
7.5
  0
LINE
  5
17A
330
15
100
AcDbEntity
 67
     1
  8
SHEET
  6
CENTER
100
AcDbLine
 10
1062.5
 20
792.4999999999999
 30
0.0
 11
1062.5
 21
812.5
 31
0.0
  0
LINE
  5
17B
330
15
100
AcDbEntity
 67
     1
  8
SHEET
100
AcDbLine
 10
1087.5
 20
797.5
 30
0.0
 11
1087.5
 21
807.4999999999999
 31
0.0
  0
LINE
  5
17C
330
15
100
AcDbEntity
 67
     1
  8
SHEET
100
AcDbLine
 10
1122.5
 20
795.0
 30
0.0
 11
1122.5
 21
810.0
 31
0.0
  0
LINE
  5
1184
330
15
100
AcDbEntity
 67
     1
  8
SHEET
100
AcDbLine
 10
987.5
 20
16.0
 30
0.0
 11
987.5
 21
0.0
 31
0.0
  0
LINE
  5
1186
330
15
100
AcDbEntity
 67
     1
  8
SHEET
  6
Continuous
100
AcDbLine
 10
60.80659639775058
 20
790.0141853876192
 30
0.0
 11
60.80659639775057
 21
815.0
 31
0.0
  0
TEXT
  5
18E3
330
15
100
AcDbEntity
 67
     1
  8
SHEET
100
AcDbText
 10
1119.360240797412
 20
1.957140346978349
 30
0.0
 40
3.0
  1
Pg 1 of 2
100
AcDbText
  0
MTEXT
  5
45B8
330
15
100
AcDbEntity
 67
     1
  8
SHEET
100
AcDbMText
 10
1016.67746885531
 20
49.83664432185491
 30
0.0
 40
5.0
 41
67.45502242847988
 46
0.0
 71
     1
 72
     5
  1
PLAN VIEW
 73
     1
 44
1.0
  0
TEXT
  5
1F239
330
15
100
AcDbEntity
 67
     1
  8
SHEET
100
AcDbText
 10
1003.994165721951
 20
53.53991349913872
 30
0.0
 40
7.0
  1
KUBUS 110-80
  7
TITLE
100
AcDbText
  0
TEXT
  5
1F247
330
15
100
AcDbEntity
 67
     1
  8
SHEET
100
AcDbText
 10
1054.11145697128
 20
9.996084583200179
 30
0.0
 40
3.0
  1
16/03/15
100
AcDbText
  0
TEXT
  5
1F249
330
15
100
AcDbEntity
 67
     1
  8
SHEET
100
AcDbText
 10
1109.910205904953
 20
9.986135497853872
 30
0.0
 40
4.0
  1
KBG118
100
AcDbText
  0
LINE
  5
39A05
330
15
100
AcDbEntity
 67
     1
  8
SHEET
100
AcDbLine
 10
60.80659639775057
 20
807.4999999999999
 30
0.0
 11
68.30659639775058
 21
807.4999999999999
 31
0.0
  0
LINE
  5
39A06
330
15
100
AcDbEntity
 67
     1
  8
SHEET
  6
Continuous
100
AcDbLine
 10
68.30659639775058
 20
807.4999999999999
 30
0.0
 11
68.30659639775058
 21
815.0
 31
0.0
  0
MTEXT
  5
39A07
330
15
100
AcDbEntity
 67
     1
  8
SHEET
100
AcDbMText
 10
61.99335206221531
 20
813.9959796924332
 30
0.0
 40
5.0
 41
5.050063359994965
 46
0.0
 71
     1
 72
     5
  1
A
 73
     1
 44
1.0
1001
ACAD
1000
ACAD_MTEXT_COLUMN_INFO_BEGIN
1070
    75
1070
     2
1070
    79
1070
     0
1070
    76
1070
     1
1070
    78
1070
     0
1070
    48
1040
5.050063359994965
1070
    49
1040
25.0
1070
    50
1070
     1
1040
0.0
1000
ACAD_MTEXT_COLUMN_INFO_END
  0
MTEXT
  5
39A08
330
15
100
AcDbEntity
 67
     1
  8
SHEET
100
AcDbMText
 10
71.0610890037292
 20
813.9959796924332
 30
0.0
 40
3.0
 41
94.27658449987939
 46
0.0
 71
     1
 72
     5
  1
REDUCE OVERALL LENGTH BY 5mm,
 73
     1
 44
1.0
1001
ACAD
1000
ACAD_MTEXT_COLUMN_INFO_BEGIN
1070
    75
1070
     2
1070
    79
1070
     0
1070
    76
1070
     1
1070
    78
1070
     0
1070
    48
1040
94.27658449987939
1070
    49
1040
25.0
1070
    50
1070
     1
1040
0.0
1000
ACAD_MTEXT_COLUMN_INFO_END
  0
MTEXT
  5
39A09
330
15
100
AcDbEntity
 67
     1
  8
SHEET
100
AcDbMText
 10
71.0610890037292
 20
807.2891969254005
 30
0.0
 40
3.0
 41
94.27658449987939
 46
0.0
 71
     1
 72
     5
  1
REDUCE SINK WIDTH BY 0.75" AND,
 73
     1
 44
1.0
1001
ACAD
1000
ACAD_MTEXT_COLUMN_INFO_BEGIN
1070
    75
1070
     2
1070
    79
1070
     0
1070
    76
1070
     1
1070
    78
1070
     0
1070
    48
1040
94.27658449987939
1070
    49
1040
25.0
1070
    50
1070
     1
1040
0.0
1000
ACAD_MTEXT_COLUMN_INFO_END
  0
MTEXT
  5
39A0A
330
15
100
AcDbEntity
 67
     1
  8
SHEET
100
AcDbMText
 10
62.174708096622
 20
800.7636777821117
 30
0.0
 40
3.0
 41
94.27658449987939
 46
0.0
 71
     1
 72
     5
  1
OVERALL WIDTH BY 24.05mm.
 73
     1
 44
1.0
1001
ACAD
1000
ACAD_MTEXT_COLUMN_INFO_BEGIN
1070
    75
1070
     2
1070
    79
1070
     0
1070
    76
1070
     1
1070
    78
1070
     0
1070
    48
1040
94.27658449987939
1070
    49
1040
25.0
1070
    50
1070
     1
1040
0.0
1000
ACAD_MTEXT_COLUMN_INFO_END
  0
LINE
  5
39A0C
330
15
100
AcDbEntity
 67
     1
  8
SHEET
  6
Continuous
100
AcDbLine
 10
151.6653125931784
 20
790.0141853876192
 30
0.0
 11
151.6653125931784
 21
815.0
 31
0.0
  0
ENDSEC
  0
SECTION
  2
OBJECTS
  0
DICTIONARY
  5
C
330
0
100
AcDbDictionary
281
     1
  3
ACAD_CIP_PREVIOUS_PRODUCT_INFO
350
1F2D6
  3
ACAD_COLOR
350
1EFB2
  3
ACAD_DETAILVIEWSTYLE
350
29BAA
  3
ACAD_FIELDLIST
350
39E7B
  3
ACAD_GROUP
350
D
  3
ACAD_LAYOUT
350
3B08
  3
ACAD_MATERIAL
350
1EF88
  3
ACAD_MLEADERSTYLE
350
1EFD7
  3
ACAD_MLINESTYLE
350
1B
  3
ACAD_PLOTSETTINGS
350
3B09
  3
ACAD_PLOTSTYLENAME
350
3B06
  3
ACAD_SCALELIST
350
1EFB5
  3
ACAD_SECTIONVIEWSTYLE
350
29BA8
  3
ACAD_TABLESTYLE
350
1EFB3
  3
ACAD_VISUALSTYLE
350
1EFA1
  3
AcadDim
350
9ECB
  3
ACDB_RECOMPOSE_DATA
350
3ACAF
  3
ACDBVARIABLEDICTIONARY
350
228C
  3
AcDsDecomposeData
350
3ACB5
  3
AcmDictionary
350
39E43
  3
AMG
350
39E2B
  3
AMGSNAPSETTINGS
350
39F3B
  0
DICTIONARY
  5
1EFED
330
2
100
AcDbDictionary
280
     1
281
     1
  3
ACAD_LAYERSTATES
360
1EFEE
  0
DICTIONARY
  5
1EFF5
330
E
100
AcDbDictionary
280
     1
281
     1
  3
ADSK_XREC_LAYER_RECONCILED
360
1EFF6
  0
DICTIONARY
  5
1EFF7
330
34
100
AcDbDictionary
280
     1
281
     1
  3
ADSK_XREC_LAYER_RECONCILED
360
1EFF8
  0
DICTIONARY
  5
1EFF9
330
38
100
AcDbDictionary
280
     1
281
     1
  3
ADSK_XREC_LAYER_RECONCILED
360
1EFFA
  0
DICTIONARY
  5
1EFFB
330
39
100
AcDbDictionary
280
     1
281
     1
  3
ADSK_XREC_LAYER_RECONCILED
360
1EFFC
  0
DICTIONARY
  5
1EFFF
330
1DFF3
100
AcDbDictionary
280
     1
281
     1
  3
ADSK_XREC_LAYER_RECONCILED
360
1F000
  0
DICTIONARY
  5
3A358
330
3A357
100
AcDbDictionary
280
     1
281
     1
  0
DICTIONARY
  5
1F039
330
18
100
AcDbDictionary
280
     1
281
     1
  3
ACAD_SORTENTS
360
1F03A
  0
DICTIONARY
  5
3AC3C
330
3AC3B
100
AcDbDictionary
280
     1
281
     1
  3
ACAD_MTEXT_2008_RT
360
3ACAE
  0
XRECORD
  5
1F2D6
102
{ACAD_REACTORS
330
C
102
}
330
C
100
AcDbXrecord
280
     1
300
AMECH_PP
300
2014
300
PDSP_F_S
  0
DICTIONARY
  5
1EFB2
102
{ACAD_REACTORS
330
C
102
}
330
C
100
AcDbDictionary
281
     1
  0
DICTIONARY
  5
29BAA
102
{ACAD_REACTORS
330
C
102
}
330
C
100
AcDbDictionary
281
     1
  3
Imperial24
350
29BAB
  3
Metric50
350
3A360
  0
FIELDLIST
  5
39E7B
102
{ACAD_REACTORS
330
C
102
}
330
C
100
AcDbIdSet
 90
        7
330
39E79
330
39E7A
330
39E7C
330
39E7D
330
3AC10
330
3AC11
330
3AC12
100
AcDbFieldList
  0
DICTIONARY
  5
D
102
{ACAD_REACTORS
330
C
102
}
330
C
100
AcDbDictionary
281
     1
  0
DICTIONARY
  5
3B08
102
{ACAD_REACTORS
330
C
102
}
330
C
100
AcDbDictionary
281
     1
  3
Layout1
350
3B0B
  3
Model
350
3B0A
  0
DICTIONARY
  5
1EF88
102
{ACAD_REACTORS
330
C
102
}
330
C
100
AcDbDictionary
281
     1
  3
ByBlock
350
1EF91
  3
ByLayer
350
1EF89
  3
Global
350
1EF99
  0
DICTIONARY
  5
1EFD7
102
{ACAD_REACTORS
330
C
102
}
330
C
100
AcDbDictionary
281
     1
  3
Standard
350
1EFD8
  0
DICTIONARY
  5
1B
102
{ACAD_REACTORS
330
C
102
}
330
C
100
AcDbDictionary
281
     1
  3
STANDARD
350
1C
  0
DICTIONARY
  5
3B09
102
{ACAD_REACTORS
330
C
102
}
330
C
100
AcDbDictionary
281
     1
  0
ACDBDICTIONARYWDFLT
  5
3B06
102
{ACAD_REACTORS
330
C
102
}
330
C
100
AcDbDictionary
281
     1
  3
Normal
350
3B07
100
AcDbDictionaryWithDefault
340
3B07
  0
DICTIONARY
  5
1EFB5
102
{ACAD_REACTORS
330
C
102
}
330
C
100
AcDbDictionary
281
     1
  3
A0
350
1EFB6
  3
A1
350
1EFB7
  3
A2
350
1EFB8
  3
A3
350
1EFB9
  3
A4
350
1EFBA
  3
A5
350
1EFBB
  3
A6
350
1EFBC
  3
A7
350
1EFBD
  3
A8
350
1EFBE
  3
A9
350
1EFBF
  3
B0
350
1EFC0
  3
B1
350
1EFC1
  3
B2
350
1EFC2
  3
B3
350
1EFC3
  3
B4
350
1EFC4
  3
B5
350
1EFC5
  3
B6
350
1EFC6
  3
B7
350
1EFC7
  3
B8
350
1EFC8
  3
B9
350
1EFC9
  3
C0
350
1EFCA
  3
C1
350
1EFCB
  3
C2
350
1EFCC
  3
C3
350
1EFCD
  3
C4
350
1EFCE
  3
C5
350
1EFCF
  3
C6
350
1EFD0
  3
C7
350
1EFD1
  3
C8
350
1EFD2
  3
C9
350
1EFD3
  3
D0
350
1EFD4
  3
D1
350
1EFD5
  3
D2
350
1EFD6
  0
DICTIONARY
  5
29BA8
102
{ACAD_REACTORS
330
C
102
}
330
C
100
AcDbDictionary
281
     1
  3
Imperial24
350
29BA9
  3
Metric50
350
3A35E
  0
DICTIONARY
  5
1EFB3
102
{ACAD_REACTORS
330
C
102
}
330
C
100
AcDbDictionary
281
     1
  3
Standard
350
1EFB4
  0
DICTIONARY
  5
1EFA1
102
{ACAD_REACTORS
330
C
102
}
330
C
100
AcDbDictionary
281
     1
  3
2dWireframe
350
1EFA7
  3
3D Hidden
350
1EFA9
  3
3dWireframe
350
1EFA8
  3
Basic
350
1EFA6
  3
Brighten
350
1EFAD
  3
ColorChange
350
1EFB1
  3
Conceptual
350
1EFAA
  3
Dim
350
1EFAC
  3
EdgeColorOff
350
1F2CE
  3
Facepattern
350
1EFB0
  3
Flat
350
1EFA2
  3
FlatWithEdges
350
1EFA3
  3
Gouraud
350
1EFA4
  3
GouraudWithEdges
350
1EFA5
  3
Hidden
350
1F2C6
  3
JitterOff
350
1F2CC
  3
Linepattern
350
1EFAF
  3
OverhangOff
350
1F2CD
  3
Realistic
350
1EFAB
  3
Shaded
350
1F2CB
  3
Shaded with edges
350
1F2CA
  3
Shades of Gray
350
1F2C7
  3
Sketchy
350
1F2C8
  3
Thicken
350
1EFAE
  3
Wireframe
350
1F2C5
  3
X-Ray
350
1F2C9
  0
XRECORD
  5
9ECB
102
{ACAD_REACTORS
330
C
102
}
330
C
100
AcDbXrecord
280
     1
 90
   990106
  3

 60
     0
 61
     0
 62
     1
 63
     3
 64
     0
 65
     0
 66
     0
 67
     3
 68
     1
 69
     0
 70
     0
 71
     0
 72
     0
 40
0.0
170
     0
  0
XRECORD
  5
3ACAF
102
{ACAD_REACTORS
330
C
102
}
330
C
100
AcDbXrecord
280
     1
 90
        1
330
1EFB4
330
39A07
330
39A08
330
39A09
330
39A0A
330
3AC3B
  0
DICTIONARY
  5
228C
102
{ACAD_REACTORS
330
C
102
}
330
C
100
AcDbDictionary
281
     1
  3
CANNOSCALE
350
1F179
  3
CMLEADERSTYLE
350
1F177
  3
CTABLESTYLE
350
1F176
  3
CVIEWDETAILSTYLE
350
2AE98
  3
CVIEWSECTIONSTYLE
350
2AE99
  3
DIMASSOC
350
14D45
  3
HPCOLOR
350
34CB6
  3
HPTRANSPARENCY
350
227C7
  3
LAYEREVAL
350
1F2D8
  3
LAYERNOTIFY
350
1F2D9
  3
LIGHTINGUNITS
350
1F17A
  3
MSLTSCALE
350
1F178
  3
SORTENTS
350
228D
  0
DICTIONARY
  5
3ACB5
102
{ACAD_REACTORS
330
C
102
}
330
C
100
AcDbDictionary
281
     1
  3
AcDsRecords
350
3ACB7
  3
AcDsSchemas
350
3ACB6
1001
ACAD
1070
     2
  0
DICTIONARY
  5
39E43
102
{ACAD_REACTORS
330
C
102
}
330
C
100
AcDbDictionary
281
     1
  3
AcmStdDictionary
350
39E4A
  0
DICTIONARY
  5
39E2B
102
{ACAD_REACTORS
330
C
102
}
330
C
100
AcDbDictionary
281
     1
  0
DICTIONARY
  5
39F3B
102
{ACAD_REACTORS
330
C
102
}
330
C
100
AcDbDictionary
281
     1
  0
DICTIONARY
  5
1EFEE
102
{ACAD_REACTORS
330
1EFED
102
}
330
1EFED
100
AcDbDictionary
281
     1
  0
XRECORD
  5
1EFF6
102
{ACAD_REACTORS
330
1EFF5
102
}
330
1EFF5
100
AcDbXrecord
280
     1
290
     1
  0
XRECORD
  5
1EFF8
102
{ACAD_REACTORS
330
1EFF7
102
}
330
1EFF7
100
AcDbXrecord
280
     1
290
     1
  0
XRECORD
  5
1EFFA
102
{ACAD_REACTORS
330
1EFF9
102
}
330
1EFF9
100
AcDbXrecord
280
     1
290
     1
  0
XRECORD
  5
1EFFC
102
{ACAD_REACTORS
330
1EFFB
102
}
330
1EFFB
100
AcDbXrecord
280
     1
290
     1
  0
XRECORD
  5
1F000
102
{ACAD_REACTORS
330
1EFFF
102
}
330
1EFFF
100
AcDbXrecord
280
     1
290
     1
  0
SORTENTSTABLE
  5
1F03A
102
{ACAD_REACTORS
330
1F039
102
}
330
1F039
100
AcDbSortentsTable
330
18
331
3A42C
  5
3A431
331
3A467
  5
3A46C
331
3A428
  5
3A42D
331
3A463
  5
3A468
331
3A424
  5
3A429
331
3A420
  5
3A425
331
3A49A
  5
3A49F
331
3A45F
  5
3A464
331
3A45B
  5
3A460
331
3A41C
  5
3A421
331
3A457
  5
3A45C
331
3A418
  5
3A41D
331
3A496
  5
3A49B
331
3A453
  5
3A458
331
3A414
  5
3A419
331
3A492
  5
3A497
331
39698
  5
3A40A
331
3A410
  5
3A415
331
3A48E
  5
3A493
331
3A48A
  5
3A48F
331
3A44F
  5
3A454
331
3A40C
  5
3A411
331
3A44B
  5
3A450
331
39690
  5
3A409
331
3A447
  5
3A44C
331
3A408
  5
3A40D
331
3A486
  5
3A48B
331
3A443
  5
3A448
331
3A482
  5
3A487
331
3A47E
  5
3A483
331
3A47A
  5
3A47F
331
3AA78
  5
3AA70
331
3A43F
  5
3A444
331
3A43B
  5
3A440
331
3A437
  5
3A43C
331
3A476
  5
3A47B
331
3A433
  5
3A438
331
3AA74
  5
3A40C
331
3A472
  5
3A477
331
3A46E
  5
3A473
331
3A46A
  5
3A46F
331
3A42F
  5
3A434
331
3A42B
  5
3A430
331
3A427
  5
3A42C
331
3A466
  5
3A46B
331
3A462
  5
3A467
331
3A423
  5
3A428
331
3A499
  5
3A49E
331
3A45E
  5
3A463
331
3A41F
  5
3A424
331
3A41B
  5
3A420
331
3A45A
  5
3A45F
331
3A456
  5
3A45B
331
3A417
  5
3A41C
331
3A495
  5
3A49A
331
3A452
  5
3A457
331
3A413
  5
3A418
331
3A491
  5
3A496
331
3A48D
  5
3A492
331
3A489
  5
3A48E
331
3A44E
  5
3A453
331
3A40F
  5
3A414
331
3A44A
  5
3A44F
331
3A40B
  5
3A410
331
3A446
  5
3A44B
331
3A485
  5
3A48A
331
3A442
  5
3A447
331
3A481
  5
3A486
331
3A47D
  5
3A482
331
3A479
  5
3A47E
331
3A43E
  5
3A443
331
3A43A
  5
3A43F
331
3A436
  5
3A43B
331
3A475
  5
3A47A
331
3A432
  5
3A437
331
3AA73
  5
307DD
331
3A471
  5
3A476
331
3A46D
  5
3A472
331
3A469
  5
3A46E
331
3A42E
  5
3A433
331
3A42A
  5
3A42F
331
3A426
  5
3A42B
331
3A465
  5
3A46A
331
3A422
  5
3A427
331
3A461
  5
3A466
331
3A4A0
  5
3A873
331
3A49C
  5
3A7DE
331
3A498
  5
3A49D
331
3A45D
  5
3A462
331
3A41E
  5
3A423
331
3A459
  5
3A45E
331
3A41A
  5
3A41F
331
3A99B
  5
3AA73
331
3A416
  5
3A41B
331
3A455
  5
3A45A
331
3A494
  5
3A499
331
3A451
  5
3A456
331
3A412
  5
3A417
331
3A490
  5
3A495
331
3A48C
  5
3A491
331
3A873
  5
3AA71
331
3A488
  5
3A48D
331
3A44D
  5
3A452
331
3A40E
  5
3A413
331
3A449
  5
3A44E
331
3A40A
  5
3A40F
331
3A445
  5
3A44A
331
3A484
  5
3A489
331
3A441
  5
3A446
331
3A480
  5
3A485
331
3A47C
  5
3A481
331
3A478
  5
3A47D
331
3A43D
  5
3A442
331
39652
  5
39A29
331
3A439
  5
3A43E
331
3A435
  5
3A43A
331
3A474
  5
3A479
331
3A431
  5
3A436
331
3A470
  5
3A475
331
3A46C
  5
3A471
331
3A468
  5
3A46D
331
3A42D
  5
3A432
331
3A429
  5
3A42E
331
3A425
  5
3A42A
331
3A464
  5
3A469
331
3A421
  5
3A426
331
3A460
  5
3A465
331
3A49F
  5
3A872
331
3A49B
  5
3A4A1
331
3A45C
  5
3A461
331
3A41D
  5
3A422
331
3A458
  5
3A45D
331
3A419
  5
3A41E
331
3A497
  5
3A49C
331
3A454
  5
3A459
331
3A415
  5
3A41A
331
3A493
  5
3A498
331
3A411
  5
3A416
331
3A450
  5
3A455
331
3A48F
  5
3A494
331
3A48B
  5
3A490
331
3A872
  5
3A99B
331
3A44C
  5
3A451
331
3A40D
  5
3A412
331
3A448
  5
3A44D
331
3A409
  5
3A40E
331
3A487
  5
3A48C
331
3967D
  5
3A408
331
3A444
  5
3A449
331
3A483
  5
3A488
331
3A440
  5
3A445
331
3A47F
  5
3A484
331
3A47B
  5
3A480
331
3AA79
  5
3AA72
331
3A43C
  5
3A441
331
3A438
  5
3A43D
331
3A477
  5
3A47C
331
3A434
  5
3A439
331
3A473
  5
3A478
331
3A430
  5
3A435
331
3A46F
  5
3A474
331
3A46B
  5
3A470
  0
XRECORD
  5
3ACAE
102
{ACAD_REACTORS
330
3AC3C
102
}
330
3AC3C
100
AcDbXrecord
280
     1
 40
13572559.0
  1
\pxi-3,l3,t3;Any deviation from this template could prevent the homeowner from being able to\Puse the Franke custom fit accessories that match this sink, so we strongly\Precommend following this cutout template.\P\PClosely follow installation instruc
  1
tions before making any cuts to countertop\P\PThis template file, like any template, is meant to be a guideline.  The actual sink\Pand accessories should ALWAYS be present to ensure a perfect cut.\P\pi0,l0,tz;\P\pr2.2207;FRANKE IS NOT RESPONSIBLE FOR
  1
 AN IMPROPERLY CUT COUNTERTOP OR AN IMPROPER INSTALLATION
  0
ACDBDETAILVIEWSTYLE
  5
29BAB
102
{ACAD_XDICTIONARY
360
2AE95
102
}
102
{ACAD_REACTORS
330
29BAA
330
39E6B
102
}
330
29BAA
100
AcDbModelDocViewStyle
 70
     0
  3
Imperial24
290
     0
100
AcDbDetailViewStyle
 70
     0
 71
     0
 90
        3
 71
     1
340
F
 62
   256
 40
0.24
340
0
 62
   256
 40
0.24
300

 40
0.36
280
     3
 71
     2
340
14
 90
       25
 62
   256
 71
     3
340
F
 62
   256
 40
0.24
 90
        1
 40
0.75
 90
        1
300
%<\AcVar ViewType \f "%tc1">% %<\AcVar ViewDetailId>%\PSCALE %<\AcVar ViewScale \f "%sn">%
 71
     4
340
14
 90
       25
 62
   256
340
14
 90
       25
 62
   256
280
     0
  0
ACDBDETAILVIEWSTYLE
  5
3A360
102
{ACAD_XDICTIONARY
360
3A361
102
}
102
{ACAD_REACTORS
330
29BAA
330
3A401
102
}
330
29BAA
100
AcDbModelDocViewStyle
 70
     0
  3
Metric50
290
     0
100
AcDbDetailViewStyle
 70
     0
 71
     0
 90
        3
 71
     1
340
F
 62
   256
 40
5.0
340
0
 62
   256
 40
5.0
300

 40
0.0
280
     1
 71
     2
340
14
 90
       25
 62
   256
 71
     3
340
F
 62
   256
 40
5.0
 90
        0
 40
15.0
 90
        1
300
%<\AcVar ViewDetailId>% (%<\AcVar ViewScale \f "%sn">%)
 71
     4
340
14
 90
       25
 62
   256
340
14
 90
       25
 62
   256
280
     0
  0
LAYOUT
  5
3B0B
102
{ACAD_XDICTIONARY
360
1EFF2
102
}
102
{ACAD_REACTORS
330
3B08
102
}
330
3B08
100
AcDbPlotSettings
  1

  2
PDFCreator.pc3
  4
A4
  6

 40
3.174999952316284
 41
3.174999952316284
 42
3.17498779296875
 43
3.175003051757812
 44
297.0530090332031
 45
209.8886566162109
 46
3.300547093759718
 47
0.0
 48
0.0
 49
0.0
140
0.0
141
0.0
142
1.0
143
4.004313086835981
 70
   692
 72
     1
 73
     0
 74
     1
  7
Carron Phoenix.ctb
 75
     0
147
0.2497307224271398
 76
     0
 77
     2
 78
   300
148
0.0826324806976118
149
0.0300646422631417
100
AcDbLayout
  1
Layout1
 70
     1
 71
     1
 10
-26.01275026172184
 20
-12.74375850202686
 11
1163.480501293941
 21
827.7161359646902
 12
0.0
 22
0.0
 32
0.0
 14
0.0
 24
0.0
 34
0.0
 15
1137.5
 25
815.5749270608541
 35
0.0
146
0.0
 13
0.0
 23
0.0
 33
0.0
 16
1.0
 26
0.0
 36
0.0
 17
0.0
 27
1.0
 37
0.0
 76
     0
330
15
331
3D
1001
ACAD_PSEXT
1000
PDFCreator.pc3
1000
PDFCreator
1000
PDFCreator:
1000
eDoc Printer
1070
     0
  0
LAYOUT
  5
3B0A
102
{ACAD_XDICTIONARY
360
1F301
102
}
102
{ACAD_REACTORS
330
3B08
102
}
330
3B08
100
AcDbPlotSettings
  1

  2
\\FGP10G\FGP023P
  4
A4
  6
P
 40
4.233333110809326
 41
4.233306884765625
 42
4.233322143554687
 43
4.23333740234375
 44
209.9733276367187
 45
296.9683227539062
 46
0.0
 47
19.1327486297327
 48
23635.98705392664
 49
3190.685599908389
140
24766.1748974678
141
4100.787370244606
142
1.0
143
4.516484539079275
 70
 11956
 72
     1
 73
     1
 74
     4
  7
Carron Phoenix.ctb
 75
     0
147
0.2214111420834972
 76
     0
 77
     2
 78
   300
148
-23635.98705392664
149
-3190.685599908389
100
AcDbLayout
  1
Model
 70
     1
 71
     0
 10
0.0
 20
0.0
 11
12.0
 21
9.0
 12
0.0
 22
0.0
 32
0.0
 14
0.0
 24
0.0
 34
0.0
 15
0.0
 25
0.0
 35
0.0
146
0.0
 13
0.0
 23
0.0
 33
0.0
 16
1.0
 26
0.0
 36
0.0
 17
0.0
 27
1.0
 37
0.0
 76
     0
330
18
331
1EF86
1001
ACAD_PSEXT
1000
\\FGP10G\FGP023P
1000
HP Universal Printing PCL 6
1000
FGP/Product management
1000
HP 4015 PCL6 10.28.0.23 CNFY838268
1070
     0
  0
MATERIAL
  5
1EF91
102
{ACAD_XDICTIONARY
360
1EF92
102
}
102
{ACAD_REACTORS
330
1EF88
102
}
330
1EF88
100
AcDbMaterial
  1
ByBlock
 72
     0
 43
0.0208333333333333
 43
0.0
 43
0.0
 43
0.0
 43
0.0
 43
0.0208333333333333
 43
0.0
 43
0.0
 43
0.0
 43
0.0
 43
1.0
 43
0.0
 43
0.0
 43
0.0
 43
0.0
 43
1.0
 77
     0
 47
0.0208333333333333
 47
0.0
 47
0.0
 47
0.0
 47
0.0
 47
0.0208333333333333
 47
0.0
 47
0.0
 47
0.0
 47
0.0
 47
1.0
 47
0.0
 47
0.0
 47
0.0
 47
0.0
 47
1.0
171
     0
 49
0.0208333333333333
 49
0.0
 49
0.0
 49
0.0
 49
0.0
 49
0.0208333333333333
 49
0.0
 49
0.0
 49
0.0
 49
0.0
 49
1.0
 49
0.0
 49
0.0
 49
0.0
 49
0.0
 49
1.0
175
     0
142
0.0208333333333333
142
0.0
142
0.0
142
0.0
142
0.0
142
0.0208333333333333
142
0.0
142
0.0
142
0.0
142
0.0
142
1.0
142
0.0
142
0.0
142
0.0
142
0.0
142
1.0
179
     0
144
0.0208333333333333
144
0.0
144
0.0
144
0.0
144
0.0
144
0.0208333333333333
144
0.0
144
0.0
144
0.0
144
0.0
144
1.0
144
0.0
144
0.0
144
0.0
144
0.0
144
1.0
147
0.0208333333333333
147
0.0
147
0.0
147
0.0
147
0.0
147
0.0208333333333333
147
0.0
147
0.0
147
0.0
147
0.0
147
1.0
147
0.0
147
0.0
147
0.0
147
0.0
147
1.0
  0
MATERIAL
  5
1EF89
102
{ACAD_XDICTIONARY
360
1EF8A
102
}
102
{ACAD_REACTORS
330
1EF88
102
}
330
1EF88
100
AcDbMaterial
  1
ByLayer
 72
     0
 43
0.0208333333333333
 43
0.0
 43
0.0
 43
0.0
 43
0.0
 43
0.0208333333333333
 43
0.0
 43
0.0
 43
0.0
 43
0.0
 43
1.0
 43
0.0
 43
0.0
 43
0.0
 43
0.0
 43
1.0
 77
     0
 47
0.0208333333333333
 47
0.0
 47
0.0
 47
0.0
 47
0.0
 47
0.0208333333333333
 47
0.0
 47
0.0
 47
0.0
 47
0.0
 47
1.0
 47
0.0
 47
0.0
 47
0.0
 47
0.0
 47
1.0
171
     0
 49
0.0208333333333333
 49
0.0
 49
0.0
 49
0.0
 49
0.0
 49
0.0208333333333333
 49
0.0
 49
0.0
 49
0.0
 49
0.0
 49
1.0
 49
0.0
 49
0.0
 49
0.0
 49
0.0
 49
1.0
175
     0
142
0.0208333333333333
142
0.0
142
0.0
142
0.0
142
0.0
142
0.0208333333333333
142
0.0
142
0.0
142
0.0
142
0.0
142
1.0
142
0.0
142
0.0
142
0.0
142
0.0
142
1.0
179
     0
144
0.0208333333333333
144
0.0
144
0.0
144
0.0
144
0.0
144
0.0208333333333333
144
0.0
144
0.0
144
0.0
144
0.0
144
1.0
144
0.0
144
0.0
144
0.0
144
0.0
144
1.0
147
0.0208333333333333
147
0.0
147
0.0
147
0.0
147
0.0
147
0.0208333333333333
147
0.0
147
0.0
147
0.0
147
0.0
147
1.0
147
0.0
147
0.0
147
0.0
147
0.0
147
1.0
  0
MATERIAL
  5
1EF99
102
{ACAD_XDICTIONARY
360
1EF9A
102
}
102
{ACAD_REACTORS
330
1EF88
102
}
330
1EF88
100
AcDbMaterial
  1
Global
 72
     0
 43
0.0208333333333333
 43
0.0
 43
0.0
 43
0.0
 43
0.0
 43
0.0208333333333333
 43
0.0
 43
0.0
 43
0.0
 43
0.0
 43
1.0
 43
0.0
 43
0.0
 43
0.0
 43
0.0
 43
1.0
 77
     0
 47
0.0208333333333333
 47
0.0
 47
0.0
 47
0.0
 47
0.0
 47
0.0208333333333333
 47
0.0
 47
0.0
 47
0.0
 47
0.0
 47
1.0
 47
0.0
 47
0.0
 47
0.0
 47
0.0
 47
1.0
171
     0
 49
0.0208333333333333
 49
0.0
 49
0.0
 49
0.0
 49
0.0
 49
0.0208333333333333
 49
0.0
 49
0.0
 49
0.0
 49
0.0
 49
1.0
 49
0.0
 49
0.0
 49
0.0
 49
0.0
 49
1.0
175
     0
142
0.0208333333333333
142
0.0
142
0.0
142
0.0
142
0.0
142
0.0208333333333333
142
0.0
142
0.0
142
0.0
142
0.0
142
1.0
142
0.0
142
0.0
142
0.0
142
0.0
142
1.0
179
     0
144
0.0208333333333333
144
0.0
144
0.0
144
0.0
144
0.0
144
0.0208333333333333
144
0.0
144
0.0
144
0.0
144
0.0
144
1.0
144
0.0
144
0.0
144
0.0
144
0.0
144
1.0
147
0.0208333333333333
147
0.0
147
0.0
147
0.0
147
0.0
147
0.0208333333333333
147
0.0
147
0.0
147
0.0
147
0.0
147
1.0
147
0.0
147
0.0
147
0.0
147
0.0
147
1.0
  0
MLEADERSTYLE
  5
1EFD8
102
{ACAD_REACTORS
330
1EFD7
102
}
330
1EFD7
100
AcDbMLeaderStyle
179
     2
170
     2
171
     1
172
     0
 90
        2
 40
0.0
 41
0.0
173
     1
 91
-1056964608
340
12
 92
       -2
290
     1
 42
0.09
291
     1
 43
0.36
  3
Standard
 44
0.18
300

342
F
174
     1
178
     6
175
     1
176
     0
 93
-1056964608
 45
0.18
292
     0
297
     0
 46
0.18
 94
-1056964608
 47
1.0
 49
1.0
140
1.0
293
     1
141
0.0
294
     1
177
     0
142
1.0
295
     0
296
     0
143
0.125
271
     0
272
     9
273
     9
  0
MLINESTYLE
  5
1C
102
{ACAD_REACTORS
330
1B
102
}
330
1B
100
AcDbMlineStyle
  2
STANDARD
 70
     0
  3

 62
   256
 51
90.0
 52
90.0
 71
     2
 49
0.5
 62
   256
  6
BYLAYER
 49
-0.5
 62
   256
  6
BYLAYER
  0
ACDBPLACEHOLDER
  5
3B07
102
{ACAD_REACTORS
330
3B06
102
}
330
3B06
  0
SCALE
  5
1EFB6
102
{ACAD_REACTORS
330
1EFB5
102
}
330
1EFB5
100
AcDbScale
 70
     0
300
1:1
140
1.0
141
1.0
290
     1
  0
SCALE
  5
1EFB7
102
{ACAD_REACTORS
330
1EFB5
102
}
330
1EFB5
100
AcDbScale
 70
     0
300
1:2
140
1.0
141
2.0
290
     0
  0
SCALE
  5
1EFB8
102
{ACAD_REACTORS
330
1EFB5
102
}
330
1EFB5
100
AcDbScale
 70
     0
300
1:4
140
1.0
141
4.0
290
     0
  0
SCALE
  5
1EFB9
102
{ACAD_REACTORS
330
1EFB5
102
}
330
1EFB5
100
AcDbScale
 70
     0
300
1:5
140
1.0
141
5.0
290
     0
  0
SCALE
  5
1EFBA
102
{ACAD_REACTORS
330
1EFB5
102
}
330
1EFB5
100
AcDbScale
 70
     0
300
1:8
140
1.0
141
8.0
290
     0
  0
SCALE
  5
1EFBB
102
{ACAD_REACTORS
330
1EFB5
102
}
330
1EFB5
100
AcDbScale
 70
     0
300
1:10
140
1.0
141
10.0
290
     0
  0
SCALE
  5
1EFBC
102
{ACAD_REACTORS
330
1EFB5
102
}
330
1EFB5
100
AcDbScale
 70
     0
300
1:16
140
1.0
141
16.0
290
     0
  0
SCALE
  5
1EFBD
102
{ACAD_REACTORS
330
1EFB5
102
}
330
1EFB5
100
AcDbScale
 70
     0
300
1:20
140
1.0
141
20.0
290
     0
  0
SCALE
  5
1EFBE
102
{ACAD_REACTORS
330
1EFB5
102
}
330
1EFB5
100
AcDbScale
 70
     0
300
1:30
140
1.0
141
30.0
290
     0
  0
SCALE
  5
1EFBF
102
{ACAD_REACTORS
330
1EFB5
102
}
330
1EFB5
100
AcDbScale
 70
     0
300
1:40
140
1.0
141
40.0
290
     0
  0
SCALE
  5
1EFC0
102
{ACAD_REACTORS
330
1EFB5
102
}
330
1EFB5
100
AcDbScale
 70
     0
300
1:50
140
1.0
141
50.0
290
     0
  0
SCALE
  5
1EFC1
102
{ACAD_REACTORS
330
1EFB5
102
}
330
1EFB5
100
AcDbScale
 70
     0
300
1:100
140
1.0
141
100.0
290
     0
  0
SCALE
  5
1EFC2
102
{ACAD_REACTORS
330
1EFB5
102
}
330
1EFB5
100
AcDbScale
 70
     0
300
2:1
140
2.0
141
1.0
290
     0
  0
SCALE
  5
1EFC3
102
{ACAD_REACTORS
330
1EFB5
102
}
330
1EFB5
100
AcDbScale
 70
     0
300
4:1
140
4.0
141
1.0
290
     0
  0
SCALE
  5
1EFC4
102
{ACAD_REACTORS
330
1EFB5
102
}
330
1EFB5
100
AcDbScale
 70
     0
300
8:1
140
8.0
141
1.0
290
     0
  0
SCALE
  5
1EFC5
102
{ACAD_REACTORS
330
1EFB5
102
}
330
1EFB5
100
AcDbScale
 70
     0
300
10:1
140
10.0
141
1.0
290
     0
  0
SCALE
  5
1EFC6
102
{ACAD_REACTORS
330
1EFB5
102
}
330
1EFB5
100
AcDbScale
 70
     0
300
100:1
140
100.0
141
1.0
290
     0
  0
SCALE
  5
1EFC7
102
{ACAD_REACTORS
330
1EFB5
102
}
330
1EFB5
100
AcDbScale
 70
     0
300
1/128" = 1'-0"
140
0.0078125
141
12.0
290
     0
  0
SCALE
  5
1EFC8
102
{ACAD_REACTORS
330
1EFB5
102
}
330
1EFB5
100
AcDbScale
 70
     0
300
1/64" = 1'-0"
140
0.015625
141
12.0
290
     0
  0
SCALE
  5
1EFC9
102
{ACAD_REACTORS
330
1EFB5
102
}
330
1EFB5
100
AcDbScale
 70
     0
300
1/32" = 1'-0"
140
0.03125
141
12.0
290
     0
  0
SCALE
  5
1EFCA
102
{ACAD_REACTORS
330
1EFB5
102
}
330
1EFB5
100
AcDbScale
 70
     0
300
1/16" = 1'-0"
140
0.0625
141
12.0
290
     0
  0
SCALE
  5
1EFCB
102
{ACAD_REACTORS
330
1EFB5
102
}
330
1EFB5
100
AcDbScale
 70
     0
300
3/32" = 1'-0"
140
0.09375
141
12.0
290
     0
  0
SCALE
  5
1EFCC
102
{ACAD_REACTORS
330
1EFB5
102
}
330
1EFB5
100
AcDbScale
 70
     0
300
1/8" = 1'-0"
140
0.125
141
12.0
290
     0
  0
SCALE
  5
1EFCD
102
{ACAD_REACTORS
330
1EFB5
102
}
330
1EFB5
100
AcDbScale
 70
     0
300
3/16" = 1'-0"
140
0.1875
141
12.0
290
     0
  0
SCALE
  5
1EFCE
102
{ACAD_REACTORS
330
1EFB5
102
}
330
1EFB5
100
AcDbScale
 70
     0
300
1/4" = 1'-0"
140
0.25
141
12.0
290
     0
  0
SCALE
  5
1EFCF
102
{ACAD_REACTORS
330
1EFB5
102
}
330
1EFB5
100
AcDbScale
 70
     0
300
3/8" = 1'-0"
140
0.375
141
12.0
290
     0
  0
SCALE
  5
1EFD0
102
{ACAD_REACTORS
330
1EFB5
102
}
330
1EFB5
100
AcDbScale
 70
     0
300
1/2" = 1'-0"
140
0.5
141
12.0
290
     0
  0
SCALE
  5
1EFD1
102
{ACAD_REACTORS
330
1EFB5
102
}
330
1EFB5
100
AcDbScale
 70
     0
300
3/4" = 1'-0"
140
0.75
141
12.0
290
     0
  0
SCALE
  5
1EFD2
102
{ACAD_REACTORS
330
1EFB5
102
}
330
1EFB5
100
AcDbScale
 70
     0
300
1" = 1'-0"
140
1.0
141
12.0
290
     0
  0
SCALE
  5
1EFD3
102
{ACAD_REACTORS
330
1EFB5
102
}
330
1EFB5
100
AcDbScale
 70
     0
300
1-1/2" = 1'-0"
140
1.5
141
12.0
290
     0
  0
SCALE
  5
1EFD4
102
{ACAD_REACTORS
330
1EFB5
102
}
330
1EFB5
100
AcDbScale
 70
     0
300
3" = 1'-0"
140
3.0
141
12.0
290
     0
  0
SCALE
  5
1EFD5
102
{ACAD_REACTORS
330
1EFB5
102
}
330
1EFB5
100
AcDbScale
 70
     0
300
6" = 1'-0"
140
6.0
141
12.0
290
     0
  0
SCALE
  5
1EFD6
102
{ACAD_REACTORS
330
1EFB5
102
}
330
1EFB5
100
AcDbScale
 70
     0
300
1'-0" = 1'-0"
140
12.0
141
12.0
290
     0
  0
ACDBSECTIONVIEWSTYLE
  5
29BA9
102
{ACAD_XDICTIONARY
360
2AE93
102
}
102
{ACAD_REACTORS
330
29BA8
330
39E6A
102
}
330
29BA8
100
AcDbModelDocViewStyle
 70
     0
  3
Imperial24
290
     0
100
AcDbSectionViewStyle
 70
     0
 71
     0
 90
       78
 71
     1
340
F
 62
   256
 40
0.24
340
0
340
0
 62
   256
 40
0.24
300
I, O, Q, S, X, Z
 40
0.48
 90
        3
 40
0.18
 90
        1
 71
     2
340
14
 90
       25
 62
   256
340
14
 90
       50
 62
   256
 40
0.24
 40
0.0
 40
0.24
 71
     3
340
F
 62
   256
 40
0.24
 90
        1
 40
0.75
 90
        1
300
%<\AcVar ViewType \f "%tc1">% %<\AcVar ViewSectionStartId>%-%<\AcVar ViewSectionEndId>%\PSCALE %<\AcVar ViewScale \f "%sn">%
 71
     4
 62
   256
 62
   257
300
ANSI31
 40
1.0
 90
        0
290
     0
290
     0
 90
        6
 40
0.0
 40
1.570796326794896
 40
0.2617993877991494
 40
1.308996938995747
 40
-0.2617993877991494
 40
1.832595714594046
  0
ACDBSECTIONVIEWSTYLE
  5
3A35E
102
{ACAD_XDICTIONARY
360
3A35F
102
}
102
{ACAD_REACTORS
330
29BA8
330
3A402
102
}
330
29BA8
100
AcDbModelDocViewStyle
 70
     0
  3
Metric50
290
     0
100
AcDbSectionViewStyle
 70
     0
 71
     0
 90
      102
 71
     1
340
F
 62
   256
 40
5.0
340
0
340
0
 62
   256
 40
5.0
300
I, O, Q, S, X, Z
 40
10.0
 90
        0
 40
2.5
 90
        0
 71
     2
340
14
 90
       25
 62
   256
340
14
 90
       50
 62
   256
 40
5.0
 40
2.5
 40
5.0
 71
     3
340
F
 62
   256
 40
5.0
 90
        0
 40
15.0
 90
        1
300
%<\AcVar ViewSectionStartId>%-%<\AcVar ViewSectionEndId>% (%<\AcVar ViewScale \f "%sn">%)
 71
     4
 62
   256
 62
   257
300
ANSI31
 40
1.0
 90
        0
290
     0
290
     0
 90
        6
 40
0.0
 40
1.570796326794896
 40
0.2617993877991494
 40
1.308996938995747
 40
-0.2617993877991494
 40
1.832595714594046
  0
TABLESTYLE
  5
1EFB4
102
{ACAD_XDICTIONARY
360
1F173
102
}
102
{ACAD_REACTORS
330
1EFB3
102
}
330
1EFB3
100
AcDbTableStyle
280
     0
  3
Standard
 70
     0
 71
     0
 40
0.06
 41
0.06
280
     0
281
     0
  7
STANDARD
140
0.18
170
     2
 62
     0
 63
     7
283
     0
 90
      512
 91
        0
  1

274
    -2
284
     1
 64
     0
275
    -2
285
     1
 65
     0
276
    -2
286
     1
 66
     0
277
    -2
287
     1
 67
     0
278
    -2
288
     1
 68
     0
279
    -2
289
     1
 69
     0
  7
STANDARD
140
0.25
170
     5
 62
     0
 63
     7
283
     0
 90
      512
 91
        0
  1

274
    -2
284
     1
 64
     0
275
    -2
285
     1
 65
     0
276
    -2
286
     1
 66
     0
277
    -2
287
     1
 67
     0
278
    -2
288
     1
 68
     0
279
    -2
289
     1
 69
     0
  7
STANDARD
140
0.18
170
     5
 62
     0
 63
     7
283
     0
 90
      512
 91
        0
  1

274
    -2
284
     1
 64
     0
275
    -2
285
     1
 65
     0
276
    -2
286
     1
 66
     0
277
    -2
287
     1
 67
     0
278
    -2
288
     1
 68
     0
279
    -2
289
     1
 69
     0
  0
VISUALSTYLE
  5
1EFA7
102
{ACAD_XDICTIONARY
360
3ACC2
102
}
102
{ACAD_REACTORS
330
1EFA1
102
}
330
1EFA1
100
AcDbVisualStyle
  2
2dWireframe
 70
     4
177
     2
291
     0
 71
     0
176
     1
 72
     2
176
     1
 73
     0
176
     1
 90
        0
176
     1
 40
0.6
176
     1
 41
30.0
176
     1
 63
     7
421
 16777215
176
     1
 74
     1
176
     1
 91
        4
176
     1
 64
     7
176
     1
 65
   257
176
     1
 75
     1
176
     1
175
     1
176
     1
 42
1.0
176
     1
 92
        0
176
     1
 66
   257
176
     1
 43
1.0
176
     1
 76
     1
176
     1
 77
     6
176
     1
 78
     2
176
     1
 67
     7
176
     1
 79
     5
176
     1
170
     0
176
     1
171
     0
176
     1
290
     0
176
     1
 93
        1
176
     1
 44
0.0
176
     1
173
     0
176
     1
1001
ACAD
1000
AcDbSavedByObjectVersion
1070
     0
  0
VISUALSTYLE
  5
1EFA9
102
{ACAD_XDICTIONARY
360
3ACC6
102
}
102
{ACAD_REACTORS
330
1EFA1
102
}
330
1EFA1
100
AcDbVisualStyle
  2
3D Hidden
 70
     6
177
     2
291
     0
 71
     1
176
     1
 72
     2
176
     1
 73
     2
176
     1
 90
        0
176
     1
 40
0.6
176
     1
 41
30.0
176
     1
 63
     7
421
 16777215
176
     1
 74
     2
176
     1
 91
        2
176
     1
 64
     7
176
     1
 65
   257
176
     1
 75
     2
176
     1
175
     1
176
     1
 42
40.0
176
     1
 92
        0
176
     1
 66
   257
176
     1
 43
1.0
176
     1
 76
     1
176
     1
 77
     6
176
     1
 78
     2
176
     1
 67
     7
176
     1
 79
     3
176
     1
170
     0
176
     1
171
     0
176
     1
290
     0
176
     1
 93
        1
176
     1
 44
0.0
176
     1
173
     0
176
     1
1001
ACAD
1000
AcDbSavedByObjectVersion
1070
     0
  0
VISUALSTYLE
  5
1EFA8
102
{ACAD_XDICTIONARY
360
3ACC4
102
}
102
{ACAD_REACTORS
330
1EFA1
102
}
330
1EFA1
100
AcDbVisualStyle
  2
3dWireframe
 70
     5
177
     2
291
     0
 71
     0
176
     1
 72
     2
176
     1
 73
     0
176
     1
 90
        0
176
     1
 40
0.6
176
     1
 41
30.0
176
     1
 63
     7
421
 16777215
176
     1
 74
     1
176
     1
 91
        4
176
     1
 64
     7
176
     1
 65
   257
176
     1
 75
     1
176
     1
175
     1
176
     1
 42
1.0
176
     1
 92
        0
176
     1
 66
   257
176
     1
 43
1.0
176
     1
 76
     1
176
     1
 77
     6
176
     1
 78
     2
176
     1
 67
     7
176
     1
 79
     5
176
     1
170
     0
176
     1
171
     0
176
     1
290
     0
176
     1
 93
        1
176
     1
 44
0.0
176
     1
173
     0
176
     1
1001
ACAD
1000
AcDbSavedByObjectVersion
1070
     0
  0
VISUALSTYLE
  5
1EFA6
102
{ACAD_XDICTIONARY
360
3ACC0
102
}
102
{ACAD_REACTORS
330
1EFA1
102
}
330
1EFA1
100
AcDbVisualStyle
  2
Basic
 70
     7
177
     2
291
     1
 71
     1
176
     1
 72
     0
176
     1
 73
     1
176
     1
 90
        0
176
     1
 40
0.6
176
     1
 41
30.0
176
     1
 63
     7
421
 16777215
176
     1
 74
     0
176
     1
 91
        4
176
     1
 64
     7
176
     1
 65
   257
176
     1
 75
     1
176
     1
175
     1
176
     1
 42
1.0
176
     1
 92
        8
176
     1
 66
     7
176
     1
 43
1.0
176
     1
 76
     1
176
     1
 77
     6
176
     1
 78
     2
176
     1
 67
     7
176
     1
 79
     5
176
     1
170
     0
176
     1
171
     0
176
     1
290
     0
176
     1
 93
        1
176
     1
 44
0.0
176
     1
173
     0
176
     1
1001
ACAD
1000
AcDbSavedByObjectVersion
1070
     0
  0
VISUALSTYLE
  5
1EFAD
102
{ACAD_XDICTIONARY
360
3ACCE
102
}
102
{ACAD_REACTORS
330
1EFA1
102
}
330
1EFA1
100
AcDbVisualStyle
  2
Brighten
 70
    12
177
     2
291
     1
 71
     2
176
     1
 72
     2
176
     1
 73
     0
176
     1
 90
        0
176
     1
 40
0.6
176
     1
 41
30.0
176
     1
 63
     7
421
 16777215
176
     1
 74
     1
176
     1
 91
        4
176
     1
 64
     7
176
     1
 65
   257
176
     1
 75
     1
176
     1
175
     1
176
     1
 42
1.0
176
     1
 92
        8
176
     1
 66
     7
176
     1
 43
1.0
176
     1
 76
     1
176
     1
 77
     6
176
     1
 78
     2
176
     1
 67
     7
176
     1
 79
     5
176
     1
170
     0
176
     1
171
     0
176
     1
290
     0
176
     1
 93
        1
176
     1
 44
50.0
176
     1
173
     0
176
     1
1001
ACAD
1000
AcDbSavedByObjectVersion
1070
     0
  0
VISUALSTYLE
  5
1EFB1
102
{ACAD_XDICTIONARY
360
3ACD6
102
}
102
{ACAD_REACTORS
330
1EFA1
102
}
330
1EFA1
100
AcDbVisualStyle
  2
ColorChange
 70
    16
177
     2
291
     1
 71
     2
176
     1
 72
     2
176
     1
 73
     3
176
     1
 90
        0
176
     1
 40
0.6
176
     1
 41
30.0
176
     1
 63
     8
421
  8421504
176
     1
 74
     1
176
     1
 91
        4
176
     1
 64
     7
176
     1
 65
   257
176
     1
 75
     1
176
     1
175
     1
176
     1
 42
1.0
176
     1
 92
        8
176
     1
 66
     8
424
  8421504
176
     1
 43
1.0
176
     1
 76
     1
176
     1
 77
     6
176
     1
 78
     2
176
     1
 67
     7
176
     1
 79
     5
176
     1
170
     0
176
     1
171
     0
176
     1
290
     0
176
     1
 93
        1
176
     1
 44
0.0
176
     1
173
     0
176
     1
1001
ACAD
1000
AcDbSavedByObjectVersion
1070
     0
  0
VISUALSTYLE
  5
1EFAA
102
{ACAD_XDICTIONARY
360
3ACC8
102
}
102
{ACAD_REACTORS
330
1EFA1
102
}
330
1EFA1
100
AcDbVisualStyle
  2
Conceptual
 70
     9
177
     2
291
     0
 71
     3
176
     1
 72
     2
176
     1
 73
     0
176
     1
 90
        0
176
     1
 40
0.6
176
     1
 41
30.0
176
     1
 63
     7
421
 16777215
176
     1
 74
     2
176
     1
 91
        2
176
     1
 64
     7
176
     1
 65
   257
176
     1
 75
     1
176
     1
175
     1
176
     1
 42
40.0
176
     1
 92
        8
176
     1
 66
     7
176
     1
 43
1.0
176
     1
 76
     1
176
     1
 77
     6
176
     1
 78
     2
176
     1
 67
     7
176
     1
 79
     3
176
     1
170
     0
176
     1
171
     0
176
     1
290
     0
176
     1
 93
        1
176
     1
 44
0.0
176
     1
173
     0
176
     1
1001
ACAD
1000
AcDbSavedByObjectVersion
1070
     0
  0
VISUALSTYLE
  5
1EFAC
102
{ACAD_XDICTIONARY
360
3ACCC
102
}
102
{ACAD_REACTORS
330
1EFA1
102
}
330
1EFA1
100
AcDbVisualStyle
  2
Dim
 70
    11
177
     2
291
     1
 71
     2
176
     1
 72
     2
176
     1
 73
     0
176
     1
 90
        0
176
     1
 40
0.6
176
     1
 41
30.0
176
     1
 63
     7
421
 16777215
176
     1
 74
     1
176
     1
 91
        4
176
     1
 64
     7
176
     1
 65
   257
176
     1
 75
     1
176
     1
175
     1
176
     1
 42
1.0
176
     1
 92
        8
176
     1
 66
     7
176
     1
 43
1.0
176
     1
 76
     1
176
     1
 77
     6
176
     1
 78
     2
176
     1
 67
     7
176
     1
 79
     5
176
     1
170
     0
176
     1
171
     0
176
     1
290
     0
176
     1
 93
        1
176
     1
 44
-50.0
176
     1
173
     0
176
     1
1001
ACAD
1000
AcDbSavedByObjectVersion
1070
     0
  0
VISUALSTYLE
  5
1F2CE
102
{ACAD_XDICTIONARY
360
3ACEA
102
}
102
{ACAD_REACTORS
330
1EFA1
102
}
330
1EFA1
100
AcDbVisualStyle
  2
EdgeColorOff
 70
    22
177
     2
291
     1
 71
     2
176
     0
 72
     2
176
     0
 73
     0
176
     0
 90
        0
176
     0
 40
0.6
176
     0
 41
30.0
176
     0
 63
     7
421
 16777215
176
     0
 74
     1
176
     0
 91
        4
176
     0
 64
     7
176
     0
 65
   257
176
     0
 75
     1
176
     0
175
     1
176
     0
 42
1.0
176
     0
 92
        8
176
     2
 66
     7
176
     0
 43
1.0
176
     0
 76
     1
176
     0
 77
     6
176
     0
 78
     2
176
     0
 67
     7
176
     0
 79
     5
176
     0
170
     0
176
     0
171
     0
176
     0
290
     0
176
     0
 93
        1
176
     0
 44
0.0
176
     0
173
     0
176
     0
1001
ACAD
1000
AcDbSavedByObjectVersion
1070
     0
  0
VISUALSTYLE
  5
1EFB0
102
{ACAD_XDICTIONARY
360
3ACD4
102
}
102
{ACAD_REACTORS
330
1EFA1
102
}
330
1EFA1
100
AcDbVisualStyle
  2
Facepattern
 70
    15
177
     2
291
     1
 71
     2
176
     1
 72
     2
176
     1
 73
     0
176
     1
 90
        0
176
     1
 40
0.6
176
     1
 41
30.0
176
     1
 63
     7
421
 16777215
176
     1
 74
     1
176
     1
 91
        4
176
     1
 64
     7
176
     1
 65
   257
176
     1
 75
     1
176
     1
175
     1
176
     1
 42
1.0
176
     1
 92
        8
176
     1
 66
     7
176
     1
 43
1.0
176
     1
 76
     1
176
     1
 77
     6
176
     1
 78
     2
176
     1
 67
     7
176
     1
 79
     5
176
     1
170
     0
176
     1
171
     0
176
     1
290
     0
176
     1
 93
        1
176
     1
 44
0.0
176
     1
173
     0
176
     1
1001
ACAD
1000
AcDbSavedByObjectVersion
1070
     0
  0
VISUALSTYLE
  5
1EFA2
102
{ACAD_XDICTIONARY
360
3ACB8
102
}
102
{ACAD_REACTORS
330
1EFA1
102
}
330
1EFA1
100
AcDbVisualStyle
  2
Flat
 70
     0
177
     2
291
     1
 71
     2
176
     1
 72
     1
176
     1
 73
     1
176
     1
 90
        2
176
     1
 40
0.6
176
     1
 41
30.0
176
     1
 63
     7
421
 16777215
176
     1
 74
     0
176
     1
 91
        4
176
     1
 64
     7
176
     1
 65
   257
176
     1
 75
     1
176
     1
175
     1
176
     1
 42
1.0
176
     1
 92
        8
176
     1
 66
     7
176
     1
 43
1.0
176
     1
 76
     1
176
     1
 77
     6
176
     1
 78
     2
176
     1
 67
     7
176
     1
 79
     5
176
     1
170
     0
176
     1
171
     0
176
     1
290
     0
176
     1
 93
       13
176
     1
 44
0.0
176
     1
173
     0
176
     1
1001
ACAD
1000
AcDbSavedByObjectVersion
1070
     0
  0
VISUALSTYLE
  5
1EFA3
102
{ACAD_XDICTIONARY
360
3ACBA
102
}
102
{ACAD_REACTORS
330
1EFA1
102
}
330
1EFA1
100
AcDbVisualStyle
  2
FlatWithEdges
 70
     1
177
     2
291
     1
 71
     2
176
     1
 72
     1
176
     1
 73
     1
176
     1
 90
        2
176
     1
 40
0.6
176
     1
 41
30.0
176
     1
 63
     7
421
 16777215
176
     1
 74
     1
176
     1
 91
        4
176
     1
 64
     7
176
     1
 65
   257
176
     1
 75
     1
176
     1
175
     1
176
     1
 42
1.0
176
     1
 92
        0
176
     1
 66
   257
176
     1
 43
1.0
176
     1
 76
     1
176
     1
 77
     6
176
     1
 78
     2
176
     1
 67
     7
176
     1
 79
     5
176
     1
170
     0
176
     1
171
     0
176
     1
290
     0
176
     1
 93
       13
176
     1
 44
0.0
176
     1
173
     0
176
     1
1001
ACAD
1000
AcDbSavedByObjectVersion
1070
     0
  0
VISUALSTYLE
  5
1EFA4
102
{ACAD_XDICTIONARY
360
3ACBC
102
}
102
{ACAD_REACTORS
330
1EFA1
102
}
330
1EFA1
100
AcDbVisualStyle
  2
Gouraud
 70
     2
177
     2
291
     1
 71
     2
176
     1
 72
     2
176
     1
 73
     1
176
     1
 90
        2
176
     1
 40
0.6
176
     1
 41
30.0
176
     1
 63
     7
421
 16777215
176
     1
 74
     0
176
     1
 91
        4
176
     1
 64
     7
176
     1
 65
   257
176
     1
 75
     1
176
     1
175
     1
176
     1
 42
1.0
176
     1
 92
        0
176
     1
 66
     7
176
     1
 43
1.0
176
     1
 76
     1
176
     1
 77
     6
176
     1
 78
     2
176
     1
 67
     7
176
     1
 79
     5
176
     1
170
     0
176
     1
171
     0
176
     1
290
     0
176
     1
 93
       13
176
     1
 44
0.0
176
     1
173
     0
176
     1
1001
ACAD
1000
AcDbSavedByObjectVersion
1070
     0
  0
VISUALSTYLE
  5
1EFA5
102
{ACAD_XDICTIONARY
360
3ACBE
102
}
102
{ACAD_REACTORS
330
1EFA1
102
}
330
1EFA1
100
AcDbVisualStyle
  2
GouraudWithEdges
 70
     3
177
     2
291
     1
 71
     2
176
     1
 72
     2
176
     1
 73
     1
176
     1
 90
        2
176
     1
 40
0.6
176
     1
 41
30.0
176
     1
 63
     7
421
 16777215
176
     1
 74
     1
176
     1
 91
        4
176
     1
 64
     7
176
     1
 65
   257
176
     1
 75
     1
176
     1
175
     1
176
     1
 42
1.0
176
     1
 92
        0
176
     1
 66
   257
176
     1
 43
1.0
176
     1
 76
     1
176
     1
 77
     6
176
     1
 78
     2
176
     1
 67
     7
176
     1
 79
     5
176
     1
170
     0
176
     1
171
     0
176
     1
290
     0
176
     1
 93
       13
176
     1
 44
0.0
176
     1
173
     0
176
     1
1001
ACAD
1000
AcDbSavedByObjectVersion
1070
     0
  0
VISUALSTYLE
  5
1F2C6
102
{ACAD_XDICTIONARY
360
3ACDA
102
}
102
{ACAD_REACTORS
330
1EFA1
102
}
330
1EFA1
100
AcDbVisualStyle
  2
Hidden
 70
     6
177
     2
291
     0
 71
     1
176
     1
 72
     2
176
     1
 73
     2
176
     1
 90
        0
176
     1
 40
0.6
176
     1
 41
30.0
176
     1
 63
     7
421
 16777215
176
     1
 74
     2
176
     1
 91
        2
176
     1
 64
     7
176
     1
 65
   257
176
     1
 75
     2
176
     1
175
     1
176
     1
 42
40.0
176
     1
 92
        0
176
     1
 66
   257
176
     1
 43
1.0
176
     1
 76
     1
176
     1
 77
     6
176
     1
 78
     2
176
     1
 67
     7
176
     1
 79
     3
176
     1
170
     0
176
     1
171
     0
176
     1
290
     0
176
     1
 93
        1
176
     1
 44
0.0
176
     1
173
     0
176
     1
1001
ACAD
1000
AcDbSavedByObjectVersion
1070
     0
  0
VISUALSTYLE
  5
1F2CC
102
{ACAD_XDICTIONARY
360
3ACE6
102
}
102
{ACAD_REACTORS
330
1EFA1
102
}
330
1EFA1
100
AcDbVisualStyle
  2
JitterOff
 70
    20
177
     2
291
     1
 71
     2
176
     0
 72
     2
176
     0
 73
     0
176
     0
 90
        0
176
     0
 40
0.6
176
     0
 41
30.0
176
     0
 63
     7
421
 16777215
176
     0
 74
     1
176
     0
 91
        4
176
     0
 64
     7
176
     0
 65
   257
176
     0
 75
     1
176
     0
175
     1
176
     0
 42
1.0
176
     0
 92
       10
176
     2
 66
     7
176
     0
 43
1.0
176
     0
 76
     1
176
     0
 77
     6
176
     0
 78
     2
176
     0
 67
     7
176
     0
 79
     5
176
     0
170
     0
176
     0
171
     0
176
     0
290
     0
176
     0
 93
        1
176
     0
 44
0.0
176
     0
173
     0
176
     0
1001
ACAD
1000
AcDbSavedByObjectVersion
1070
     0
  0
VISUALSTYLE
  5
1EFAF
102
{ACAD_XDICTIONARY
360
3ACD2
102
}
102
{ACAD_REACTORS
330
1EFA1
102
}
330
1EFA1
100
AcDbVisualStyle
  2
Linepattern
 70
    14
177
     2
291
     1
 71
     2
176
     1
 72
     2
176
     1
 73
     0
176
     1
 90
        0
176
     1
 40
0.6
176
     1
 41
30.0
176
     1
 63
     7
421
 16777215
176
     1
 74
     1
176
     1
 91
        4
176
     1
 64
     7
176
     1
 65
   257
176
     1
 75
     7
176
     1
175
     7
176
     1
 42
1.0
176
     1
 92
        8
176
     1
 66
     7
176
     1
 43
1.0
176
     1
 76
     1
176
     1
 77
     6
176
     1
 78
     2
176
     1
 67
     7
176
     1
 79
     5
176
     1
170
     0
176
     1
171
     0
176
     1
290
     0
176
     1
 93
        1
176
     1
 44
0.0
176
     1
173
     0
176
     1
1001
ACAD
1000
AcDbSavedByObjectVersion
1070
     0
  0
VISUALSTYLE
  5
1F2CD
102
{ACAD_XDICTIONARY
360
3ACE8
102
}
102
{ACAD_REACTORS
330
1EFA1
102
}
330
1EFA1
100
AcDbVisualStyle
  2
OverhangOff
 70
    21
177
     2
291
     1
 71
     2
176
     0
 72
     2
176
     0
 73
     0
176
     0
 90
        0
176
     0
 40
0.6
176
     0
 41
30.0
176
     0
 63
     7
421
 16777215
176
     0
 74
     1
176
     0
 91
        4
176
     0
 64
     7
176
     0
 65
   257
176
     0
 75
     1
176
     0
175
     1
176
     0
 42
1.0
176
     0
 92
        9
176
     2
 66
     7
176
     0
 43
1.0
176
     0
 76
     1
176
     0
 77
     6
176
     0
 78
     2
176
     0
 67
     7
176
     0
 79
     5
176
     0
170
     0
176
     0
171
     0
176
     0
290
     0
176
     0
 93
        1
176
     0
 44
0.0
176
     0
173
     0
176
     0
1001
ACAD
1000
AcDbSavedByObjectVersion
1070
     0
  0
VISUALSTYLE
  5
1EFAB
102
{ACAD_XDICTIONARY
360
3ACCA
102
}
102
{ACAD_REACTORS
330
1EFA1
102
}
330
1EFA1
100
AcDbVisualStyle
  2
Realistic
 70
     8
177
     2
291
     0
 71
     2
176
     1
 72
     2
176
     1
 73
     0
176
     1
 90
        0
176
     1
 40
0.6
176
     1
 41
30.0
176
     1
 63
     7
421
 16777215
176
     1
 74
     1
176
     1
 91
        0
176
     1
 64
     7
176
     1
 65
   257
176
     1
 75
     1
176
     1
175
     1
176
     1
 42
1.0
176
     1
 92
        8
176
     1
 66
     8
424
  7895160
176
     1
 43
1.0
176
     1
 76
     1
176
     1
 77
     6
176
     1
 78
     2
176
     1
 67
     7
176
     1
 79
     5
176
     1
170
     0
176
     1
171
     0
176
     1
290
     0
176
     1
 93
       13
176
     1
 44
0.0
176
     1
173
     0
176
     1
1001
ACAD
1000
AcDbSavedByObjectVersion
1070
     0
  0
VISUALSTYLE
  5
1F2CB
102
{ACAD_XDICTIONARY
360
3ACE4
102
}
102
{ACAD_REACTORS
330
1EFA1
102
}
330
1EFA1
100
AcDbVisualStyle
  2
Shaded
 70
    27
177
     2
291
     0
 71
     2
176
     1
 72
     2
176
     1
 73
     1
176
     1
 90
        2
176
     1
 40
0.6
176
     1
 41
30.0
176
     1
 63
     7
421
 16777215
176
     1
 74
     0
176
     1
 91
        4
176
     1
 64
     7
176
     1
 65
   257
176
     1
 75
     1
176
     1
175
     1
176
     1
 42
1.0
176
     1
 92
        8
176
     1
 66
   257
176
     1
 43
1.0
176
     1
 76
     1
176
     1
 77
     6
176
     1
 78
     2
176
     1
 67
     8
425
  7895160
176
     1
 79
     3
176
     1
170
     0
176
     1
171
     0
176
     1
290
     0
176
     1
 93
        5
176
     1
 44
0.0
176
     1
173
     0
176
     1
1001
ACAD
1000
AcDbSavedByObjectVersion
1070
     0
  0
VISUALSTYLE
  5
1F2CA
102
{ACAD_XDICTIONARY
360
3ACE2
102
}
102
{ACAD_REACTORS
330
1EFA1
102
}
330
1EFA1
100
AcDbVisualStyle
  2
Shaded with edges
 70
    26
177
     2
291
     0
 71
     2
176
     1
 72
     2
176
     1
 73
     1
176
     1
 90
        2
176
     1
 40
0.6
176
     1
 41
30.0
176
     1
 63
     7
421
 16777215
176
     1
 74
     1
176
     1
 91
       10
176
     1
 64
     7
176
     1
 65
   257
176
     1
 75
     2
176
     1
175
     1
176
     1
 42
1.0
176
     1
 92
        8
176
     1
 66
   257
176
     1
 43
1.0
176
     1
 76
     1
176
     1
 77
     6
176
     1
 78
     2
176
     1
 67
     7
176
     1
 79
     3
176
     1
170
     0
176
     1
171
     0
176
     1
290
     0
176
     1
 93
        5
176
     1
 44
0.0
176
     1
173
     0
176
     1
1001
ACAD
1000
AcDbSavedByObjectVersion
1070
     0
  0
VISUALSTYLE
  5
1F2C7
102
{ACAD_XDICTIONARY
360
3ACDC
102
}
102
{ACAD_REACTORS
330
1EFA1
102
}
330
1EFA1
100
AcDbVisualStyle
  2
Shades of Gray
 70
    23
177
     2
291
     0
 71
     2
176
     1
 72
     2
176
     1
 73
     3
176
     1
 90
        0
176
     1
 40
0.6
176
     1
 41
30.0
176
     1
 63
     7
421
 16777215
176
     1
 74
     2
176
     1
 91
        2
176
     1
 64
     7
176
     1
 65
     7
176
     1
 75
     1
176
     1
175
     1
176
     1
 42
40.0
176
     1
 92
        8
176
     1
 66
     7
176
     1
 43
1.0
176
     1
 76
     1
176
     1
 77
     6
176
     1
 78
     2
176
     1
 67
     7
176
     1
 79
     3
176
     1
170
     0
176
     1
171
     0
176
     1
290
     0
176
     1
 93
        1
176
     1
 44
0.0
176
     1
173
     0
176
     1
1001
ACAD
1000
AcDbSavedByObjectVersion
1070
     0
  0
VISUALSTYLE
  5
1F2C8
102
{ACAD_XDICTIONARY
360
3ACDE
102
}
102
{ACAD_REACTORS
330
1EFA1
102
}
330
1EFA1
100
AcDbVisualStyle
  2
Sketchy
 70
    24
177
     2
291
     0
 71
     1
176
     1
 72
     2
176
     1
 73
     2
176
     1
 90
        0
176
     1
 40
0.6
176
     1
 41
30.0
176
     1
 63
     7
421
 16777215
176
     1
 74
     2
176
     1
 91
        2
176
     1
 64
     7
176
     1
 65
     7
176
     1
 75
     1
176
     1
175
     1
176
     1
 42
40.0
176
     1
 92
       11
176
     1
 66
     7
176
     1
 43
1.0
176
     1
 76
     1
176
     1
 77
     6
176
     1
 78
     2
176
     1
 67
     7
176
     1
 79
     6
176
     1
170
     0
176
     1
171
     0
176
     1
290
     0
176
     1
 93
        1
176
     1
 44
0.0
176
     1
173
     0
176
     1
1001
ACAD
1000
AcDbSavedByObjectVersion
1070
     0
  0
VISUALSTYLE
  5
1EFAE
102
{ACAD_XDICTIONARY
360
3ACD0
102
}
102
{ACAD_REACTORS
330
1EFA1
102
}
330
1EFA1
100
AcDbVisualStyle
  2
Thicken
 70
    13
177
     2
291
     1
 71
     2
176
     1
 72
     2
176
     1
 73
     0
176
     1
 90
        0
176
     1
 40
0.6
176
     1
 41
30.0
176
     1
 63
     7
421
 16777215
176
     1
 74
     1
176
     1
 91
        4
176
     1
 64
     7
176
     1
 65
   257
176
     1
 75
     1
176
     1
175
     1
176
     1
 42
1.0
176
     1
 92
       12
176
     1
 66
     7
176
     1
 43
1.0
176
     1
 76
     1
176
     1
 77
     6
176
     1
 78
     2
176
     1
 67
     7
176
     1
 79
     5
176
     1
170
     0
176
     1
171
     0
176
     1
290
     0
176
     1
 93
        1
176
     1
 44
0.0
176
     1
173
     0
176
     1
1001
ACAD
1000
AcDbSavedByObjectVersion
1070
     0
  0
VISUALSTYLE
  5
1F2C5
102
{ACAD_XDICTIONARY
360
3ACD8
102
}
102
{ACAD_REACTORS
330
1EFA1
102
}
330
1EFA1
100
AcDbVisualStyle
  2
Wireframe
 70
     5
177
     2
291
     0
 71
     0
176
     1
 72
     2
176
     1
 73
     0
176
     1
 90
        0
176
     1
 40
0.6
176
     1
 41
30.0
176
     1
 63
     7
421
 16777215
176
     1
 74
     1
176
     1
 91
        4
176
     1
 64
     7
176
     1
 65
   257
176
     1
 75
     1
176
     1
175
     1
176
     1
 42
1.0
176
     1
 92
        0
176
     1
 66
   257
176
     1
 43
1.0
176
     1
 76
     1
176
     1
 77
     6
176
     1
 78
     2
176
     1
 67
     7
176
     1
 79
     3
176
     1
170
     0
176
     1
171
     0
176
     1
290
     0
176
     1
 93
        1
176
     1
 44
0.0
176
     1
173
     0
176
     1
1001
ACAD
1000
AcDbSavedByObjectVersion
1070
     0
  0
VISUALSTYLE
  5
1F2C9
102
{ACAD_XDICTIONARY
360
3ACE0
102
}
102
{ACAD_REACTORS
330
1EFA1
102
}
330
1EFA1
100
AcDbVisualStyle
  2
X-Ray
 70
    25
177
     2
291
     0
 71
     2
176
     1
 72
     2
176
     1
 73
     1
176
     1
 90
        1
176
     1
 40
0.5
176
     1
 41
30.0
176
     1
 63
     7
421
 16777215
176
     1
 74
     1
176
     1
 91
        0
176
     1
 64
     7
176
     1
 65
   257
176
     1
 75
     1
176
     1
175
     1
176
     1
 42
1.0
176
     1
 92
        8
176
     1
 66
     7
176
     1
 43
1.0
176
     1
 76
     1
176
     1
 77
     6
176
     1
 78
     2
176
     1
 67
     7
176
     1
 79
     3
176
     1
170
     0
176
     1
171
     0
176
     1
290
     0
176
     1
 93
       13
176
     1
 44
0.0
176
     1
173
     0
176
     1
1001
ACAD
1000
AcDbSavedByObjectVersion
1070
     0
  0
DICTIONARYVAR
  5
1F179
102
{ACAD_REACTORS
330
228C
102
}
330
228C
100
DictionaryVariables
280
     0
  1
1:1
  0
DICTIONARYVAR
  5
1F177
102
{ACAD_REACTORS
330
228C
102
}
330
228C
100
DictionaryVariables
280
     0
  1
STANDARD
  0
DICTIONARYVAR
  5
1F176
102
{ACAD_REACTORS
330
228C
102
}
330
228C
100
DictionaryVariables
280
     0
  1
STANDARD
  0
DICTIONARYVAR
  5
2AE98
102
{ACAD_REACTORS
330
228C
102
}
330
228C
100
DictionaryVariables
280
     0
  1
Metric50
  0
DICTIONARYVAR
  5
2AE99
102
{ACAD_REACTORS
330
228C
102
}
330
228C
100
DictionaryVariables
280
     0
  1
Metric50
  0
DICTIONARYVAR
  5
14D45
102
{ACAD_REACTORS
330
228C
102
}
330
228C
100
DictionaryVariables
280
     0
  1
1
  0
DICTIONARYVAR
  5
34CB6
102
{ACAD_REACTORS
330
228C
102
}
330
228C
100
DictionaryVariables
280
     0
  1
BYLAYER
  0
DICTIONARYVAR
  5
227C7
102
{ACAD_REACTORS
330
228C
102
}
330
228C
100
DictionaryVariables
280
     0
  1
ByLayer
  0
DICTIONARYVAR
  5
1F2D8
102
{ACAD_REACTORS
330
228C
102
}
330
228C
100
DictionaryVariables
280
     0
  1
1
  0
DICTIONARYVAR
  5
1F2D9
102
{ACAD_REACTORS
330
228C
102
}
330
228C
100
DictionaryVariables
280
     0
  1
15
  0
DICTIONARYVAR
  5
1F17A
102
{ACAD_REACTORS
330
228C
102
}
330
228C
100
DictionaryVariables
280
     0
  1
0
  0
DICTIONARYVAR
  5
1F178
102
{ACAD_REACTORS
330
228C
102
}
330
228C
100
DictionaryVariables
280
     0
  1
0
  0
DICTIONARYVAR
  5
228D
102
{ACAD_REACTORS
330
228C
102
}
330
228C
100
DictionaryVariables
280
     0
  1
96
  0
DICTIONARY
  5
3ACB7
102
{ACAD_REACTORS
330
3ACB5
102
}
330
3ACB5
100
AcDbDictionary
281
     1
  0
DICTIONARY
  5
3ACB6
102
{ACAD_REACTORS
330
3ACB5
102
}
330
3ACB5
100
AcDbDictionary
281
     1
  3
8796087970432
350
3ACB0
  3
8796087970448
350
3ACB1
  3
8796087970464
350
3ACB2
  3
8796087970480
350
3ACB3
  3
8796087970496
350
3ACB4
  0
DICTIONARY
  5
39E4A
102
{ACAD_REACTORS
330
39E43
102
}
330
39E43
100
AcDbDictionary
281
     1
  0
DICTIONARY
  5
2AE95
330
29BAB
100
AcDbDictionary
280
     1
281
     1
  3
ACAD_XREC_ROUNDTRIP
360
3ACED
  0
DICTIONARY
  5
3A361
330
3A360
100
AcDbDictionary
280
     1
281
     1
  3
ACAD_XREC_ROUNDTRIP
360
3ACEF
  0
DICTIONARY
  5
1EFF2
330
3B0B
100
AcDbDictionary
280
     1
281
     1
  0
DICTIONARY
  5
1F301
330
3B0A
100
AcDbDictionary
280
     1
281
     1
  0
DICTIONARY
  5
1EF92
330
1EF91
100
AcDbDictionary
280
     1
281
     1
  3
BUMPTILE
360
1EF94
  3
DIFFUSETILE
360
1EF93
  3
OPACITYTILE
360
1EF97
  3
REFLECTIONTILE
360
1EF96
  3
REFRACTIONTILE
360
1EF98
  3
SPECULARTILE
360
1EF95
  0
DICTIONARY
  5
1EF8A
330
1EF89
100
AcDbDictionary
280
     1
281
     1
  3
BUMPTILE
360
1EF8C
  3
DIFFUSETILE
360
1EF8B
  3
OPACITYTILE
360
1EF8F
  3
REFLECTIONTILE
360
1EF8E
  3
REFRACTIONTILE
360
1EF90
  3
SPECULARTILE
360
1EF8D
  0
DICTIONARY
  5
1EF9A
330
1EF99
100
AcDbDictionary
280
     1
281
     1
  3
BUMPTILE
360
1EF9C
  3
DIFFUSETILE
360
1EF9B
  3
OPACITYTILE
360
1EF9F
  3
REFLECTIONTILE
360
1EF9E
  3
REFRACTIONTILE
360
1EFA0
  3
SPECULARTILE
360
1EF9D
  0
DICTIONARY
  5
2AE93
330
29BA9
100
AcDbDictionary
280
     1
281
     1
  3
ACAD_XREC_ROUNDTRIP
360
3ACEC
  0
DICTIONARY
  5
3A35F
330
3A35E
100
AcDbDictionary
280
     1
281
     1
  3
ACAD_XREC_ROUNDTRIP
360
3ACEE
  0
DICTIONARY
  5
1F173
330
1EFB4
100
AcDbDictionary
280
     1
281
     1
  3
ACAD_ROUNDTRIP_2008_TABLESTYLE_CELLSTYLEMAP
360
3ACAD
  0
DICTIONARY
  5
3ACC2
330
1EFA7
100
AcDbDictionary
280
     1
281
     1
  3
ACAD_XREC_ROUNDTRIP
360
3ACC3
  0
DICTIONARY
  5
3ACC6
330
1EFA9
100
AcDbDictionary
280
     1
281
     1
  3
ACAD_XREC_ROUNDTRIP
360
3ACC7
  0
DICTIONARY
  5
3ACC4
330
1EFA8
100
AcDbDictionary
280
     1
281
     1
  3
ACAD_XREC_ROUNDTRIP
360
3ACC5
  0
DICTIONARY
  5
3ACC0
330
1EFA6
100
AcDbDictionary
280
     1
281
     1
  3
ACAD_XREC_ROUNDTRIP
360
3ACC1
  0
DICTIONARY
  5
3ACCE
330
1EFAD
100
AcDbDictionary
280
     1
281
     1
  3
ACAD_XREC_ROUNDTRIP
360
3ACCF
  0
DICTIONARY
  5
3ACD6
330
1EFB1
100
AcDbDictionary
280
     1
281
     1
  3
ACAD_XREC_ROUNDTRIP
360
3ACD7
  0
DICTIONARY
  5
3ACC8
330
1EFAA
100
AcDbDictionary
280
     1
281
     1
  3
ACAD_XREC_ROUNDTRIP
360
3ACC9
  0
DICTIONARY
  5
3ACCC
330
1EFAC
100
AcDbDictionary
280
     1
281
     1
  3
ACAD_XREC_ROUNDTRIP
360
3ACCD
  0
DICTIONARY
  5
3ACEA
330
1F2CE
100
AcDbDictionary
280
     1
281
     1
  3
ACAD_XREC_ROUNDTRIP
360
3ACEB
  0
DICTIONARY
  5
3ACD4
330
1EFB0
100
AcDbDictionary
280
     1
281
     1
  3
ACAD_XREC_ROUNDTRIP
360
3ACD5
  0
DICTIONARY
  5
3ACB8
330
1EFA2
100
AcDbDictionary
280
     1
281
     1
  3
ACAD_XREC_ROUNDTRIP
360
3ACB9
  0
DICTIONARY
  5
3ACBA
330
1EFA3
100
AcDbDictionary
280
     1
281
     1
  3
ACAD_XREC_ROUNDTRIP
360
3ACBB
  0
DICTIONARY
  5
3ACBC
330
1EFA4
100
AcDbDictionary
280
     1
281
     1
  3
ACAD_XREC_ROUNDTRIP
360
3ACBD
  0
DICTIONARY
  5
3ACBE
330
1EFA5
100
AcDbDictionary
280
     1
281
     1
  3
ACAD_XREC_ROUNDTRIP
360
3ACBF
  0
DICTIONARY
  5
3ACDA
330
1F2C6
100
AcDbDictionary
280
     1
281
     1
  3
ACAD_XREC_ROUNDTRIP
360
3ACDB
  0
DICTIONARY
  5
3ACE6
330
1F2CC
100
AcDbDictionary
280
     1
281
     1
  3
ACAD_XREC_ROUNDTRIP
360
3ACE7
  0
DICTIONARY
  5
3ACD2
330
1EFAF
100
AcDbDictionary
280
     1
281
     1
  3
ACAD_XREC_ROUNDTRIP
360
3ACD3
  0
DICTIONARY
  5
3ACE8
330
1F2CD
100
AcDbDictionary
280
     1
281
     1
  3
ACAD_XREC_ROUNDTRIP
360
3ACE9
  0
DICTIONARY
  5
3ACCA
330
1EFAB
100
AcDbDictionary
280
     1
281
     1
  3
ACAD_XREC_ROUNDTRIP
360
3ACCB
  0
DICTIONARY
  5
3ACE4
330
1F2CB
100
AcDbDictionary
280
     1
281
     1
  3
ACAD_XREC_ROUNDTRIP
360
3ACE5
  0
DICTIONARY
  5
3ACE2
330
1F2CA
100
AcDbDictionary
280
     1
281
     1
  3
ACAD_XREC_ROUNDTRIP
360
3ACE3
  0
DICTIONARY
  5
3ACDC
330
1F2C7
100
AcDbDictionary
280
     1
281
     1
  3
ACAD_XREC_ROUNDTRIP
360
3ACDD
  0
DICTIONARY
  5
3ACDE
330
1F2C8
100
AcDbDictionary
280
     1
281
     1
  3
ACAD_XREC_ROUNDTRIP
360
3ACDF
  0
DICTIONARY
  5
3ACD0
330
1EFAE
100
AcDbDictionary
280
     1
281
     1
  3
ACAD_XREC_ROUNDTRIP
360
3ACD1
  0
DICTIONARY
  5
3ACD8
330
1F2C5
100
AcDbDictionary
280
     1
281
     1
  3
ACAD_XREC_ROUNDTRIP
360
3ACD9
  0
DICTIONARY
  5
3ACE0
330
1F2C9
100
AcDbDictionary
280
     1
281
     1
  3
ACAD_XREC_ROUNDTRIP
360
3ACE1
  0
XRECORD
  5
3ACB0
102
{ACAD_REACTORS
330
3ACB6
102
}
330
3ACB6
100
AcDbXrecord
280
     1
  1
AcDb_Thumbnail_Schema
102
{ATTRRECORD
341
3ACB1
  2
AcDbDs::TreatedAsObjectData
280
     1
291
     1
102
ATTRRECORD}
102
{ATTRRECORD
341
3ACB2
  2
AcDbDs::Legacy
280
     1
291
     1
102
ATTRRECORD}
  2
AcDbDs::ID
280
    10
 91
        8
102
{ATTRRECORD
341
3ACB3
  2
AcDs:Indexable
280
     1
291
     1
102
ATTRRECORD}
102
{ATTRRECORD
341
3ACB4
  2
AcDbDs::HandleAttribute
280
     7
282
     1
102
ATTRRECORD}
  2
Thumbnail_Data
280
    15
 91
        0
  0
XRECORD
  5
3ACB1
102
{ACAD_REACTORS
330
3ACB6
102
}
330
3ACB6
100
AcDbXrecord
280
     1
  1
AcDbDs::TreatedAsObjectDataSchema
  2
AcDbDs::TreatedAsObjectData
280
     1
 91
        0
  0
XRECORD
  5
3ACB2
102
{ACAD_REACTORS
330
3ACB6
102
}
330
3ACB6
100
AcDbXrecord
280
     1
  1
AcDbDs::LegacySchema
  2
AcDbDs::Legacy
280
     1
 91
        0
  0
XRECORD
  5
3ACB3
102
{ACAD_REACTORS
330
3ACB6
102
}
330
3ACB6
100
AcDbXrecord
280
     1
  1
AcDbDs::IndexedPropertySchema
  2
AcDs:Indexable
280
     1
 91
        0
  0
XRECORD
  5
3ACB4
102
{ACAD_REACTORS
330
3ACB6
102
}
330
3ACB6
100
AcDbXrecord
280
     1
  1
AcDbDs::HandleAttributeSchema
  2
AcDbDs::HandleAttribute
280
     7
 91
        1
284
     1
  0
XRECORD
  5
3ACED
102
{ACAD_REACTORS
330
2AE95
102
}
330
2AE95
100
AcDbXrecord
280
     1
102
DISPLAYNAME
  1
Imperial24
102
FLAGS
 90
        0
  0
XRECORD
  5
3ACEF
102
{ACAD_REACTORS
330
3A361
102
}
330
3A361
100
AcDbXrecord
280
     1
102
DISPLAYNAME
  1
Metric50
102
FLAGS
 90
        0
  0
XRECORD
  5
1EF94
102
{ACAD_REACTORS
330
1EF92
102
}
330
1EF92
100
AcDbXrecord
280
     1
270
     1
271
     1
  0
XRECORD
  5
1EF93
102
{ACAD_REACTORS
330
1EF92
102
}
330
1EF92
100
AcDbXrecord
280
     1
270
     1
271
     1
  0
XRECORD
  5
1EF97
102
{ACAD_REACTORS
330
1EF92
102
}
330
1EF92
100
AcDbXrecord
280
     1
270
     1
271
     1
  0
XRECORD
  5
1EF96
102
{ACAD_REACTORS
330
1EF92
102
}
330
1EF92
100
AcDbXrecord
280
     1
270
     1
271
     1
  0
XRECORD
  5
1EF98
102
{ACAD_REACTORS
330
1EF92
102
}
330
1EF92
100
AcDbXrecord
280
     1
270
     1
271
     1
  0
XRECORD
  5
1EF95
102
{ACAD_REACTORS
330
1EF92
102
}
330
1EF92
100
AcDbXrecord
280
     1
270
     1
271
     1
  0
XRECORD
  5
1EF8C
102
{ACAD_REACTORS
330
1EF8A
102
}
330
1EF8A
100
AcDbXrecord
280
     1
270
     1
271
     1
  0
XRECORD
  5
1EF8B
102
{ACAD_REACTORS
330
1EF8A
102
}
330
1EF8A
100
AcDbXrecord
280
     1
270
     1
271
     1
  0
XRECORD
  5
1EF8F
102
{ACAD_REACTORS
330
1EF8A
102
}
330
1EF8A
100
AcDbXrecord
280
     1
270
     1
271
     1
  0
XRECORD
  5
1EF8E
102
{ACAD_REACTORS
330
1EF8A
102
}
330
1EF8A
100
AcDbXrecord
280
     1
270
     1
271
     1
  0
XRECORD
  5
1EF90
102
{ACAD_REACTORS
330
1EF8A
102
}
330
1EF8A
100
AcDbXrecord
280
     1
270
     1
271
     1
  0
XRECORD
  5
1EF8D
102
{ACAD_REACTORS
330
1EF8A
102
}
330
1EF8A
100
AcDbXrecord
280
     1
270
     1
271
     1
  0
XRECORD
  5
1EF9C
102
{ACAD_REACTORS
330
1EF9A
102
}
330
1EF9A
100
AcDbXrecord
280
     1
270
     1
271
     1
  0
XRECORD
  5
1EF9B
102
{ACAD_REACTORS
330
1EF9A
102
}
330
1EF9A
100
AcDbXrecord
280
     1
270
     1
271
     1
  0
XRECORD
  5
1EF9F
102
{ACAD_REACTORS
330
1EF9A
102
}
330
1EF9A
100
AcDbXrecord
280
     1
270
     1
271
     1
  0
XRECORD
  5
1EF9E
102
{ACAD_REACTORS
330
1EF9A
102
}
330
1EF9A
100
AcDbXrecord
280
     1
270
     1
271
     1
  0
XRECORD
  5
1EFA0
102
{ACAD_REACTORS
330
1EF9A
102
}
330
1EF9A
100
AcDbXrecord
280
     1
270
     1
271
     1
  0
XRECORD
  5
1EF9D
102
{ACAD_REACTORS
330
1EF9A
102
}
330
1EF9A
100
AcDbXrecord
280
     1
270
     1
271
     1
  0
XRECORD
  5
3ACEC
102
{ACAD_REACTORS
330
2AE93
102
}
330
2AE93
100
AcDbXrecord
280
     1
102
DISPLAYNAME
  1
Imperial24
102
FLAGS
 90
        0
  0
XRECORD
  5
3ACEE
102
{ACAD_REACTORS
330
3A35F
102
}
330
3A35F
100
AcDbXrecord
280
     1
102
DISPLAYNAME
  1
Metric50
102
FLAGS
 90
        0
  0
CELLSTYLEMAP
  5
3ACAD
102
{ACAD_REACTORS
330
1F173
102
}
330
1F173
100
AcDbCellStyleMap
 90
        3
300
CELLSTYLE
  1
TABLEFORMAT_BEGIN
 90
        5
170
     1
 91
        0
 92
    32768
 62
   257
 93
        1
300
CONTENTFORMAT
  1
CONTENTFORMAT_BEGIN
 90
        0
 91
        0
 92
      512
 93
        0
300

 40
0.0
140
1.0
 94
        5
 62
     0
340
F
144
0.25
309
CONTENTFORMAT_END
171
     0
 94
        0
309
TABLEFORMAT_END
  1
CELLSTYLE_BEGIN
 90
        1
 91
        1
300
_TITLE
309
CELLSTYLE_END
300
CELLSTYLE
  1
TABLEFORMAT_BEGIN
 90
        5
170
     1
 91
        0
 92
        0
 62
   257
 93
        1
300
CONTENTFORMAT
  1
CONTENTFORMAT_BEGIN
 90
        0
 91
        0
 92
      512
 93
        0
300

 40
0.0
140
1.0
 94
        5
 62
     0
340
F
144
0.18
309
CONTENTFORMAT_END
171
     0
 94
        0
309
TABLEFORMAT_END
  1
CELLSTYLE_BEGIN
 90
        2
 91
        1
300
_HEADER
309
CELLSTYLE_END
300
CELLSTYLE
  1
TABLEFORMAT_BEGIN
 90
        5
170
     1
 91
        0
 92
        0
 62
   257
 93
        1
300
CONTENTFORMAT
  1
CONTENTFORMAT_BEGIN
 90
        0
 91
        0
 92
      512
 93
        0
300

 40
0.0
140
1.0
 94
        2
 62
     0
340
F
144
0.18
309
CONTENTFORMAT_END
171
     0
 94
        0
309
TABLEFORMAT_END
  1
CELLSTYLE_BEGIN
 90
        3
 91
        2
300
_DATA
309
CELLSTYLE_END
  0
XRECORD
  5
3ACC3
102
{ACAD_REACTORS
330
3ACC2
102
}
330
3ACC2
100
AcDbXrecord
280
     1
102
RTVSPost2010Prop28
280
     1
102
RTVSPost2010PropOp28
 70
     1
102
RTVSPost2010Prop29
280
     1
102
RTVSPost2010PropOp29
 70
     1
102
RTVSPost2010Prop30
280
     0
102
RTVSPost2010PropOp30
 70
     1
102
RTVSPost2010Prop31
280
     0
102
RTVSPost2010PropOp31
 70
     1
102
RTVSPost2010Prop32
280
     0
102
RTVSPost2010PropOp32
 70
     1
102
RTVSPost2010Prop33
280
     0
102
RTVSPost2010PropOp33
 70
     1
102
RTVSPost2010Prop34
280
     0
102
RTVSPost2010PropOp34
 70
     1
102
RTVSPost2010Prop35
280
     0
102
RTVSPost2010PropOp35
 70
     1
102
RTVSPost2010Prop36
280
     0
102
RTVSPost2010PropOp36
 70
     1
102
RTVSPost2010Prop37
 90
       50
102
RTVSPost2010PropOp37
 70
     1
102
RTVSPost2010Prop38
140
0.0
102
RTVSPost2010PropOp38
 70
     1
102
RTVSPost2010Prop39
140
1.0
102
RTVSPost2010PropOp39
 70
     1
102
RTVSPost2010Prop40
 90
        0
102
RTVSPost2010PropOp40
 70
     1
102
RTVSPost2010Prop41ColorIndex
 90
       18
102
RTVSPost2010Prop41ColorRGB
 90
        0
102
RTVSPost2010PropOp41
 70
     1
102
RTVSPost2010Prop42
 90
       50
102
RTVSPost2010PropOp42
 70
     1
102
RTVSPost2010Prop43
 90
        3
102
RTVSPost2010PropOp43
 70
     1
102
RTVSPost2010Prop44ColorIndex
 90
        5
102
RTVSPost2010Prop44ColorRGB
 90
      255
102
RTVSPost2010PropOp44
 70
     1
102
RTVSPost2010Prop45
280
     0
102
RTVSPost2010PropOp45
 70
     1
102
RTVSPost2010Prop46
 90
       50
102
RTVSPost2010PropOp46
 70
     1
102
RTVSPost2010Prop47
 90
       50
102
RTVSPost2010PropOp47
 70
     1
102
RTVSPost2010Prop48
 90
       50
102
RTVSPost2010PropOp48
 70
     1
102
RTVSPost2010Prop49
280
     0
102
RTVSPost2010PropOp49
 70
     1
102
RTVSPost2010Prop50
 90
       50
102
RTVSPost2010PropOp50
 70
     1
102
RTVSPost2010Prop51ColorIndex
 90
      256
102
RTVSPost2010Prop51ColorRGB
 90
-16777216
102
RTVSPost2010PropOp51
 70
     0
102
RTVSPost2010Prop52
140
1.0
102
RTVSPost2010PropOp52
 70
     0
102
RTVSPost2010Prop53
 90
        2
102
RTVSPost2010PropOp53
 70
     1
102
RTVSPost2010Prop54
  1
strokes_ogs.tif
102
RTVSPost2010PropOp54
 70
     1
102
RTVSPost2010Prop55
280
     0
102
RTVSPost2010PropOp55
 70
     1
102
RTVSPost2010Prop56
140
1.0
102
RTVSPost2010PropOp56
 70
     1
102
RTVSPost2010Prop57
140
1.0
102
RTVSPost2010PropOp57
 70
     1
  0
XRECORD
  5
3ACC7
102
{ACAD_REACTORS
330
3ACC6
102
}
330
3ACC6
100
AcDbXrecord
280
     1
102
RTVSPost2010Prop28
280
     0
102
RTVSPost2010PropOp28
 70
     1
102
RTVSPost2010Prop29
280
     1
102
RTVSPost2010PropOp29
 70
     1
102
RTVSPost2010Prop30
280
     1
102
RTVSPost2010PropOp30
 70
     1
102
RTVSPost2010Prop31
280
     0
102
RTVSPost2010PropOp31
 70
     1
102
RTVSPost2010Prop32
280
     0
102
RTVSPost2010PropOp32
 70
     1
102
RTVSPost2010Prop33
280
     0
102
RTVSPost2010PropOp33
 70
     1
102
RTVSPost2010Prop34
280
     0
102
RTVSPost2010PropOp34
 70
     1
102
RTVSPost2010Prop35
280
     0
102
RTVSPost2010PropOp35
 70
     1
102
RTVSPost2010Prop36
280
     0
102
RTVSPost2010PropOp36
 70
     1
102
RTVSPost2010Prop37
 90
       50
102
RTVSPost2010PropOp37
 70
     1
102
RTVSPost2010Prop38
140
0.0
102
RTVSPost2010PropOp38
 70
     1
102
RTVSPost2010Prop39
140
1.0
102
RTVSPost2010PropOp39
 70
     1
102
RTVSPost2010Prop40
 90
        0
102
RTVSPost2010PropOp40
 70
     1
102
RTVSPost2010Prop41ColorIndex
 90
       18
102
RTVSPost2010Prop41ColorRGB
 90
        0
102
RTVSPost2010PropOp41
 70
     1
102
RTVSPost2010Prop42
 90
       50
102
RTVSPost2010PropOp42
 70
     1
102
RTVSPost2010Prop43
 90
        3
102
RTVSPost2010PropOp43
 70
     1
102
RTVSPost2010Prop44ColorIndex
 90
        5
102
RTVSPost2010Prop44ColorRGB
 90
      255
102
RTVSPost2010PropOp44
 70
     1
102
RTVSPost2010Prop45
280
     0
102
RTVSPost2010PropOp45
 70
     1
102
RTVSPost2010Prop46
 90
       50
102
RTVSPost2010PropOp46
 70
     1
102
RTVSPost2010Prop47
 90
       50
102
RTVSPost2010PropOp47
 70
     1
102
RTVSPost2010Prop48
 90
       50
102
RTVSPost2010PropOp48
 70
     1
102
RTVSPost2010Prop49
280
     0
102
RTVSPost2010PropOp49
 70
     1
102
RTVSPost2010Prop50
 90
       50
102
RTVSPost2010PropOp50
 70
     1
102
RTVSPost2010Prop51ColorIndex
 90
      256
102
RTVSPost2010Prop51ColorRGB
 90
-16777216
102
RTVSPost2010PropOp51
 70
     0
102
RTVSPost2010Prop52
140
1.0
102
RTVSPost2010PropOp52
 70
     0
102
RTVSPost2010Prop53
 90
        2
102
RTVSPost2010PropOp53
 70
     1
102
RTVSPost2010Prop54
  1
strokes_ogs.tif
102
RTVSPost2010PropOp54
 70
     1
102
RTVSPost2010Prop55
280
     0
102
RTVSPost2010PropOp55
 70
     1
102
RTVSPost2010Prop56
140
1.0
102
RTVSPost2010PropOp56
 70
     1
102
RTVSPost2010Prop57
140
1.0
102
RTVSPost2010PropOp57
 70
     1
  0
XRECORD
  5
3ACC5
102
{ACAD_REACTORS
330
3ACC4
102
}
330
3ACC4
100
AcDbXrecord
280
     1
102
RTVSPost2010Prop28
280
     0
102
RTVSPost2010PropOp28
 70
     1
102
RTVSPost2010Prop29
280
     1
102
RTVSPost2010PropOp29
 70
     1
102
RTVSPost2010Prop30
280
     1
102
RTVSPost2010PropOp30
 70
     1
102
RTVSPost2010Prop31
280
     0
102
RTVSPost2010PropOp31
 70
     1
102
RTVSPost2010Prop32
280
     0
102
RTVSPost2010PropOp32
 70
     1
102
RTVSPost2010Prop33
280
     0
102
RTVSPost2010PropOp33
 70
     1
102
RTVSPost2010Prop34
280
     0
102
RTVSPost2010PropOp34
 70
     1
102
RTVSPost2010Prop35
280
     0
102
RTVSPost2010PropOp35
 70
     1
102
RTVSPost2010Prop36
280
     0
102
RTVSPost2010PropOp36
 70
     1
102
RTVSPost2010Prop37
 90
       50
102
RTVSPost2010PropOp37
 70
     1
102
RTVSPost2010Prop38
140
0.0
102
RTVSPost2010PropOp38
 70
     1
102
RTVSPost2010Prop39
140
1.0
102
RTVSPost2010PropOp39
 70
     1
102
RTVSPost2010Prop40
 90
        0
102
RTVSPost2010PropOp40
 70
     1
102
RTVSPost2010Prop41ColorIndex
 90
       18
102
RTVSPost2010Prop41ColorRGB
 90
        0
102
RTVSPost2010PropOp41
 70
     1
102
RTVSPost2010Prop42
 90
       50
102
RTVSPost2010PropOp42
 70
     1
102
RTVSPost2010Prop43
 90
        3
102
RTVSPost2010PropOp43
 70
     1
102
RTVSPost2010Prop44ColorIndex
 90
        5
102
RTVSPost2010Prop44ColorRGB
 90
      255
102
RTVSPost2010PropOp44
 70
     1
102
RTVSPost2010Prop45
280
     0
102
RTVSPost2010PropOp45
 70
     1
102
RTVSPost2010Prop46
 90
       50
102
RTVSPost2010PropOp46
 70
     1
102
RTVSPost2010Prop47
 90
       50
102
RTVSPost2010PropOp47
 70
     1
102
RTVSPost2010Prop48
 90
       50
102
RTVSPost2010PropOp48
 70
     1
102
RTVSPost2010Prop49
280
     0
102
RTVSPost2010PropOp49
 70
     1
102
RTVSPost2010Prop50
 90
       50
102
RTVSPost2010PropOp50
 70
     1
102
RTVSPost2010Prop51ColorIndex
 90
      256
102
RTVSPost2010Prop51ColorRGB
 90
-16777216
102
RTVSPost2010PropOp51
 70
     0
102
RTVSPost2010Prop52
140
1.0
102
RTVSPost2010PropOp52
 70
     0
102
RTVSPost2010Prop53
 90
        2
102
RTVSPost2010PropOp53
 70
     1
102
RTVSPost2010Prop54
  1
strokes_ogs.tif
102
RTVSPost2010PropOp54
 70
     1
102
RTVSPost2010Prop55
280
     0
102
RTVSPost2010PropOp55
 70
     1
102
RTVSPost2010Prop56
140
1.0
102
RTVSPost2010PropOp56
 70
     1
102
RTVSPost2010Prop57
140
1.0
102
RTVSPost2010PropOp57
 70
     1
  0
XRECORD
  5
3ACC1
102
{ACAD_REACTORS
330
3ACC0
102
}
330
3ACC0
100
AcDbXrecord
280
     1
102
RTVSPost2010Prop28
280
     0
102
RTVSPost2010PropOp28
 70
     1
102
RTVSPost2010Prop29
280
     1
102
RTVSPost2010PropOp29
 70
     1
102
RTVSPost2010Prop30
280
     1
102
RTVSPost2010PropOp30
 70
     1
102
RTVSPost2010Prop31
280
     0
102
RTVSPost2010PropOp31
 70
     1
102
RTVSPost2010Prop32
280
     0
102
RTVSPost2010PropOp32
 70
     1
102
RTVSPost2010Prop33
280
     0
102
RTVSPost2010PropOp33
 70
     1
102
RTVSPost2010Prop34
280
     0
102
RTVSPost2010PropOp34
 70
     1
102
RTVSPost2010Prop35
280
     0
102
RTVSPost2010PropOp35
 70
     1
102
RTVSPost2010Prop36
280
     0
102
RTVSPost2010PropOp36
 70
     1
102
RTVSPost2010Prop37
 90
       50
102
RTVSPost2010PropOp37
 70
     1
102
RTVSPost2010Prop38
140
0.0
102
RTVSPost2010PropOp38
 70
     1
102
RTVSPost2010Prop39
140
1.0
102
RTVSPost2010PropOp39
 70
     1
102
RTVSPost2010Prop40
 90
        0
102
RTVSPost2010PropOp40
 70
     1
102
RTVSPost2010Prop41ColorIndex
 90
       18
102
RTVSPost2010Prop41ColorRGB
 90
        0
102
RTVSPost2010PropOp41
 70
     1
102
RTVSPost2010Prop42
 90
       50
102
RTVSPost2010PropOp42
 70
     1
102
RTVSPost2010Prop43
 90
        3
102
RTVSPost2010PropOp43
 70
     1
102
RTVSPost2010Prop44ColorIndex
 90
        5
102
RTVSPost2010Prop44ColorRGB
 90
      255
102
RTVSPost2010PropOp44
 70
     1
102
RTVSPost2010Prop45
280
     0
102
RTVSPost2010PropOp45
 70
     1
102
RTVSPost2010Prop46
 90
       50
102
RTVSPost2010PropOp46
 70
     1
102
RTVSPost2010Prop47
 90
       50
102
RTVSPost2010PropOp47
 70
     1
102
RTVSPost2010Prop48
 90
       50
102
RTVSPost2010PropOp48
 70
     1
102
RTVSPost2010Prop49
280
     0
102
RTVSPost2010PropOp49
 70
     1
102
RTVSPost2010Prop50
 90
       50
102
RTVSPost2010PropOp50
 70
     1
102
RTVSPost2010Prop51ColorIndex
 90
      256
102
RTVSPost2010Prop51ColorRGB
 90
-16777216
102
RTVSPost2010PropOp51
 70
     0
102
RTVSPost2010Prop52
140
1.0
102
RTVSPost2010PropOp52
 70
     0
102
RTVSPost2010Prop53
 90
        2
102
RTVSPost2010PropOp53
 70
     1
102
RTVSPost2010Prop54
  1
strokes_ogs.tif
102
RTVSPost2010PropOp54
 70
     1
102
RTVSPost2010Prop55
280
     0
102
RTVSPost2010PropOp55
 70
     1
102
RTVSPost2010Prop56
140
1.0
102
RTVSPost2010PropOp56
 70
     1
102
RTVSPost2010Prop57
140
1.0
102
RTVSPost2010PropOp57
 70
     1
  0
XRECORD
  5
3ACCF
102
{ACAD_REACTORS
330
3ACCE
102
}
330
3ACCE
100
AcDbXrecord
280
     1
102
RTVSPost2010Prop28
280
     0
102
RTVSPost2010PropOp28
 70
     1
102
RTVSPost2010Prop29
280
     1
102
RTVSPost2010PropOp29
 70
     1
102
RTVSPost2010Prop30
280
     1
102
RTVSPost2010PropOp30
 70
     1
102
RTVSPost2010Prop31
280
     0
102
RTVSPost2010PropOp31
 70
     1
102
RTVSPost2010Prop32
280
     0
102
RTVSPost2010PropOp32
 70
     1
102
RTVSPost2010Prop33
280
     0
102
RTVSPost2010PropOp33
 70
     1
102
RTVSPost2010Prop34
280
     0
102
RTVSPost2010PropOp34
 70
     1
102
RTVSPost2010Prop35
280
     0
102
RTVSPost2010PropOp35
 70
     1
102
RTVSPost2010Prop36
280
     0
102
RTVSPost2010PropOp36
 70
     1
102
RTVSPost2010Prop37
 90
       50
102
RTVSPost2010PropOp37
 70
     1
102
RTVSPost2010Prop38
140
0.0
102
RTVSPost2010PropOp38
 70
     1
102
RTVSPost2010Prop39
140
1.0
102
RTVSPost2010PropOp39
 70
     1
102
RTVSPost2010Prop40
 90
        0
102
RTVSPost2010PropOp40
 70
     1
102
RTVSPost2010Prop41ColorIndex
 90
       18
102
RTVSPost2010Prop41ColorRGB
 90
        0
102
RTVSPost2010PropOp41
 70
     1
102
RTVSPost2010Prop42
 90
       50
102
RTVSPost2010PropOp42
 70
     1
102
RTVSPost2010Prop43
 90
        3
102
RTVSPost2010PropOp43
 70
     1
102
RTVSPost2010Prop44ColorIndex
 90
        5
102
RTVSPost2010Prop44ColorRGB
 90
      255
102
RTVSPost2010PropOp44
 70
     1
102
RTVSPost2010Prop45
280
     0
102
RTVSPost2010PropOp45
 70
     1
102
RTVSPost2010Prop46
 90
       50
102
RTVSPost2010PropOp46
 70
     1
102
RTVSPost2010Prop47
 90
       50
102
RTVSPost2010PropOp47
 70
     1
102
RTVSPost2010Prop48
 90
       50
102
RTVSPost2010PropOp48
 70
     1
102
RTVSPost2010Prop49
280
     0
102
RTVSPost2010PropOp49
 70
     1
102
RTVSPost2010Prop50
 90
       50
102
RTVSPost2010PropOp50
 70
     1
102
RTVSPost2010Prop51ColorIndex
 90
      256
102
RTVSPost2010Prop51ColorRGB
 90
-16777216
102
RTVSPost2010PropOp51
 70
     0
102
RTVSPost2010Prop52
140
1.0
102
RTVSPost2010PropOp52
 70
     0
102
RTVSPost2010Prop53
 90
        2
102
RTVSPost2010PropOp53
 70
     1
102
RTVSPost2010Prop54
  1
strokes_ogs.tif
102
RTVSPost2010PropOp54
 70
     1
102
RTVSPost2010Prop55
280
     0
102
RTVSPost2010PropOp55
 70
     1
102
RTVSPost2010Prop56
140
1.0
102
RTVSPost2010PropOp56
 70
     1
102
RTVSPost2010Prop57
140
1.0
102
RTVSPost2010PropOp57
 70
     1
  0
XRECORD
  5
3ACD7
102
{ACAD_REACTORS
330
3ACD6
102
}
330
3ACD6
100
AcDbXrecord
280
     1
102
RTVSPost2010Prop28
280
     0
102
RTVSPost2010PropOp28
 70
     1
102
RTVSPost2010Prop29
280
     1
102
RTVSPost2010PropOp29
 70
     1
102
RTVSPost2010Prop30
280
     1
102
RTVSPost2010PropOp30
 70
     1
102
RTVSPost2010Prop31
280
     0
102
RTVSPost2010PropOp31
 70
     1
102
RTVSPost2010Prop32
280
     0
102
RTVSPost2010PropOp32
 70
     1
102
RTVSPost2010Prop33
280
     0
102
RTVSPost2010PropOp33
 70
     1
102
RTVSPost2010Prop34
280
     0
102
RTVSPost2010PropOp34
 70
     1
102
RTVSPost2010Prop35
280
     0
102
RTVSPost2010PropOp35
 70
     1
102
RTVSPost2010Prop36
280
     0
102
RTVSPost2010PropOp36
 70
     1
102
RTVSPost2010Prop37
 90
       50
102
RTVSPost2010PropOp37
 70
     1
102
RTVSPost2010Prop38
140
0.0
102
RTVSPost2010PropOp38
 70
     1
102
RTVSPost2010Prop39
140
1.0
102
RTVSPost2010PropOp39
 70
     1
102
RTVSPost2010Prop40
 90
        0
102
RTVSPost2010PropOp40
 70
     1
102
RTVSPost2010Prop41ColorIndex
 90
       18
102
RTVSPost2010Prop41ColorRGB
 90
        0
102
RTVSPost2010PropOp41
 70
     1
102
RTVSPost2010Prop42
 90
       50
102
RTVSPost2010PropOp42
 70
     1
102
RTVSPost2010Prop43
 90
        3
102
RTVSPost2010PropOp43
 70
     1
102
RTVSPost2010Prop44ColorIndex
 90
        5
102
RTVSPost2010Prop44ColorRGB
 90
      255
102
RTVSPost2010PropOp44
 70
     1
102
RTVSPost2010Prop45
280
     0
102
RTVSPost2010PropOp45
 70
     1
102
RTVSPost2010Prop46
 90
       50
102
RTVSPost2010PropOp46
 70
     1
102
RTVSPost2010Prop47
 90
       50
102
RTVSPost2010PropOp47
 70
     1
102
RTVSPost2010Prop48
 90
       50
102
RTVSPost2010PropOp48
 70
     1
102
RTVSPost2010Prop49
280
     0
102
RTVSPost2010PropOp49
 70
     1
102
RTVSPost2010Prop50
 90
       50
102
RTVSPost2010PropOp50
 70
     1
102
RTVSPost2010Prop51ColorIndex
 90
      256
102
RTVSPost2010Prop51ColorRGB
 90
-16777216
102
RTVSPost2010PropOp51
 70
     0
102
RTVSPost2010Prop52
140
1.0
102
RTVSPost2010PropOp52
 70
     0
102
RTVSPost2010Prop53
 90
        2
102
RTVSPost2010PropOp53
 70
     1
102
RTVSPost2010Prop54
  1
strokes_ogs.tif
102
RTVSPost2010PropOp54
 70
     1
102
RTVSPost2010Prop55
280
     0
102
RTVSPost2010PropOp55
 70
     1
102
RTVSPost2010Prop56
140
1.0
102
RTVSPost2010PropOp56
 70
     1
102
RTVSPost2010Prop57
140
1.0
102
RTVSPost2010PropOp57
 70
     1
  0
XRECORD
  5
3ACC9
102
{ACAD_REACTORS
330
3ACC8
102
}
330
3ACC8
100
AcDbXrecord
280
     1
102
RTVSPost2010Prop28
280
     0
102
RTVSPost2010PropOp28
 70
     1
102
RTVSPost2010Prop29
280
     1
102
RTVSPost2010PropOp29
 70
     1
102
RTVSPost2010Prop30
280
     1
102
RTVSPost2010PropOp30
 70
     1
102
RTVSPost2010Prop31
280
     0
102
RTVSPost2010PropOp31
 70
     1
102
RTVSPost2010Prop32
280
     0
102
RTVSPost2010PropOp32
 70
     1
102
RTVSPost2010Prop33
280
     0
102
RTVSPost2010PropOp33
 70
     1
102
RTVSPost2010Prop34
280
     0
102
RTVSPost2010PropOp34
 70
     1
102
RTVSPost2010Prop35
280
     0
102
RTVSPost2010PropOp35
 70
     1
102
RTVSPost2010Prop36
280
     0
102
RTVSPost2010PropOp36
 70
     1
102
RTVSPost2010Prop37
 90
       50
102
RTVSPost2010PropOp37
 70
     1
102
RTVSPost2010Prop38
140
0.0
102
RTVSPost2010PropOp38
 70
     1
102
RTVSPost2010Prop39
140
1.0
102
RTVSPost2010PropOp39
 70
     1
102
RTVSPost2010Prop40
 90
        0
102
RTVSPost2010PropOp40
 70
     1
102
RTVSPost2010Prop41ColorIndex
 90
       18
102
RTVSPost2010Prop41ColorRGB
 90
        0
102
RTVSPost2010PropOp41
 70
     1
102
RTVSPost2010Prop42
 90
       50
102
RTVSPost2010PropOp42
 70
     1
102
RTVSPost2010Prop43
 90
        3
102
RTVSPost2010PropOp43
 70
     1
102
RTVSPost2010Prop44ColorIndex
 90
        5
102
RTVSPost2010Prop44ColorRGB
 90
      255
102
RTVSPost2010PropOp44
 70
     1
102
RTVSPost2010Prop45
280
     0
102
RTVSPost2010PropOp45
 70
     1
102
RTVSPost2010Prop46
 90
       50
102
RTVSPost2010PropOp46
 70
     1
102
RTVSPost2010Prop47
 90
       50
102
RTVSPost2010PropOp47
 70
     1
102
RTVSPost2010Prop48
 90
       50
102
RTVSPost2010PropOp48
 70
     1
102
RTVSPost2010Prop49
280
     0
102
RTVSPost2010PropOp49
 70
     1
102
RTVSPost2010Prop50
 90
       50
102
RTVSPost2010PropOp50
 70
     1
102
RTVSPost2010Prop51ColorIndex
 90
      256
102
RTVSPost2010Prop51ColorRGB
 90
-16777216
102
RTVSPost2010PropOp51
 70
     0
102
RTVSPost2010Prop52
140
1.0
102
RTVSPost2010PropOp52
 70
     0
102
RTVSPost2010Prop53
 90
        2
102
RTVSPost2010PropOp53
 70
     1
102
RTVSPost2010Prop54
  1
strokes_ogs.tif
102
RTVSPost2010PropOp54
 70
     1
102
RTVSPost2010Prop55
280
     0
102
RTVSPost2010PropOp55
 70
     1
102
RTVSPost2010Prop56
140
1.0
102
RTVSPost2010PropOp56
 70
     1
102
RTVSPost2010Prop57
140
1.0
102
RTVSPost2010PropOp57
 70
     1
  0
XRECORD
  5
3ACCD
102
{ACAD_REACTORS
330
3ACCC
102
}
330
3ACCC
100
AcDbXrecord
280
     1
102
RTVSPost2010Prop28
280
     0
102
RTVSPost2010PropOp28
 70
     1
102
RTVSPost2010Prop29
280
     1
102
RTVSPost2010PropOp29
 70
     1
102
RTVSPost2010Prop30
280
     1
102
RTVSPost2010PropOp30
 70
     1
102
RTVSPost2010Prop31
280
     0
102
RTVSPost2010PropOp31
 70
     1
102
RTVSPost2010Prop32
280
     0
102
RTVSPost2010PropOp32
 70
     1
102
RTVSPost2010Prop33
280
     0
102
RTVSPost2010PropOp33
 70
     1
102
RTVSPost2010Prop34
280
     0
102
RTVSPost2010PropOp34
 70
     1
102
RTVSPost2010Prop35
280
     0
102
RTVSPost2010PropOp35
 70
     1
102
RTVSPost2010Prop36
280
     0
102
RTVSPost2010PropOp36
 70
     1
102
RTVSPost2010Prop37
 90
       50
102
RTVSPost2010PropOp37
 70
     1
102
RTVSPost2010Prop38
140
0.0
102
RTVSPost2010PropOp38
 70
     1
102
RTVSPost2010Prop39
140
1.0
102
RTVSPost2010PropOp39
 70
     1
102
RTVSPost2010Prop40
 90
        0
102
RTVSPost2010PropOp40
 70
     1
102
RTVSPost2010Prop41ColorIndex
 90
       18
102
RTVSPost2010Prop41ColorRGB
 90
        0
102
RTVSPost2010PropOp41
 70
     1
102
RTVSPost2010Prop42
 90
       50
102
RTVSPost2010PropOp42
 70
     1
102
RTVSPost2010Prop43
 90
        3
102
RTVSPost2010PropOp43
 70
     1
102
RTVSPost2010Prop44ColorIndex
 90
        5
102
RTVSPost2010Prop44ColorRGB
 90
      255
102
RTVSPost2010PropOp44
 70
     1
102
RTVSPost2010Prop45
280
     0
102
RTVSPost2010PropOp45
 70
     1
102
RTVSPost2010Prop46
 90
       50
102
RTVSPost2010PropOp46
 70
     1
102
RTVSPost2010Prop47
 90
       50
102
RTVSPost2010PropOp47
 70
     1
102
RTVSPost2010Prop48
 90
       50
102
RTVSPost2010PropOp48
 70
     1
102
RTVSPost2010Prop49
280
     0
102
RTVSPost2010PropOp49
 70
     1
102
RTVSPost2010Prop50
 90
       50
102
RTVSPost2010PropOp50
 70
     1
102
RTVSPost2010Prop51ColorIndex
 90
      256
102
RTVSPost2010Prop51ColorRGB
 90
-16777216
102
RTVSPost2010PropOp51
 70
     0
102
RTVSPost2010Prop52
140
1.0
102
RTVSPost2010PropOp52
 70
     0
102
RTVSPost2010Prop53
 90
        2
102
RTVSPost2010PropOp53
 70
     1
102
RTVSPost2010Prop54
  1
strokes_ogs.tif
102
RTVSPost2010PropOp54
 70
     1
102
RTVSPost2010Prop55
280
     0
102
RTVSPost2010PropOp55
 70
     1
102
RTVSPost2010Prop56
140
1.0
102
RTVSPost2010PropOp56
 70
     1
102
RTVSPost2010Prop57
140
1.0
102
RTVSPost2010PropOp57
 70
     1
  0
XRECORD
  5
3ACEB
102
{ACAD_REACTORS
330
3ACEA
102
}
330
3ACEA
100
AcDbXrecord
280
     1
102
RTVSPost2010Prop28
280
     0
102
RTVSPost2010PropOp28
 70
     1
102
RTVSPost2010Prop29
280
     1
102
RTVSPost2010PropOp29
 70
     1
102
RTVSPost2010Prop30
280
     1
102
RTVSPost2010PropOp30
 70
     1
102
RTVSPost2010Prop31
280
     0
102
RTVSPost2010PropOp31
 70
     1
102
RTVSPost2010Prop32
280
     0
102
RTVSPost2010PropOp32
 70
     1
102
RTVSPost2010Prop33
280
     0
102
RTVSPost2010PropOp33
 70
     1
102
RTVSPost2010Prop34
280
     0
102
RTVSPost2010PropOp34
 70
     1
102
RTVSPost2010Prop35
280
     0
102
RTVSPost2010PropOp35
 70
     1
102
RTVSPost2010Prop36
280
     0
102
RTVSPost2010PropOp36
 70
     1
102
RTVSPost2010Prop37
 90
       50
102
RTVSPost2010PropOp37
 70
     1
102
RTVSPost2010Prop38
140
0.0
102
RTVSPost2010PropOp38
 70
     1
102
RTVSPost2010Prop39
140
1.0
102
RTVSPost2010PropOp39
 70
     1
102
RTVSPost2010Prop40
 90
        0
102
RTVSPost2010PropOp40
 70
     1
102
RTVSPost2010Prop41ColorIndex
 90
       18
102
RTVSPost2010Prop41ColorRGB
 90
        0
102
RTVSPost2010PropOp41
 70
     1
102
RTVSPost2010Prop42
 90
       50
102
RTVSPost2010PropOp42
 70
     1
102
RTVSPost2010Prop43
 90
        3
102
RTVSPost2010PropOp43
 70
     1
102
RTVSPost2010Prop44ColorIndex
 90
        5
102
RTVSPost2010Prop44ColorRGB
 90
      255
102
RTVSPost2010PropOp44
 70
     1
102
RTVSPost2010Prop45
280
     0
102
RTVSPost2010PropOp45
 70
     1
102
RTVSPost2010Prop46
 90
       50
102
RTVSPost2010PropOp46
 70
     1
102
RTVSPost2010Prop47
 90
       50
102
RTVSPost2010PropOp47
 70
     1
102
RTVSPost2010Prop48
 90
       50
102
RTVSPost2010PropOp48
 70
     1
102
RTVSPost2010Prop49
280
     0
102
RTVSPost2010PropOp49
 70
     1
102
RTVSPost2010Prop50
 90
       50
102
RTVSPost2010PropOp50
 70
     1
102
RTVSPost2010Prop51ColorIndex
 90
      256
102
RTVSPost2010Prop51ColorRGB
 90
-16777216
102
RTVSPost2010PropOp51
 70
     0
102
RTVSPost2010Prop52
140
1.0
102
RTVSPost2010PropOp52
 70
     0
102
RTVSPost2010Prop53
 90
        2
102
RTVSPost2010PropOp53
 70
     1
102
RTVSPost2010Prop54
  1
strokes_ogs.tif
102
RTVSPost2010PropOp54
 70
     1
102
RTVSPost2010Prop55
280
     0
102
RTVSPost2010PropOp55
 70
     1
102
RTVSPost2010Prop56
140
1.0
102
RTVSPost2010PropOp56
 70
     1
102
RTVSPost2010Prop57
140
1.0
102
RTVSPost2010PropOp57
 70
     1
  0
XRECORD
  5
3ACD5
102
{ACAD_REACTORS
330
3ACD4
102
}
330
3ACD4
100
AcDbXrecord
280
     1
102
RTVSPost2010Prop28
280
     0
102
RTVSPost2010PropOp28
 70
     1
102
RTVSPost2010Prop29
280
     1
102
RTVSPost2010PropOp29
 70
     1
102
RTVSPost2010Prop30
280
     1
102
RTVSPost2010PropOp30
 70
     1
102
RTVSPost2010Prop31
280
     0
102
RTVSPost2010PropOp31
 70
     1
102
RTVSPost2010Prop32
280
     0
102
RTVSPost2010PropOp32
 70
     1
102
RTVSPost2010Prop33
280
     0
102
RTVSPost2010PropOp33
 70
     1
102
RTVSPost2010Prop34
280
     0
102
RTVSPost2010PropOp34
 70
     1
102
RTVSPost2010Prop35
280
     0
102
RTVSPost2010PropOp35
 70
     1
102
RTVSPost2010Prop36
280
     0
102
RTVSPost2010PropOp36
 70
     1
102
RTVSPost2010Prop37
 90
       50
102
RTVSPost2010PropOp37
 70
     1
102
RTVSPost2010Prop38
140
0.0
102
RTVSPost2010PropOp38
 70
     1
102
RTVSPost2010Prop39
140
1.0
102
RTVSPost2010PropOp39
 70
     1
102
RTVSPost2010Prop40
 90
        0
102
RTVSPost2010PropOp40
 70
     1
102
RTVSPost2010Prop41ColorIndex
 90
       18
102
RTVSPost2010Prop41ColorRGB
 90
        0
102
RTVSPost2010PropOp41
 70
     1
102
RTVSPost2010Prop42
 90
       50
102
RTVSPost2010PropOp42
 70
     1
102
RTVSPost2010Prop43
 90
        3
102
RTVSPost2010PropOp43
 70
     1
102
RTVSPost2010Prop44ColorIndex
 90
        5
102
RTVSPost2010Prop44ColorRGB
 90
      255
102
RTVSPost2010PropOp44
 70
     1
102
RTVSPost2010Prop45
280
     0
102
RTVSPost2010PropOp45
 70
     1
102
RTVSPost2010Prop46
 90
       50
102
RTVSPost2010PropOp46
 70
     1
102
RTVSPost2010Prop47
 90
       50
102
RTVSPost2010PropOp47
 70
     1
102
RTVSPost2010Prop48
 90
       50
102
RTVSPost2010PropOp48
 70
     1
102
RTVSPost2010Prop49
280
     0
102
RTVSPost2010PropOp49
 70
     1
102
RTVSPost2010Prop50
 90
       50
102
RTVSPost2010PropOp50
 70
     1
102
RTVSPost2010Prop51ColorIndex
 90
      256
102
RTVSPost2010Prop51ColorRGB
 90
-16777216
102
RTVSPost2010PropOp51
 70
     0
102
RTVSPost2010Prop52
140
1.0
102
RTVSPost2010PropOp52
 70
     0
102
RTVSPost2010Prop53
 90
        2
102
RTVSPost2010PropOp53
 70
     1
102
RTVSPost2010Prop54
  1
strokes_ogs.tif
102
RTVSPost2010PropOp54
 70
     1
102
RTVSPost2010Prop55
280
     0
102
RTVSPost2010PropOp55
 70
     1
102
RTVSPost2010Prop56
140
1.0
102
RTVSPost2010PropOp56
 70
     1
102
RTVSPost2010Prop57
140
1.0
102
RTVSPost2010PropOp57
 70
     1
  0
XRECORD
  5
3ACB9
102
{ACAD_REACTORS
330
3ACB8
102
}
330
3ACB8
100
AcDbXrecord
280
     1
102
RTVSPost2010Prop28
280
     0
102
RTVSPost2010PropOp28
 70
     1
102
RTVSPost2010Prop29
280
     1
102
RTVSPost2010PropOp29
 70
     1
102
RTVSPost2010Prop30
280
     1
102
RTVSPost2010PropOp30
 70
     1
102
RTVSPost2010Prop31
280
     0
102
RTVSPost2010PropOp31
 70
     1
102
RTVSPost2010Prop32
280
     0
102
RTVSPost2010PropOp32
 70
     1
102
RTVSPost2010Prop33
280
     0
102
RTVSPost2010PropOp33
 70
     1
102
RTVSPost2010Prop34
280
     0
102
RTVSPost2010PropOp34
 70
     1
102
RTVSPost2010Prop35
280
     0
102
RTVSPost2010PropOp35
 70
     1
102
RTVSPost2010Prop36
280
     0
102
RTVSPost2010PropOp36
 70
     1
102
RTVSPost2010Prop37
 90
       50
102
RTVSPost2010PropOp37
 70
     1
102
RTVSPost2010Prop38
140
0.0
102
RTVSPost2010PropOp38
 70
     1
102
RTVSPost2010Prop39
140
1.0
102
RTVSPost2010PropOp39
 70
     1
102
RTVSPost2010Prop40
 90
        0
102
RTVSPost2010PropOp40
 70
     1
102
RTVSPost2010Prop41ColorIndex
 90
       18
102
RTVSPost2010Prop41ColorRGB
 90
        0
102
RTVSPost2010PropOp41
 70
     1
102
RTVSPost2010Prop42
 90
       50
102
RTVSPost2010PropOp42
 70
     1
102
RTVSPost2010Prop43
 90
        3
102
RTVSPost2010PropOp43
 70
     1
102
RTVSPost2010Prop44ColorIndex
 90
        5
102
RTVSPost2010Prop44ColorRGB
 90
      255
102
RTVSPost2010PropOp44
 70
     1
102
RTVSPost2010Prop45
280
     0
102
RTVSPost2010PropOp45
 70
     1
102
RTVSPost2010Prop46
 90
       50
102
RTVSPost2010PropOp46
 70
     1
102
RTVSPost2010Prop47
 90
       50
102
RTVSPost2010PropOp47
 70
     1
102
RTVSPost2010Prop48
 90
       50
102
RTVSPost2010PropOp48
 70
     1
102
RTVSPost2010Prop49
280
     0
102
RTVSPost2010PropOp49
 70
     1
102
RTVSPost2010Prop50
 90
       50
102
RTVSPost2010PropOp50
 70
     1
102
RTVSPost2010Prop51ColorIndex
 90
      256
102
RTVSPost2010Prop51ColorRGB
 90
-16777216
102
RTVSPost2010PropOp51
 70
     0
102
RTVSPost2010Prop52
140
1.0
102
RTVSPost2010PropOp52
 70
     0
102
RTVSPost2010Prop53
 90
        2
102
RTVSPost2010PropOp53
 70
     1
102
RTVSPost2010Prop54
  1
strokes_ogs.tif
102
RTVSPost2010PropOp54
 70
     1
102
RTVSPost2010Prop55
280
     0
102
RTVSPost2010PropOp55
 70
     1
102
RTVSPost2010Prop56
140
1.0
102
RTVSPost2010PropOp56
 70
     1
102
RTVSPost2010Prop57
140
1.0
102
RTVSPost2010PropOp57
 70
     1
  0
XRECORD
  5
3ACBB
102
{ACAD_REACTORS
330
3ACBA
102
}
330
3ACBA
100
AcDbXrecord
280
     1
102
RTVSPost2010Prop28
280
     0
102
RTVSPost2010PropOp28
 70
     1
102
RTVSPost2010Prop29
280
     1
102
RTVSPost2010PropOp29
 70
     1
102
RTVSPost2010Prop30
280
     1
102
RTVSPost2010PropOp30
 70
     1
102
RTVSPost2010Prop31
280
     0
102
RTVSPost2010PropOp31
 70
     1
102
RTVSPost2010Prop32
280
     0
102
RTVSPost2010PropOp32
 70
     1
102
RTVSPost2010Prop33
280
     0
102
RTVSPost2010PropOp33
 70
     1
102
RTVSPost2010Prop34
280
     0
102
RTVSPost2010PropOp34
 70
     1
102
RTVSPost2010Prop35
280
     0
102
RTVSPost2010PropOp35
 70
     1
102
RTVSPost2010Prop36
280
     0
102
RTVSPost2010PropOp36
 70
     1
102
RTVSPost2010Prop37
 90
       50
102
RTVSPost2010PropOp37
 70
     1
102
RTVSPost2010Prop38
140
0.0
102
RTVSPost2010PropOp38
 70
     1
102
RTVSPost2010Prop39
140
1.0
102
RTVSPost2010PropOp39
 70
     1
102
RTVSPost2010Prop40
 90
        0
102
RTVSPost2010PropOp40
 70
     1
102
RTVSPost2010Prop41ColorIndex
 90
       18
102
RTVSPost2010Prop41ColorRGB
 90
        0
102
RTVSPost2010PropOp41
 70
     1
102
RTVSPost2010Prop42
 90
       50
102
RTVSPost2010PropOp42
 70
     1
102
RTVSPost2010Prop43
 90
        3
102
RTVSPost2010PropOp43
 70
     1
102
RTVSPost2010Prop44ColorIndex
 90
        5
102
RTVSPost2010Prop44ColorRGB
 90
      255
102
RTVSPost2010PropOp44
 70
     1
102
RTVSPost2010Prop45
280
     0
102
RTVSPost2010PropOp45
 70
     1
102
RTVSPost2010Prop46
 90
       50
102
RTVSPost2010PropOp46
 70
     1
102
RTVSPost2010Prop47
 90
       50
102
RTVSPost2010PropOp47
 70
     1
102
RTVSPost2010Prop48
 90
       50
102
RTVSPost2010PropOp48
 70
     1
102
RTVSPost2010Prop49
280
     0
102
RTVSPost2010PropOp49
 70
     1
102
RTVSPost2010Prop50
 90
       50
102
RTVSPost2010PropOp50
 70
     1
102
RTVSPost2010Prop51ColorIndex
 90
      256
102
RTVSPost2010Prop51ColorRGB
 90
-16777216
102
RTVSPost2010PropOp51
 70
     0
102
RTVSPost2010Prop52
140
1.0
102
RTVSPost2010PropOp52
 70
     0
102
RTVSPost2010Prop53
 90
        2
102
RTVSPost2010PropOp53
 70
     1
102
RTVSPost2010Prop54
  1
strokes_ogs.tif
102
RTVSPost2010PropOp54
 70
     1
102
RTVSPost2010Prop55
280
     0
102
RTVSPost2010PropOp55
 70
     1
102
RTVSPost2010Prop56
140
1.0
102
RTVSPost2010PropOp56
 70
     1
102
RTVSPost2010Prop57
140
1.0
102
RTVSPost2010PropOp57
 70
     1
  0
XRECORD
  5
3ACBD
102
{ACAD_REACTORS
330
3ACBC
102
}
330
3ACBC
100
AcDbXrecord
280
     1
102
RTVSPost2010Prop28
280
     0
102
RTVSPost2010PropOp28
 70
     1
102
RTVSPost2010Prop29
280
     1
102
RTVSPost2010PropOp29
 70
     1
102
RTVSPost2010Prop30
280
     1
102
RTVSPost2010PropOp30
 70
     1
102
RTVSPost2010Prop31
280
     0
102
RTVSPost2010PropOp31
 70
     1
102
RTVSPost2010Prop32
280
     0
102
RTVSPost2010PropOp32
 70
     1
102
RTVSPost2010Prop33
280
     0
102
RTVSPost2010PropOp33
 70
     1
102
RTVSPost2010Prop34
280
     0
102
RTVSPost2010PropOp34
 70
     1
102
RTVSPost2010Prop35
280
     0
102
RTVSPost2010PropOp35
 70
     1
102
RTVSPost2010Prop36
280
     0
102
RTVSPost2010PropOp36
 70
     1
102
RTVSPost2010Prop37
 90
       50
102
RTVSPost2010PropOp37
 70
     1
102
RTVSPost2010Prop38
140
0.0
102
RTVSPost2010PropOp38
 70
     1
102
RTVSPost2010Prop39
140
1.0
102
RTVSPost2010PropOp39
 70
     1
102
RTVSPost2010Prop40
 90
        0
102
RTVSPost2010PropOp40
 70
     1
102
RTVSPost2010Prop41ColorIndex
 90
       18
102
RTVSPost2010Prop41ColorRGB
 90
        0
102
RTVSPost2010PropOp41
 70
     1
102
RTVSPost2010Prop42
 90
       50
102
RTVSPost2010PropOp42
 70
     1
102
RTVSPost2010Prop43
 90
        3
102
RTVSPost2010PropOp43
 70
     1
102
RTVSPost2010Prop44ColorIndex
 90
        5
102
RTVSPost2010Prop44ColorRGB
 90
      255
102
RTVSPost2010PropOp44
 70
     1
102
RTVSPost2010Prop45
280
     0
102
RTVSPost2010PropOp45
 70
     1
102
RTVSPost2010Prop46
 90
       50
102
RTVSPost2010PropOp46
 70
     1
102
RTVSPost2010Prop47
 90
       50
102
RTVSPost2010PropOp47
 70
     1
102
RTVSPost2010Prop48
 90
       50
102
RTVSPost2010PropOp48
 70
     1
102
RTVSPost2010Prop49
280
     0
102
RTVSPost2010PropOp49
 70
     1
102
RTVSPost2010Prop50
 90
       50
102
RTVSPost2010PropOp50
 70
     1
102
RTVSPost2010Prop51ColorIndex
 90
      256
102
RTVSPost2010Prop51ColorRGB
 90
-16777216
102
RTVSPost2010PropOp51
 70
     0
102
RTVSPost2010Prop52
140
1.0
102
RTVSPost2010PropOp52
 70
     0
102
RTVSPost2010Prop53
 90
        2
102
RTVSPost2010PropOp53
 70
     1
102
RTVSPost2010Prop54
  1
strokes_ogs.tif
102
RTVSPost2010PropOp54
 70
     1
102
RTVSPost2010Prop55
280
     0
102
RTVSPost2010PropOp55
 70
     1
102
RTVSPost2010Prop56
140
1.0
102
RTVSPost2010PropOp56
 70
     1
102
RTVSPost2010Prop57
140
1.0
102
RTVSPost2010PropOp57
 70
     1
  0
XRECORD
  5
3ACBF
102
{ACAD_REACTORS
330
3ACBE
102
}
330
3ACBE
100
AcDbXrecord
280
     1
102
RTVSPost2010Prop28
280
     0
102
RTVSPost2010PropOp28
 70
     1
102
RTVSPost2010Prop29
280
     1
102
RTVSPost2010PropOp29
 70
     1
102
RTVSPost2010Prop30
280
     1
102
RTVSPost2010PropOp30
 70
     1
102
RTVSPost2010Prop31
280
     0
102
RTVSPost2010PropOp31
 70
     1
102
RTVSPost2010Prop32
280
     0
102
RTVSPost2010PropOp32
 70
     1
102
RTVSPost2010Prop33
280
     0
102
RTVSPost2010PropOp33
 70
     1
102
RTVSPost2010Prop34
280
     0
102
RTVSPost2010PropOp34
 70
     1
102
RTVSPost2010Prop35
280
     0
102
RTVSPost2010PropOp35
 70
     1
102
RTVSPost2010Prop36
280
     0
102
RTVSPost2010PropOp36
 70
     1
102
RTVSPost2010Prop37
 90
       50
102
RTVSPost2010PropOp37
 70
     1
102
RTVSPost2010Prop38
140
0.0
102
RTVSPost2010PropOp38
 70
     1
102
RTVSPost2010Prop39
140
1.0
102
RTVSPost2010PropOp39
 70
     1
102
RTVSPost2010Prop40
 90
        0
102
RTVSPost2010PropOp40
 70
     1
102
RTVSPost2010Prop41ColorIndex
 90
       18
102
RTVSPost2010Prop41ColorRGB
 90
        0
102
RTVSPost2010PropOp41
 70
     1
102
RTVSPost2010Prop42
 90
       50
102
RTVSPost2010PropOp42
 70
     1
102
RTVSPost2010Prop43
 90
        3
102
RTVSPost2010PropOp43
 70
     1
102
RTVSPost2010Prop44ColorIndex
 90
        5
102
RTVSPost2010Prop44ColorRGB
 90
      255
102
RTVSPost2010PropOp44
 70
     1
102
RTVSPost2010Prop45
280
     0
102
RTVSPost2010PropOp45
 70
     1
102
RTVSPost2010Prop46
 90
       50
102
RTVSPost2010PropOp46
 70
     1
102
RTVSPost2010Prop47
 90
       50
102
RTVSPost2010PropOp47
 70
     1
102
RTVSPost2010Prop48
 90
       50
102
RTVSPost2010PropOp48
 70
     1
102
RTVSPost2010Prop49
280
     0
102
RTVSPost2010PropOp49
 70
     1
102
RTVSPost2010Prop50
 90
       50
102
RTVSPost2010PropOp50
 70
     1
102
RTVSPost2010Prop51ColorIndex
 90
      256
102
RTVSPost2010Prop51ColorRGB
 90
-16777216
102
RTVSPost2010PropOp51
 70
     0
102
RTVSPost2010Prop52
140
1.0
102
RTVSPost2010PropOp52
 70
     0
102
RTVSPost2010Prop53
 90
        2
102
RTVSPost2010PropOp53
 70
     1
102
RTVSPost2010Prop54
  1
strokes_ogs.tif
102
RTVSPost2010PropOp54
 70
     1
102
RTVSPost2010Prop55
280
     0
102
RTVSPost2010PropOp55
 70
     1
102
RTVSPost2010Prop56
140
1.0
102
RTVSPost2010PropOp56
 70
     1
102
RTVSPost2010Prop57
140
1.0
102
RTVSPost2010PropOp57
 70
     1
  0
XRECORD
  5
3ACDB
102
{ACAD_REACTORS
330
3ACDA
102
}
330
3ACDA
100
AcDbXrecord
280
     1
102
RTVSPost2010Prop28
280
     0
102
RTVSPost2010PropOp28
 70
     1
102
RTVSPost2010Prop29
280
     1
102
RTVSPost2010PropOp29
 70
     1
102
RTVSPost2010Prop30
280
     1
102
RTVSPost2010PropOp30
 70
     1
102
RTVSPost2010Prop31
280
     0
102
RTVSPost2010PropOp31
 70
     1
102
RTVSPost2010Prop32
280
     0
102
RTVSPost2010PropOp32
 70
     1
102
RTVSPost2010Prop33
280
     0
102
RTVSPost2010PropOp33
 70
     1
102
RTVSPost2010Prop34
280
     0
102
RTVSPost2010PropOp34
 70
     1
102
RTVSPost2010Prop35
280
     0
102
RTVSPost2010PropOp35
 70
     1
102
RTVSPost2010Prop36
280
     0
102
RTVSPost2010PropOp36
 70
     1
102
RTVSPost2010Prop37
 90
       50
102
RTVSPost2010PropOp37
 70
     1
102
RTVSPost2010Prop38
140
0.0
102
RTVSPost2010PropOp38
 70
     1
102
RTVSPost2010Prop39
140
1.0
102
RTVSPost2010PropOp39
 70
     1
102
RTVSPost2010Prop40
 90
        0
102
RTVSPost2010PropOp40
 70
     1
102
RTVSPost2010Prop41ColorIndex
 90
       18
102
RTVSPost2010Prop41ColorRGB
 90
        0
102
RTVSPost2010PropOp41
 70
     1
102
RTVSPost2010Prop42
 90
       50
102
RTVSPost2010PropOp42
 70
     1
102
RTVSPost2010Prop43
 90
        3
102
RTVSPost2010PropOp43
 70
     1
102
RTVSPost2010Prop44ColorIndex
 90
        5
102
RTVSPost2010Prop44ColorRGB
 90
      255
102
RTVSPost2010PropOp44
 70
     1
102
RTVSPost2010Prop45
280
     0
102
RTVSPost2010PropOp45
 70
     1
102
RTVSPost2010Prop46
 90
       50
102
RTVSPost2010PropOp46
 70
     1
102
RTVSPost2010Prop47
 90
       50
102
RTVSPost2010PropOp47
 70
     1
102
RTVSPost2010Prop48
 90
       50
102
RTVSPost2010PropOp48
 70
     1
102
RTVSPost2010Prop49
280
     0
102
RTVSPost2010PropOp49
 70
     1
102
RTVSPost2010Prop50
 90
       50
102
RTVSPost2010PropOp50
 70
     1
102
RTVSPost2010Prop51ColorIndex
 90
      256
102
RTVSPost2010Prop51ColorRGB
 90
-16777216
102
RTVSPost2010PropOp51
 70
     0
102
RTVSPost2010Prop52
140
1.0
102
RTVSPost2010PropOp52
 70
     0
102
RTVSPost2010Prop53
 90
        2
102
RTVSPost2010PropOp53
 70
     1
102
RTVSPost2010Prop54
  1
strokes_ogs.tif
102
RTVSPost2010PropOp54
 70
     1
102
RTVSPost2010Prop55
280
     0
102
RTVSPost2010PropOp55
 70
     1
102
RTVSPost2010Prop56
140
1.0
102
RTVSPost2010PropOp56
 70
     1
102
RTVSPost2010Prop57
140
1.0
102
RTVSPost2010PropOp57
 70
     1
  0
XRECORD
  5
3ACE7
102
{ACAD_REACTORS
330
3ACE6
102
}
330
3ACE6
100
AcDbXrecord
280
     1
102
RTVSPost2010Prop28
280
     0
102
RTVSPost2010PropOp28
 70
     1
102
RTVSPost2010Prop29
280
     1
102
RTVSPost2010PropOp29
 70
     1
102
RTVSPost2010Prop30
280
     1
102
RTVSPost2010PropOp30
 70
     1
102
RTVSPost2010Prop31
280
     0
102
RTVSPost2010PropOp31
 70
     1
102
RTVSPost2010Prop32
280
     0
102
RTVSPost2010PropOp32
 70
     1
102
RTVSPost2010Prop33
280
     0
102
RTVSPost2010PropOp33
 70
     1
102
RTVSPost2010Prop34
280
     0
102
RTVSPost2010PropOp34
 70
     1
102
RTVSPost2010Prop35
280
     0
102
RTVSPost2010PropOp35
 70
     1
102
RTVSPost2010Prop36
280
     0
102
RTVSPost2010PropOp36
 70
     1
102
RTVSPost2010Prop37
 90
       50
102
RTVSPost2010PropOp37
 70
     1
102
RTVSPost2010Prop38
140
0.0
102
RTVSPost2010PropOp38
 70
     1
102
RTVSPost2010Prop39
140
1.0
102
RTVSPost2010PropOp39
 70
     1
102
RTVSPost2010Prop40
 90
        0
102
RTVSPost2010PropOp40
 70
     1
102
RTVSPost2010Prop41ColorIndex
 90
       18
102
RTVSPost2010Prop41ColorRGB
 90
        0
102
RTVSPost2010PropOp41
 70
     1
102
RTVSPost2010Prop42
 90
       50
102
RTVSPost2010PropOp42
 70
     1
102
RTVSPost2010Prop43
 90
        3
102
RTVSPost2010PropOp43
 70
     1
102
RTVSPost2010Prop44ColorIndex
 90
        5
102
RTVSPost2010Prop44ColorRGB
 90
      255
102
RTVSPost2010PropOp44
 70
     1
102
RTVSPost2010Prop45
280
     0
102
RTVSPost2010PropOp45
 70
     1
102
RTVSPost2010Prop46
 90
       50
102
RTVSPost2010PropOp46
 70
     1
102
RTVSPost2010Prop47
 90
       50
102
RTVSPost2010PropOp47
 70
     1
102
RTVSPost2010Prop48
 90
       50
102
RTVSPost2010PropOp48
 70
     1
102
RTVSPost2010Prop49
280
     0
102
RTVSPost2010PropOp49
 70
     1
102
RTVSPost2010Prop50
 90
       50
102
RTVSPost2010PropOp50
 70
     1
102
RTVSPost2010Prop51ColorIndex
 90
      256
102
RTVSPost2010Prop51ColorRGB
 90
-16777216
102
RTVSPost2010PropOp51
 70
     0
102
RTVSPost2010Prop52
140
1.0
102
RTVSPost2010PropOp52
 70
     0
102
RTVSPost2010Prop53
 90
        2
102
RTVSPost2010PropOp53
 70
     1
102
RTVSPost2010Prop54
  1
strokes_ogs.tif
102
RTVSPost2010PropOp54
 70
     1
102
RTVSPost2010Prop55
280
     0
102
RTVSPost2010PropOp55
 70
     1
102
RTVSPost2010Prop56
140
1.0
102
RTVSPost2010PropOp56
 70
     1
102
RTVSPost2010Prop57
140
1.0
102
RTVSPost2010PropOp57
 70
     1
  0
XRECORD
  5
3ACD3
102
{ACAD_REACTORS
330
3ACD2
102
}
330
3ACD2
100
AcDbXrecord
280
     1
102
RTVSPost2010Prop28
280
     0
102
RTVSPost2010PropOp28
 70
     1
102
RTVSPost2010Prop29
280
     1
102
RTVSPost2010PropOp29
 70
     1
102
RTVSPost2010Prop30
280
     1
102
RTVSPost2010PropOp30
 70
     1
102
RTVSPost2010Prop31
280
     0
102
RTVSPost2010PropOp31
 70
     1
102
RTVSPost2010Prop32
280
     0
102
RTVSPost2010PropOp32
 70
     1
102
RTVSPost2010Prop33
280
     0
102
RTVSPost2010PropOp33
 70
     1
102
RTVSPost2010Prop34
280
     0
102
RTVSPost2010PropOp34
 70
     1
102
RTVSPost2010Prop35
280
     0
102
RTVSPost2010PropOp35
 70
     1
102
RTVSPost2010Prop36
280
     0
102
RTVSPost2010PropOp36
 70
     1
102
RTVSPost2010Prop37
 90
       50
102
RTVSPost2010PropOp37
 70
     1
102
RTVSPost2010Prop38
140
0.0
102
RTVSPost2010PropOp38
 70
     1
102
RTVSPost2010Prop39
140
1.0
102
RTVSPost2010PropOp39
 70
     1
102
RTVSPost2010Prop40
 90
        0
102
RTVSPost2010PropOp40
 70
     1
102
RTVSPost2010Prop41ColorIndex
 90
       18
102
RTVSPost2010Prop41ColorRGB
 90
        0
102
RTVSPost2010PropOp41
 70
     1
102
RTVSPost2010Prop42
 90
       50
102
RTVSPost2010PropOp42
 70
     1
102
RTVSPost2010Prop43
 90
        3
102
RTVSPost2010PropOp43
 70
     1
102
RTVSPost2010Prop44ColorIndex
 90
        5
102
RTVSPost2010Prop44ColorRGB
 90
      255
102
RTVSPost2010PropOp44
 70
     1
102
RTVSPost2010Prop45
280
     0
102
RTVSPost2010PropOp45
 70
     1
102
RTVSPost2010Prop46
 90
       50
102
RTVSPost2010PropOp46
 70
     1
102
RTVSPost2010Prop47
 90
       50
102
RTVSPost2010PropOp47
 70
     1
102
RTVSPost2010Prop48
 90
       50
102
RTVSPost2010PropOp48
 70
     1
102
RTVSPost2010Prop49
280
     0
102
RTVSPost2010PropOp49
 70
     1
102
RTVSPost2010Prop50
 90
       50
102
RTVSPost2010PropOp50
 70
     1
102
RTVSPost2010Prop51ColorIndex
 90
      256
102
RTVSPost2010Prop51ColorRGB
 90
-16777216
102
RTVSPost2010PropOp51
 70
     0
102
RTVSPost2010Prop52
140
1.0
102
RTVSPost2010PropOp52
 70
     0
102
RTVSPost2010Prop53
 90
        2
102
RTVSPost2010PropOp53
 70
     1
102
RTVSPost2010Prop54
  1
strokes_ogs.tif
102
RTVSPost2010PropOp54
 70
     1
102
RTVSPost2010Prop55
280
     0
102
RTVSPost2010PropOp55
 70
     1
102
RTVSPost2010Prop56
140
1.0
102
RTVSPost2010PropOp56
 70
     1
102
RTVSPost2010Prop57
140
1.0
102
RTVSPost2010PropOp57
 70
     1
  0
XRECORD
  5
3ACE9
102
{ACAD_REACTORS
330
3ACE8
102
}
330
3ACE8
100
AcDbXrecord
280
     1
102
RTVSPost2010Prop28
280
     0
102
RTVSPost2010PropOp28
 70
     1
102
RTVSPost2010Prop29
280
     1
102
RTVSPost2010PropOp29
 70
     1
102
RTVSPost2010Prop30
280
     1
102
RTVSPost2010PropOp30
 70
     1
102
RTVSPost2010Prop31
280
     0
102
RTVSPost2010PropOp31
 70
     1
102
RTVSPost2010Prop32
280
     0
102
RTVSPost2010PropOp32
 70
     1
102
RTVSPost2010Prop33
280
     0
102
RTVSPost2010PropOp33
 70
     1
102
RTVSPost2010Prop34
280
     0
102
RTVSPost2010PropOp34
 70
     1
102
RTVSPost2010Prop35
280
     0
102
RTVSPost2010PropOp35
 70
     1
102
RTVSPost2010Prop36
280
     0
102
RTVSPost2010PropOp36
 70
     1
102
RTVSPost2010Prop37
 90
       50
102
RTVSPost2010PropOp37
 70
     1
102
RTVSPost2010Prop38
140
0.0
102
RTVSPost2010PropOp38
 70
     1
102
RTVSPost2010Prop39
140
1.0
102
RTVSPost2010PropOp39
 70
     1
102
RTVSPost2010Prop40
 90
        0
102
RTVSPost2010PropOp40
 70
     1
102
RTVSPost2010Prop41ColorIndex
 90
       18
102
RTVSPost2010Prop41ColorRGB
 90
        0
102
RTVSPost2010PropOp41
 70
     1
102
RTVSPost2010Prop42
 90
       50
102
RTVSPost2010PropOp42
 70
     1
102
RTVSPost2010Prop43
 90
        3
102
RTVSPost2010PropOp43
 70
     1
102
RTVSPost2010Prop44ColorIndex
 90
        5
102
RTVSPost2010Prop44ColorRGB
 90
      255
102
RTVSPost2010PropOp44
 70
     1
102
RTVSPost2010Prop45
280
     0
102
RTVSPost2010PropOp45
 70
     1
102
RTVSPost2010Prop46
 90
       50
102
RTVSPost2010PropOp46
 70
     1
102
RTVSPost2010Prop47
 90
       50
102
RTVSPost2010PropOp47
 70
     1
102
RTVSPost2010Prop48
 90
       50
102
RTVSPost2010PropOp48
 70
     1
102
RTVSPost2010Prop49
280
     0
102
RTVSPost2010PropOp49
 70
     1
102
RTVSPost2010Prop50
 90
       50
102
RTVSPost2010PropOp50
 70
     1
102
RTVSPost2010Prop51ColorIndex
 90
      256
102
RTVSPost2010Prop51ColorRGB
 90
-16777216
102
RTVSPost2010PropOp51
 70
     0
102
RTVSPost2010Prop52
140
1.0
102
RTVSPost2010PropOp52
 70
     0
102
RTVSPost2010Prop53
 90
        2
102
RTVSPost2010PropOp53
 70
     1
102
RTVSPost2010Prop54
  1
strokes_ogs.tif
102
RTVSPost2010PropOp54
 70
     1
102
RTVSPost2010Prop55
280
     0
102
RTVSPost2010PropOp55
 70
     1
102
RTVSPost2010Prop56
140
1.0
102
RTVSPost2010PropOp56
 70
     1
102
RTVSPost2010Prop57
140
1.0
102
RTVSPost2010PropOp57
 70
     1
  0
XRECORD
  5
3ACCB
102
{ACAD_REACTORS
330
3ACCA
102
}
330
3ACCA
100
AcDbXrecord
280
     1
102
RTVSPost2010Prop28
280
     0
102
RTVSPost2010PropOp28
 70
     1
102
RTVSPost2010Prop29
280
     1
102
RTVSPost2010PropOp29
 70
     1
102
RTVSPost2010Prop30
280
     1
102
RTVSPost2010PropOp30
 70
     1
102
RTVSPost2010Prop31
280
     0
102
RTVSPost2010PropOp31
 70
     1
102
RTVSPost2010Prop32
280
     0
102
RTVSPost2010PropOp32
 70
     1
102
RTVSPost2010Prop33
280
     0
102
RTVSPost2010PropOp33
 70
     1
102
RTVSPost2010Prop34
280
     0
102
RTVSPost2010PropOp34
 70
     1
102
RTVSPost2010Prop35
280
     0
102
RTVSPost2010PropOp35
 70
     1
102
RTVSPost2010Prop36
280
     0
102
RTVSPost2010PropOp36
 70
     1
102
RTVSPost2010Prop37
 90
       50
102
RTVSPost2010PropOp37
 70
     1
102
RTVSPost2010Prop38
140
0.0
102
RTVSPost2010PropOp38
 70
     1
102
RTVSPost2010Prop39
140
1.0
102
RTVSPost2010PropOp39
 70
     1
102
RTVSPost2010Prop40
 90
        0
102
RTVSPost2010PropOp40
 70
     1
102
RTVSPost2010Prop41ColorIndex
 90
       18
102
RTVSPost2010Prop41ColorRGB
 90
        0
102
RTVSPost2010PropOp41
 70
     1
102
RTVSPost2010Prop42
 90
       50
102
RTVSPost2010PropOp42
 70
     1
102
RTVSPost2010Prop43
 90
        3
102
RTVSPost2010PropOp43
 70
     1
102
RTVSPost2010Prop44ColorIndex
 90
        5
102
RTVSPost2010Prop44ColorRGB
 90
      255
102
RTVSPost2010PropOp44
 70
     1
102
RTVSPost2010Prop45
280
     0
102
RTVSPost2010PropOp45
 70
     1
102
RTVSPost2010Prop46
 90
       50
102
RTVSPost2010PropOp46
 70
     1
102
RTVSPost2010Prop47
 90
       50
102
RTVSPost2010PropOp47
 70
     1
102
RTVSPost2010Prop48
 90
       50
102
RTVSPost2010PropOp48
 70
     1
102
RTVSPost2010Prop49
280
     0
102
RTVSPost2010PropOp49
 70
     1
102
RTVSPost2010Prop50
 90
       50
102
RTVSPost2010PropOp50
 70
     1
102
RTVSPost2010Prop51ColorIndex
 90
      256
102
RTVSPost2010Prop51ColorRGB
 90
-16777216
102
RTVSPost2010PropOp51
 70
     0
102
RTVSPost2010Prop52
140
1.0
102
RTVSPost2010PropOp52
 70
     0
102
RTVSPost2010Prop53
 90
        2
102
RTVSPost2010PropOp53
 70
     1
102
RTVSPost2010Prop54
  1
strokes_ogs.tif
102
RTVSPost2010PropOp54
 70
     1
102
RTVSPost2010Prop55
280
     0
102
RTVSPost2010PropOp55
 70
     1
102
RTVSPost2010Prop56
140
1.0
102
RTVSPost2010PropOp56
 70
     1
102
RTVSPost2010Prop57
140
1.0
102
RTVSPost2010PropOp57
 70
     1
  0
XRECORD
  5
3ACE5
102
{ACAD_REACTORS
330
3ACE4
102
}
330
3ACE4
100
AcDbXrecord
280
     1
102
RTVSPost2010Prop28
280
     0
102
RTVSPost2010PropOp28
 70
     1
102
RTVSPost2010Prop29
280
     1
102
RTVSPost2010PropOp29
 70
     1
102
RTVSPost2010Prop30
280
     1
102
RTVSPost2010PropOp30
 70
     1
102
RTVSPost2010Prop31
280
     0
102
RTVSPost2010PropOp31
 70
     1
102
RTVSPost2010Prop32
280
     0
102
RTVSPost2010PropOp32
 70
     1
102
RTVSPost2010Prop33
280
     0
102
RTVSPost2010PropOp33
 70
     1
102
RTVSPost2010Prop34
280
     0
102
RTVSPost2010PropOp34
 70
     1
102
RTVSPost2010Prop35
280
     0
102
RTVSPost2010PropOp35
 70
     1
102
RTVSPost2010Prop36
280
     0
102
RTVSPost2010PropOp36
 70
     1
102
RTVSPost2010Prop37
 90
       50
102
RTVSPost2010PropOp37
 70
     1
102
RTVSPost2010Prop38
140
0.0
102
RTVSPost2010PropOp38
 70
     1
102
RTVSPost2010Prop39
140
1.0
102
RTVSPost2010PropOp39
 70
     1
102
RTVSPost2010Prop40
 90
        0
102
RTVSPost2010PropOp40
 70
     1
102
RTVSPost2010Prop41ColorIndex
 90
       18
102
RTVSPost2010Prop41ColorRGB
 90
        0
102
RTVSPost2010PropOp41
 70
     1
102
RTVSPost2010Prop42
 90
       50
102
RTVSPost2010PropOp42
 70
     1
102
RTVSPost2010Prop43
 90
        3
102
RTVSPost2010PropOp43
 70
     1
102
RTVSPost2010Prop44ColorIndex
 90
        5
102
RTVSPost2010Prop44ColorRGB
 90
      255
102
RTVSPost2010PropOp44
 70
     1
102
RTVSPost2010Prop45
280
     0
102
RTVSPost2010PropOp45
 70
     1
102
RTVSPost2010Prop46
 90
       50
102
RTVSPost2010PropOp46
 70
     1
102
RTVSPost2010Prop47
 90
       50
102
RTVSPost2010PropOp47
 70
     1
102
RTVSPost2010Prop48
 90
       50
102
RTVSPost2010PropOp48
 70
     1
102
RTVSPost2010Prop49
280
     0
102
RTVSPost2010PropOp49
 70
     1
102
RTVSPost2010Prop50
 90
       50
102
RTVSPost2010PropOp50
 70
     1
102
RTVSPost2010Prop51ColorIndex
 90
      256
102
RTVSPost2010Prop51ColorRGB
 90
-16777216
102
RTVSPost2010PropOp51
 70
     0
102
RTVSPost2010Prop52
140
1.0
102
RTVSPost2010PropOp52
 70
     0
102
RTVSPost2010Prop53
 90
        2
102
RTVSPost2010PropOp53
 70
     1
102
RTVSPost2010Prop54
  1
strokes_ogs.tif
102
RTVSPost2010PropOp54
 70
     1
102
RTVSPost2010Prop55
280
     0
102
RTVSPost2010PropOp55
 70
     1
102
RTVSPost2010Prop56
140
1.0
102
RTVSPost2010PropOp56
 70
     1
102
RTVSPost2010Prop57
140
1.0
102
RTVSPost2010PropOp57
 70
     1
  0
XRECORD
  5
3ACE3
102
{ACAD_REACTORS
330
3ACE2
102
}
330
3ACE2
100
AcDbXrecord
280
     1
102
RTVSPost2010Prop28
280
     0
102
RTVSPost2010PropOp28
 70
     1
102
RTVSPost2010Prop29
280
     1
102
RTVSPost2010PropOp29
 70
     1
102
RTVSPost2010Prop30
280
     1
102
RTVSPost2010PropOp30
 70
     1
102
RTVSPost2010Prop31
280
     0
102
RTVSPost2010PropOp31
 70
     1
102
RTVSPost2010Prop32
280
     0
102
RTVSPost2010PropOp32
 70
     1
102
RTVSPost2010Prop33
280
     0
102
RTVSPost2010PropOp33
 70
     1
102
RTVSPost2010Prop34
280
     0
102
RTVSPost2010PropOp34
 70
     1
102
RTVSPost2010Prop35
280
     0
102
RTVSPost2010PropOp35
 70
     1
102
RTVSPost2010Prop36
280
     0
102
RTVSPost2010PropOp36
 70
     1
102
RTVSPost2010Prop37
 90
       50
102
RTVSPost2010PropOp37
 70
     1
102
RTVSPost2010Prop38
140
0.0
102
RTVSPost2010PropOp38
 70
     1
102
RTVSPost2010Prop39
140
1.0
102
RTVSPost2010PropOp39
 70
     1
102
RTVSPost2010Prop40
 90
        0
102
RTVSPost2010PropOp40
 70
     1
102
RTVSPost2010Prop41ColorIndex
 90
       18
102
RTVSPost2010Prop41ColorRGB
 90
        0
102
RTVSPost2010PropOp41
 70
     1
102
RTVSPost2010Prop42
 90
       50
102
RTVSPost2010PropOp42
 70
     1
102
RTVSPost2010Prop43
 90
        3
102
RTVSPost2010PropOp43
 70
     1
102
RTVSPost2010Prop44ColorIndex
 90
        5
102
RTVSPost2010Prop44ColorRGB
 90
      255
102
RTVSPost2010PropOp44
 70
     1
102
RTVSPost2010Prop45
280
     0
102
RTVSPost2010PropOp45
 70
     1
102
RTVSPost2010Prop46
 90
       50
102
RTVSPost2010PropOp46
 70
     1
102
RTVSPost2010Prop47
 90
       50
102
RTVSPost2010PropOp47
 70
     1
102
RTVSPost2010Prop48
 90
       50
102
RTVSPost2010PropOp48
 70
     1
102
RTVSPost2010Prop49
280
     0
102
RTVSPost2010PropOp49
 70
     1
102
RTVSPost2010Prop50
 90
       50
102
RTVSPost2010PropOp50
 70
     1
102
RTVSPost2010Prop51ColorIndex
 90
      256
102
RTVSPost2010Prop51ColorRGB
 90
-16777216
102
RTVSPost2010PropOp51
 70
     0
102
RTVSPost2010Prop52
140
1.0
102
RTVSPost2010PropOp52
 70
     0
102
RTVSPost2010Prop53
 90
        2
102
RTVSPost2010PropOp53
 70
     1
102
RTVSPost2010Prop54
  1
strokes_ogs.tif
102
RTVSPost2010PropOp54
 70
     1
102
RTVSPost2010Prop55
280
     0
102
RTVSPost2010PropOp55
 70
     1
102
RTVSPost2010Prop56
140
1.0
102
RTVSPost2010PropOp56
 70
     1
102
RTVSPost2010Prop57
140
1.0
102
RTVSPost2010PropOp57
 70
     1
  0
XRECORD
  5
3ACDD
102
{ACAD_REACTORS
330
3ACDC
102
}
330
3ACDC
100
AcDbXrecord
280
     1
102
RTVSPost2010Prop28
280
     0
102
RTVSPost2010PropOp28
 70
     1
102
RTVSPost2010Prop29
280
     1
102
RTVSPost2010PropOp29
 70
     1
102
RTVSPost2010Prop30
280
     1
102
RTVSPost2010PropOp30
 70
     1
102
RTVSPost2010Prop31
280
     0
102
RTVSPost2010PropOp31
 70
     1
102
RTVSPost2010Prop32
280
     0
102
RTVSPost2010PropOp32
 70
     1
102
RTVSPost2010Prop33
280
     0
102
RTVSPost2010PropOp33
 70
     1
102
RTVSPost2010Prop34
280
     0
102
RTVSPost2010PropOp34
 70
     1
102
RTVSPost2010Prop35
280
     0
102
RTVSPost2010PropOp35
 70
     1
102
RTVSPost2010Prop36
280
     0
102
RTVSPost2010PropOp36
 70
     1
102
RTVSPost2010Prop37
 90
       50
102
RTVSPost2010PropOp37
 70
     1
102
RTVSPost2010Prop38
140
0.0
102
RTVSPost2010PropOp38
 70
     1
102
RTVSPost2010Prop39
140
1.0
102
RTVSPost2010PropOp39
 70
     1
102
RTVSPost2010Prop40
 90
        0
102
RTVSPost2010PropOp40
 70
     1
102
RTVSPost2010Prop41ColorIndex
 90
       18
102
RTVSPost2010Prop41ColorRGB
 90
        0
102
RTVSPost2010PropOp41
 70
     1
102
RTVSPost2010Prop42
 90
       50
102
RTVSPost2010PropOp42
 70
     1
102
RTVSPost2010Prop43
 90
        3
102
RTVSPost2010PropOp43
 70
     1
102
RTVSPost2010Prop44ColorIndex
 90
        5
102
RTVSPost2010Prop44ColorRGB
 90
      255
102
RTVSPost2010PropOp44
 70
     1
102
RTVSPost2010Prop45
280
     0
102
RTVSPost2010PropOp45
 70
     1
102
RTVSPost2010Prop46
 90
       50
102
RTVSPost2010PropOp46
 70
     1
102
RTVSPost2010Prop47
 90
       50
102
RTVSPost2010PropOp47
 70
     1
102
RTVSPost2010Prop48
 90
       50
102
RTVSPost2010PropOp48
 70
     1
102
RTVSPost2010Prop49
280
     0
102
RTVSPost2010PropOp49
 70
     1
102
RTVSPost2010Prop50
 90
       50
102
RTVSPost2010PropOp50
 70
     1
102
RTVSPost2010Prop51ColorIndex
 90
      256
102
RTVSPost2010Prop51ColorRGB
 90
-16777216
102
RTVSPost2010PropOp51
 70
     0
102
RTVSPost2010Prop52
140
1.0
102
RTVSPost2010PropOp52
 70
     0
102
RTVSPost2010Prop53
 90
        2
102
RTVSPost2010PropOp53
 70
     1
102
RTVSPost2010Prop54
  1
strokes_ogs.tif
102
RTVSPost2010PropOp54
 70
     1
102
RTVSPost2010Prop55
280
     0
102
RTVSPost2010PropOp55
 70
     1
102
RTVSPost2010Prop56
140
1.0
102
RTVSPost2010PropOp56
 70
     1
102
RTVSPost2010Prop57
140
1.0
102
RTVSPost2010PropOp57
 70
     1
  0
XRECORD
  5
3ACDF
102
{ACAD_REACTORS
330
3ACDE
102
}
330
3ACDE
100
AcDbXrecord
280
     1
102
RTVSPost2010Prop28
280
     0
102
RTVSPost2010PropOp28
 70
     1
102
RTVSPost2010Prop29
280
     1
102
RTVSPost2010PropOp29
 70
     1
102
RTVSPost2010Prop30
280
     1
102
RTVSPost2010PropOp30
 70
     1
102
RTVSPost2010Prop31
280
     0
102
RTVSPost2010PropOp31
 70
     1
102
RTVSPost2010Prop32
280
     0
102
RTVSPost2010PropOp32
 70
     1
102
RTVSPost2010Prop33
280
     0
102
RTVSPost2010PropOp33
 70
     1
102
RTVSPost2010Prop34
280
     0
102
RTVSPost2010PropOp34
 70
     1
102
RTVSPost2010Prop35
280
     0
102
RTVSPost2010PropOp35
 70
     1
102
RTVSPost2010Prop36
280
     0
102
RTVSPost2010PropOp36
 70
     1
102
RTVSPost2010Prop37
 90
       50
102
RTVSPost2010PropOp37
 70
     1
102
RTVSPost2010Prop38
140
0.0
102
RTVSPost2010PropOp38
 70
     1
102
RTVSPost2010Prop39
140
1.0
102
RTVSPost2010PropOp39
 70
     1
102
RTVSPost2010Prop40
 90
        0
102
RTVSPost2010PropOp40
 70
     1
102
RTVSPost2010Prop41ColorIndex
 90
       18
102
RTVSPost2010Prop41ColorRGB
 90
        0
102
RTVSPost2010PropOp41
 70
     1
102
RTVSPost2010Prop42
 90
       50
102
RTVSPost2010PropOp42
 70
     1
102
RTVSPost2010Prop43
 90
        3
102
RTVSPost2010PropOp43
 70
     1
102
RTVSPost2010Prop44ColorIndex
 90
        5
102
RTVSPost2010Prop44ColorRGB
 90
      255
102
RTVSPost2010PropOp44
 70
     1
102
RTVSPost2010Prop45
280
     0
102
RTVSPost2010PropOp45
 70
     1
102
RTVSPost2010Prop46
 90
       50
102
RTVSPost2010PropOp46
 70
     1
102
RTVSPost2010Prop47
 90
       50
102
RTVSPost2010PropOp47
 70
     1
102
RTVSPost2010Prop48
 90
       50
102
RTVSPost2010PropOp48
 70
     1
102
RTVSPost2010Prop49
280
     0
102
RTVSPost2010PropOp49
 70
     1
102
RTVSPost2010Prop50
 90
       50
102
RTVSPost2010PropOp50
 70
     1
102
RTVSPost2010Prop51ColorIndex
 90
      256
102
RTVSPost2010Prop51ColorRGB
 90
-16777216
102
RTVSPost2010PropOp51
 70
     0
102
RTVSPost2010Prop52
140
1.0
102
RTVSPost2010PropOp52
 70
     0
102
RTVSPost2010Prop53
 90
        2
102
RTVSPost2010PropOp53
 70
     1
102
RTVSPost2010Prop54
  1
strokes_ogs.tif
102
RTVSPost2010PropOp54
 70
     1
102
RTVSPost2010Prop55
280
     0
102
RTVSPost2010PropOp55
 70
     1
102
RTVSPost2010Prop56
140
1.0
102
RTVSPost2010PropOp56
 70
     1
102
RTVSPost2010Prop57
140
1.0
102
RTVSPost2010PropOp57
 70
     1
  0
XRECORD
  5
3ACD1
102
{ACAD_REACTORS
330
3ACD0
102
}
330
3ACD0
100
AcDbXrecord
280
     1
102
RTVSPost2010Prop28
280
     0
102
RTVSPost2010PropOp28
 70
     1
102
RTVSPost2010Prop29
280
     1
102
RTVSPost2010PropOp29
 70
     1
102
RTVSPost2010Prop30
280
     1
102
RTVSPost2010PropOp30
 70
     1
102
RTVSPost2010Prop31
280
     0
102
RTVSPost2010PropOp31
 70
     1
102
RTVSPost2010Prop32
280
     0
102
RTVSPost2010PropOp32
 70
     1
102
RTVSPost2010Prop33
280
     0
102
RTVSPost2010PropOp33
 70
     1
102
RTVSPost2010Prop34
280
     0
102
RTVSPost2010PropOp34
 70
     1
102
RTVSPost2010Prop35
280
     0
102
RTVSPost2010PropOp35
 70
     1
102
RTVSPost2010Prop36
280
     0
102
RTVSPost2010PropOp36
 70
     1
102
RTVSPost2010Prop37
 90
       50
102
RTVSPost2010PropOp37
 70
     1
102
RTVSPost2010Prop38
140
0.0
102
RTVSPost2010PropOp38
 70
     1
102
RTVSPost2010Prop39
140
1.0
102
RTVSPost2010PropOp39
 70
     1
102
RTVSPost2010Prop40
 90
        0
102
RTVSPost2010PropOp40
 70
     1
102
RTVSPost2010Prop41ColorIndex
 90
       18
102
RTVSPost2010Prop41ColorRGB
 90
        0
102
RTVSPost2010PropOp41
 70
     1
102
RTVSPost2010Prop42
 90
       50
102
RTVSPost2010PropOp42
 70
     1
102
RTVSPost2010Prop43
 90
        3
102
RTVSPost2010PropOp43
 70
     1
102
RTVSPost2010Prop44ColorIndex
 90
        5
102
RTVSPost2010Prop44ColorRGB
 90
      255
102
RTVSPost2010PropOp44
 70
     1
102
RTVSPost2010Prop45
280
     0
102
RTVSPost2010PropOp45
 70
     1
102
RTVSPost2010Prop46
 90
       50
102
RTVSPost2010PropOp46
 70
     1
102
RTVSPost2010Prop47
 90
       50
102
RTVSPost2010PropOp47
 70
     1
102
RTVSPost2010Prop48
 90
       50
102
RTVSPost2010PropOp48
 70
     1
102
RTVSPost2010Prop49
280
     0
102
RTVSPost2010PropOp49
 70
     1
102
RTVSPost2010Prop50
 90
       50
102
RTVSPost2010PropOp50
 70
     1
102
RTVSPost2010Prop51ColorIndex
 90
      256
102
RTVSPost2010Prop51ColorRGB
 90
-16777216
102
RTVSPost2010PropOp51
 70
     0
102
RTVSPost2010Prop52
140
1.0
102
RTVSPost2010PropOp52
 70
     0
102
RTVSPost2010Prop53
 90
        2
102
RTVSPost2010PropOp53
 70
     1
102
RTVSPost2010Prop54
  1
strokes_ogs.tif
102
RTVSPost2010PropOp54
 70
     1
102
RTVSPost2010Prop55
280
     0
102
RTVSPost2010PropOp55
 70
     1
102
RTVSPost2010Prop56
140
1.0
102
RTVSPost2010PropOp56
 70
     1
102
RTVSPost2010Prop57
140
1.0
102
RTVSPost2010PropOp57
 70
     1
  0
XRECORD
  5
3ACD9
102
{ACAD_REACTORS
330
3ACD8
102
}
330
3ACD8
100
AcDbXrecord
280
     1
102
RTVSPost2010Prop28
280
     0
102
RTVSPost2010PropOp28
 70
     1
102
RTVSPost2010Prop29
280
     1
102
RTVSPost2010PropOp29
 70
     1
102
RTVSPost2010Prop30
280
     1
102
RTVSPost2010PropOp30
 70
     1
102
RTVSPost2010Prop31
280
     0
102
RTVSPost2010PropOp31
 70
     1
102
RTVSPost2010Prop32
280
     0
102
RTVSPost2010PropOp32
 70
     1
102
RTVSPost2010Prop33
280
     0
102
RTVSPost2010PropOp33
 70
     1
102
RTVSPost2010Prop34
280
     0
102
RTVSPost2010PropOp34
 70
     1
102
RTVSPost2010Prop35
280
     0
102
RTVSPost2010PropOp35
 70
     1
102
RTVSPost2010Prop36
280
     0
102
RTVSPost2010PropOp36
 70
     1
102
RTVSPost2010Prop37
 90
       50
102
RTVSPost2010PropOp37
 70
     1
102
RTVSPost2010Prop38
140
0.0
102
RTVSPost2010PropOp38
 70
     1
102
RTVSPost2010Prop39
140
1.0
102
RTVSPost2010PropOp39
 70
     1
102
RTVSPost2010Prop40
 90
        0
102
RTVSPost2010PropOp40
 70
     1
102
RTVSPost2010Prop41ColorIndex
 90
       18
102
RTVSPost2010Prop41ColorRGB
 90
        0
102
RTVSPost2010PropOp41
 70
     1
102
RTVSPost2010Prop42
 90
       50
102
RTVSPost2010PropOp42
 70
     1
102
RTVSPost2010Prop43
 90
        3
102
RTVSPost2010PropOp43
 70
     1
102
RTVSPost2010Prop44ColorIndex
 90
        5
102
RTVSPost2010Prop44ColorRGB
 90
      255
102
RTVSPost2010PropOp44
 70
     1
102
RTVSPost2010Prop45
280
     0
102
RTVSPost2010PropOp45
 70
     1
102
RTVSPost2010Prop46
 90
       50
102
RTVSPost2010PropOp46
 70
     1
102
RTVSPost2010Prop47
 90
       50
102
RTVSPost2010PropOp47
 70
     1
102
RTVSPost2010Prop48
 90
       50
102
RTVSPost2010PropOp48
 70
     1
102
RTVSPost2010Prop49
280
     0
102
RTVSPost2010PropOp49
 70
     1
102
RTVSPost2010Prop50
 90
       50
102
RTVSPost2010PropOp50
 70
     1
102
RTVSPost2010Prop51ColorIndex
 90
      256
102
RTVSPost2010Prop51ColorRGB
 90
-16777216
102
RTVSPost2010PropOp51
 70
     0
102
RTVSPost2010Prop52
140
1.0
102
RTVSPost2010PropOp52
 70
     0
102
RTVSPost2010Prop53
 90
        2
102
RTVSPost2010PropOp53
 70
     1
102
RTVSPost2010Prop54
  1
strokes_ogs.tif
102
RTVSPost2010PropOp54
 70
     1
102
RTVSPost2010Prop55
280
     0
102
RTVSPost2010PropOp55
 70
     1
102
RTVSPost2010Prop56
140
1.0
102
RTVSPost2010PropOp56
 70
     1
102
RTVSPost2010Prop57
140
1.0
102
RTVSPost2010PropOp57
 70
     1
  0
XRECORD
  5
3ACE1
102
{ACAD_REACTORS
330
3ACE0
102
}
330
3ACE0
100
AcDbXrecord
280
     1
102
RTVSPost2010Prop28
280
     0
102
RTVSPost2010PropOp28
 70
     1
102
RTVSPost2010Prop29
280
     1
102
RTVSPost2010PropOp29
 70
     1
102
RTVSPost2010Prop30
280
     1
102
RTVSPost2010PropOp30
 70
     1
102
RTVSPost2010Prop31
280
     0
102
RTVSPost2010PropOp31
 70
     1
102
RTVSPost2010Prop32
280
     0
102
RTVSPost2010PropOp32
 70
     1
102
RTVSPost2010Prop33
280
     0
102
RTVSPost2010PropOp33
 70
     1
102
RTVSPost2010Prop34
280
     0
102
RTVSPost2010PropOp34
 70
     1
102
RTVSPost2010Prop35
280
     0
102
RTVSPost2010PropOp35
 70
     1
102
RTVSPost2010Prop36
280
     0
102
RTVSPost2010PropOp36
 70
     1
102
RTVSPost2010Prop37
 90
       50
102
RTVSPost2010PropOp37
 70
     1
102
RTVSPost2010Prop38
140
0.0
102
RTVSPost2010PropOp38
 70
     1
102
RTVSPost2010Prop39
140
1.0
102
RTVSPost2010PropOp39
 70
     1
102
RTVSPost2010Prop40
 90
        0
102
RTVSPost2010PropOp40
 70
     1
102
RTVSPost2010Prop41ColorIndex
 90
       18
102
RTVSPost2010Prop41ColorRGB
 90
        0
102
RTVSPost2010PropOp41
 70
     1
102
RTVSPost2010Prop42
 90
       50
102
RTVSPost2010PropOp42
 70
     1
102
RTVSPost2010Prop43
 90
        3
102
RTVSPost2010PropOp43
 70
     1
102
RTVSPost2010Prop44ColorIndex
 90
        5
102
RTVSPost2010Prop44ColorRGB
 90
      255
102
RTVSPost2010PropOp44
 70
     1
102
RTVSPost2010Prop45
280
     0
102
RTVSPost2010PropOp45
 70
     1
102
RTVSPost2010Prop46
 90
       50
102
RTVSPost2010PropOp46
 70
     1
102
RTVSPost2010Prop47
 90
       50
102
RTVSPost2010PropOp47
 70
     1
102
RTVSPost2010Prop48
 90
       50
102
RTVSPost2010PropOp48
 70
     1
102
RTVSPost2010Prop49
280
     0
102
RTVSPost2010PropOp49
 70
     1
102
RTVSPost2010Prop50
 90
       50
102
RTVSPost2010PropOp50
 70
     1
102
RTVSPost2010Prop51ColorIndex
 90
      256
102
RTVSPost2010Prop51ColorRGB
 90
-16777216
102
RTVSPost2010PropOp51
 70
     0
102
RTVSPost2010Prop52
140
1.0
102
RTVSPost2010PropOp52
 70
     0
102
RTVSPost2010Prop53
 90
        2
102
RTVSPost2010PropOp53
 70
     1
102
RTVSPost2010Prop54
  1
strokes_ogs.tif
102
RTVSPost2010PropOp54
 70
     1
102
RTVSPost2010Prop55
280
     0
102
RTVSPost2010PropOp55
 70
     1
102
RTVSPost2010Prop56
140
1.0
102
RTVSPost2010PropOp56
 70
     1
102
RTVSPost2010Prop57
140
1.0
102
RTVSPost2010PropOp57
 70
     1
  0
ENDSEC
  0
EOF
