  0
SECTION
  2
HEADER
  9
$ACADVER
  1
AC1024
  9
$ACADMAINTVER
 70
   157
  9
$DWGCODEPAGE
  3
ANSI_1252
  9
$LASTSAVEDBY
  1
PW003
  9
$INSBASE
 10
0.0
 20
0.0
 30
0.0
  9
$EXTMIN
 10
221.7100389891819
 20
-158.9942302770679
 30
0.0
  9
$EXTMAX
 10
1108.03031835251
 20
362.0467032063693
 30
0.4
  9
$LIMMIN
 10
0.0
 20
0.0
  9
$LIMMAX
 10
12.0
 20
9.0
  9
$ORTHOMODE
 70
     1
  9
$REGENMODE
 70
     1
  9
$FILLMODE
 70
     1
  9
$QTEXTMODE
 70
     0
  9
$MIRRTEXT
 70
     0
  9
$LTSCALE
 40
15.0
  9
$ATTMODE
 70
     1
  9
$TEXTSIZE
 40
5.0
  9
$TRACEWID
 40
0.05
  9
$TEXTSTYLE
  7
STANDARD
  9
$CLAYER
  8
0
  9
$CELTYPE
  6
BYLAYER
  9
$CECOLOR
 62
   256
  9
$CELTSCALE
 40
1.0
  9
$DISPSILH
 70
     0
  9
$DIMSCALE
 40
1.0
  9
$DIMASZ
 40
15.0
  9
$DIMEXO
 40
0.0625
  9
$DIMDLI
 40
0.38
  9
$DIMRND
 40
0.0
  9
$DIMDLE
 40
0.0
  9
$DIMEXE
 40
0.18
  9
$DIMTP
 40
0.0
  9
$DIMTM
 40
0.0
  9
$DIMTXT
 40
25.0
  9
$DIMCEN
 40
0.09
  9
$DIMTSZ
 40
0.0
  9
$DIMTOL
 70
     0
  9
$DIMLIM
 70
     0
  9
$DIMTIH
 70
     1
  9
$DIMTOH
 70
     1
  9
$DIMSE1
 70
     0
  9
$DIMSE2
 70
     0
  9
$DIMTAD
 70
     0
  9
$DIMZIN
 70
     0
  9
$DIMBLK
  1

  9
$DIMASO
 70
     1
  9
$DIMSHO
 70
     1
  9
$DIMPOST
  1

  9
$DIMAPOST
  1

  9
$DIMALT
 70
     0
  9
$DIMALTD
 70
     2
  9
$DIMALTF
 40
25.4
  9
$DIMLFAC
 40
1.0
  9
$DIMTOFL
 70
     0
  9
$DIMTVP
 40
0.0
  9
$DIMTIX
 70
     0
  9
$DIMSOXD
 70
     0
  9
$DIMSAH
 70
     0
  9
$DIMBLK1
  1

  9
$DIMBLK2
  1

  9
$DIMSTYLE
  2
STANDARD
  9
$DIMCLRD
 70
     0
  9
$DIMCLRE
 70
     0
  9
$DIMCLRT
 70
     1
  9
$DIMTFAC
 40
1.0
  9
$DIMGAP
 40
0.09
  9
$DIMJUST
 70
     0
  9
$DIMSD1
 70
     0
  9
$DIMSD2
 70
     0
  9
$DIMTOLJ
 70
     1
  9
$DIMTZIN
 70
     0
  9
$DIMALTZ
 70
     0
  9
$DIMALTTZ
 70
     0
  9
$DIMUPT
 70
     0
  9
$DIMDEC
 70
     2
  9
$DIMTDEC
 70
     2
  9
$DIMALTU
 70
     2
  9
$DIMALTTD
 70
     2
  9
$DIMTXSTY
  7
STANDARD
  9
$DIMAUNIT
 70
     0
  9
$DIMADEC
 70
     0
  9
$DIMALTRND
 40
0.0
  9
$DIMAZIN
 70
     0
  9
$DIMDSEP
 70
    46
  9
$DIMATFIT
 70
     3
  9
$DIMFRAC
 70
     0
  9
$DIMLDRBLK
  1

  9
$DIMLUNIT
 70
     2
  9
$DIMLWD
 70
    -2
  9
$DIMLWE
 70
    -2
  9
$DIMTMOVE
 70
     0
  9
$DIMFXL
 40
1.0
  9
$DIMFXLON
 70
     0
  9
$DIMJOGANG
 40
0.7853981633974483
  9
$DIMTFILL
 70
     0
  9
$DIMTFILLCLR
 70
     0
  9
$DIMARCSYM
 70
     0
  9
$DIMLTYPE
  6

  9
$DIMLTEX1
  6

  9
$DIMLTEX2
  6

  9
$DIMTXTDIRECTION
 70
     0
  9
$LUNITS
 70
     2
  9
$LUPREC
 70
     4
  9
$SKETCHINC
 40
0.1
  9
$FILLETRAD
 40
25.0
  9
$AUNITS
 70
     0
  9
$AUPREC
 70
     0
  9
$MENU
  1
acad
  9
$ELEVATION
 40
0.0
  9
$PELEVATION
 40
0.0
  9
$THICKNESS
 40
0.4
  9
$LIMCHECK
 70
     0
  9
$CHAMFERA
 40
0.5
  9
$CHAMFERB
 40
0.5
  9
$CHAMFERC
 40
1.0
  9
$CHAMFERD
 40
0.0
  9
$SKPOLY
 70
     0
  9
$TDCREATE
 40
2451093.087950000
  9
$TDUCREATE
 40
2451093.337950000
  9
$TDUPDATE
 40
2457415.455405984
  9
$TDUUPDATE
 40
2457415.705405983
  9
$TDINDWG
 40
12.6539825579
  9
$TDUSRTIMER
 40
12.6539825579
  9
$USRTIMER
 70
     1
  9
$ANGBASE
 50
0.0
  9
$ANGDIR
 70
     0
  9
$PDMODE
 70
     3
  9
$PDSIZE
 40
0.0
  9
$PLINEWID
 40
0.0
  9
$SPLFRAME
 70
     0
  9
$SPLINETYPE
 70
     6
  9
$SPLINESEGS
 70
     8
  9
$HANDSEED
  5
133BA
  9
$SURFTAB1
 70
     6
  9
$SURFTAB2
 70
     6
  9
$SURFTYPE
 70
     6
  9
$SURFU
 70
     6
  9
$SURFV
 70
     6
  9
$UCSBASE
  2

  9
$UCSNAME
  2

  9
$UCSORG
 10
0.0
 20
0.0
 30
0.0
  9
$UCSXDIR
 10
1.0
 20
0.0
 30
0.0
  9
$UCSYDIR
 10
0.0
 20
1.0
 30
0.0
  9
$UCSORTHOREF
  2

  9
$UCSORTHOVIEW
 70
     0
  9
$UCSORGTOP
 10
0.0
 20
0.0
 30
0.0
  9
$UCSORGBOTTOM
 10
0.0
 20
0.0
 30
0.0
  9
$UCSORGLEFT
 10
0.0
 20
0.0
 30
0.0
  9
$UCSORGRIGHT
 10
0.0
 20
0.0
 30
0.0
  9
$UCSORGFRONT
 10
0.0
 20
0.0
 30
0.0
  9
$UCSORGBACK
 10
0.0
 20
0.0
 30
0.0
  9
$PUCSBASE
  2

  9
$PUCSNAME
  2

  9
$PUCSORG
 10
0.0
 20
0.0
 30
0.0
  9
$PUCSXDIR
 10
1.0
 20
0.0
 30
0.0
  9
$PUCSYDIR
 10
0.0
 20
1.0
 30
0.0
  9
$PUCSORTHOREF
  2

  9
$PUCSORTHOVIEW
 70
     0
  9
$PUCSORGTOP
 10
0.0
 20
0.0
 30
0.0
  9
$PUCSORGBOTTOM
 10
0.0
 20
0.0
 30
0.0
  9
$PUCSORGLEFT
 10
0.0
 20
0.0
 30
0.0
  9
$PUCSORGRIGHT
 10
0.0
 20
0.0
 30
0.0
  9
$PUCSORGFRONT
 10
0.0
 20
0.0
 30
0.0
  9
$PUCSORGBACK
 10
0.0
 20
0.0
 30
0.0
  9
$USERI1
 70
     0
  9
$USERI2
 70
     0
  9
$USERI3
 70
     0
  9
$USERI4
 70
     0
  9
$USERI5
 70
     0
  9
$USERR1
 40
0.0
  9
$USERR2
 40
0.0
  9
$USERR3
 40
0.0
  9
$USERR4
 40
0.0
  9
$USERR5
 40
0.0
  9
$WORLDVIEW
 70
     1
  9
$SHADEDGE
 70
     3
  9
$SHADEDIF
 70
    70
  9
$TILEMODE
 70
     1
  9
$MAXACTVP
 70
    48
  9
$PINSBASE
 10
0.0
 20
0.0
 30
0.0
  9
$PLIMCHECK
 70
     0
  9
$PEXTMIN
 10
0.0
 20
0.0
 30
0.0
  9
$PEXTMAX
 10
826.0
 20
559.4330351521971
 30
0.4
  9
$PLIMMIN
 10
-12.12422350345461
 20
-20.90094379218863
  9
$PLIMMAX
 10
838.1623440253711
 20
580.2995424185334
  9
$UNITMODE
 70
     0
  9
$VISRETAIN
 70
     1
  9
$PLINEGEN
 70
     0
  9
$PSLTSCALE
 70
     1
  9
$TREEDEPTH
 70
  3020
  9
$CMLSTYLE
  2
STANDARD
  9
$CMLJUST
 70
     0
  9
$CMLSCALE
 40
1.0
  9
$PROXYGRAPHICS
 70
     1
  9
$MEASUREMENT
 70
     0
  9
$CELWEIGHT
370
    -1
  9
$ENDCAPS
280
     0
  9
$JOINSTYLE
280
     0
  9
$LWDISPLAY
290
     0
  9
$INSUNITS
 70
     0
  9
$HYPERLINKBASE
  1

  9
$STYLESHEET
  1
Carron Phoenix.ctb
  9
$XEDIT
290
     1
  9
$CEPSNTYPE
380
     0
  9
$PSTYLEMODE
290
     1
  9
$FINGERPRINTGUID
  2
{5823CA6D-C734-11D3-94EF-0060B0FBE80E}
  9
$VERSIONGUID
  2
{E6D02E64-B257-4910-95B9-7535E9A0DA69}
  9
$EXTNAMES
290
     1
  9
$PSVPSCALE
 40
0.0
  9
$OLESTARTUP
290
     0
  9
$SORTENTS
280
   127
  9
$INDEXCTL
280
     0
  9
$HIDETEXT
280
     0
  9
$XCLIPFRAME
280
     0
  9
$HALOGAP
280
     0
  9
$OBSCOLOR
 70
   257
  9
$OBSLTYPE
280
     0
  9
$INTERSECTIONDISPLAY
280
     0
  9
$INTERSECTIONCOLOR
 70
   257
  9
$DIMASSOC
280
     1
  9
$PROJECTNAME
  1

  9
$CAMERADISPLAY
290
     0
  9
$LENSLENGTH
 40
50.0
  9
$CAMERAHEIGHT
 40
0.0
  9
$STEPSPERSEC
 40
2.0
  9
$STEPSIZE
 40
6.0
  9
$3DDWFPREC
 40
2.0
  9
$PSOLWIDTH
 40
0.25
  9
$PSOLHEIGHT
 40
4.0
  9
$LOFTANG1
 40
1.570796326794896
  9
$LOFTANG2
 40
1.570796326794896
  9
$LOFTMAG1
 40
0.0
  9
$LOFTMAG2
 40
0.0
  9
$LOFTPARAM
 70
     7
  9
$LOFTNORMALS
280
     1
  9
$LATITUDE
 40
37.795
  9
$LONGITUDE
 40
-122.394
  9
$NORTHDIRECTION
 40
0.0
  9
$TIMEZONE
 70
 -8000
  9
$LIGHTGLYPHDISPLAY
280
     1
  9
$TILEMODELIGHTSYNCH
280
     1
  9
$CMATERIAL
347
1030E
  9
$SOLIDHIST
280
     0
  9
$SHOWHIST
280
     1
  9
$DWFFRAME
280
     2
  9
$DGNFRAME
280
     0
  9
$REALWORLDSCALE
290
     1
  9
$INTERFERECOLOR
 62
     1
  9
$INTERFEREOBJVS
345
10330
  9
$INTERFEREVPVS
346
11604
  9
$CSHADOW
280
     0
  9
$SHADOWPLANELOCATION
 40
0.0
  0
ENDSEC
  0
SECTION
  2
CLASSES
  0
CLASS
  1
DICTIONARYVAR
  2
AcDbDictionaryVar
  3
ObjectDBX Classes
 90
        0
 91
       11
280
     0
281
     0
  0
CLASS
  1
ACDBDICTIONARYWDFLT
  2
AcDbDictionaryWithDefault
  3
ObjectDBX Classes
 90
        0
 91
        1
280
     0
281
     0
  0
CLASS
  1
TABLESTYLE
  2
AcDbTableStyle
  3
ObjectDBX Classes
 90
     4095
 91
        1
280
     0
281
     0
  0
CLASS
  1
SORTENTSTABLE
  2
AcDbSortentsTable
  3
ObjectDBX Classes
 90
        0
 91
        3
280
     0
281
     0
  0
CLASS
  1
MATERIAL
  2
AcDbMaterial
  3
ObjectDBX Classes
 90
     1153
 91
        3
280
     0
281
     0
  0
CLASS
  1
VISUALSTYLE
  2
AcDbVisualStyle
  3
ObjectDBX Classes
 90
     4095
 91
       26
280
     0
281
     0
  0
CLASS
  1
SCALE
  2
AcDbScale
  3
ObjectDBX Classes
 90
     1153
 91
       33
280
     0
281
     0
  0
CLASS
  1
MLEADERSTYLE
  2
AcDbMLeaderStyle
  3
ACDB_MLEADERSTYLE_CLASS
 90
     4095
 91
        1
280
     0
281
     0
  0
CLASS
  1
CELLSTYLEMAP
  2
AcDbCellStyleMap
  3
ObjectDBX Classes
 90
     1152
 91
        1
280
     0
281
     0
  0
CLASS
  1
ACDBSECTIONVIEWSTYLE
  2
AcDbSectionViewStyle
  3
ObjectDBX Classes
 90
     1025
 91
        4
280
     0
281
     0
  0
CLASS
  1
ACDBDETAILVIEWSTYLE
  2
AcDbDetailViewStyle
  3
ObjectDBX Classes
 90
     1025
 91
        4
280
     0
281
     0
  0
CLASS
  1
ACME_DOCUMENT
  2
AcMeDbDoc
  3
AcMeServices
 90
     1024
 91
        2
280
     0
281
     0
  0
CLASS
  1
ACMESCOPE
  2
AcMeScope
  3
AcMeServices
 90
     1024
 91
        1
280
     0
281
     0
  0
CLASS
  1
ACMECOMMANDHISTORY
  2
AcMeCommandHistory
  3
AcMeServices
 90
     1024
 91
        1
280
     0
281
     0
  0
CLASS
  1
ACIMSYSVARMAN
  2
AcImSysVarManager
  3
AcMeServices
 90
     1024
 91
        3
280
     0
281
     0
  0
CLASS
  1
ACIMINTSYSVAR
  2
AcImIntSysVar
  3
AcMeServices
 90
     1024
 91
        3
280
     0
281
     0
  0
CLASS
  1
ACMESTATEMGR
  2
AcMeStateMgr
  3
AcMeServices
 90
     1024
 91
        1
280
     0
281
     0
  0
CLASS
  1
ACDBENTITYCACHE
  2
AcMeEntityCache
  3
AcMeServices
 90
     1024
 91
        1
280
     0
281
     0
  0
CLASS
  1
ACGREFMASTER
  2
AcGrefMaster
  3
AcAttribServices
 90
     1024
 91
        1
280
     0
281
     0
  0
CLASS
  1
ACME_DATABASE
  2
AcMeDbDatabase
  3
AcMeServices
 90
     1024
 91
        2
280
     0
281
     0
  0
CLASS
  1
ACRFINSADJUSTERMGR
  2
AcRfInsAdjusterMgr
  3
AcMeServices
 90
     1024
 91
        1
280
     0
281
     0
  0
CLASS
  1
ACGREFACADMASTER
  2
AcGrefacadMaster
  3
AcGrefServices
 90
     1024
 91
        1
280
     0
281
     0
  0
CLASS
  1
AMDTMENUSTATEMGR
  2
AmdtMenuStateMgr
  3
McadcomServices
 90
     1024
 91
        1
280
     0
281
     0
  0
CLASS
  1
AMDTMCOMMENUSTATE
  2
AmdtMcomMenuState
  3
McadcomServices
 90
     1024
 91
        1
280
     0
281
     0
  0
CLASS
  1
AMIMASTER
  2
AmiMaster
  3
AmiServices
 90
     1024
 91
        1
280
     0
281
     0
  0
CLASS
  1
AMGSETTINGSOBJ
  2
AmgSettingsObj
  3
"AcadM|Product Description: AutoCAD Mechanical|Company: Autodesk, Inc."
 90
     1024
 91
        2
280
     0
281
     0
  0
CLASS
  1
MAPIAMMOUDLE
  2
MApiAmModule
  3
MApiAmServices
 90
     1024
 91
        1
280
     0
281
     0
  0
CLASS
  1
ACIMSTRSYSVAR
  2
AcImStrSysVar
  3
AcMeServices
 90
     1024
 91
        5
280
     0
281
     0
  0
CLASS
  1
AMDTAMMENUSTATE
  2
AmdtAmMenuState
  3
DesignerAssemblies
 90
     1024
 91
        1
280
     0
281
     0
  0
CLASS
  1
ACAMPROJECT
  2
AcAmProject
  3
DesignerAssemblies
 90
     1024
 91
        1
280
     0
281
     0
  0
CLASS
  1
ACAMGRCOMPDEF
  2
AcAmGrCompDef
  3
DesignerAssemblies
 90
     1024
 91
        1
280
     0
281
     0
  0
CLASS
  1
ACAMCOMPDEF
  2
AcAmCompDef
  3
DesignerAssemblies
 90
     1024
 91
        1
280
     0
281
     0
  0
CLASS
  1
ACAMCOMPDEFMGR
  2
AcAmCompDefMgr
  3
DesignerAssemblies
 90
     1024
 91
        1
280
     0
281
     0
  0
CLASS
  1
AMCONTEXTMGR
  2
AcAmContextMgr
  3
DesignerAssemblies
 90
     1024
 91
        1
280
     0
281
     0
  0
CLASS
  1
ACAMCONTEXTMODELER
  2
AcAmContextModeler
  3
DesignerAssemblies
 90
     1024
 91
        1
280
     0
281
     0
  0
CLASS
  1
ACMDATADICTIONARY
  2
AcmDataDictionary
  3
"AcmSymBB|Product Description: AutoCAD Mechanical|Company: Autodesk, Inc."
 90
     1024
 91
        1
280
     0
281
     0
  0
CLASS
  1
ACAMGRCOMPDEFSET
  2
AcAmGrCompDefSet
  3
DesignerAssemblies
 90
     1024
 91
        1
280
     0
281
     0
  0
CLASS
  1
AMDTBROWSERDBTAB
  2
AmdtBrowserDbTab
  3
McadcomServices
 90
     1024
 91
        1
280
     0
281
     0
  0
CLASS
  1
CBROWSERAPPOBJECT
  2
CBrowserAppObject
  3
McadcomServices
 90
     1024
 91
        2
280
     0
281
     0
  0
CLASS
  1
DM_PLACEHOLDER
  2
AcDmSelsetPlaceholder
  3
McadcomServices
 90
     1024
 91
        1
280
     0
281
     0
  0
CLASS
  1
ACMSTANDARDANSI
  2
AcmStandardANSI
  3
"Amdt_StdImp|Product Description: AutoCAD Mechanical|Company: Autodesk, Inc."
 90
     1024
 91
        1
280
     0
281
     0
  0
CLASS
  1
ACMSURFSTANDARDANSI
  2
AcmSurfTextStdANSI
  3
"Amdt_StdImp|Product Description: AutoCAD Mechanical|Company: Autodesk, Inc."
 90
     1024
 91
        1
280
     0
281
     0
  0
CLASS
  1
ACMFCFSTANDARDANSI
  2
AcmFCFStdANSI
  3
"Amdt_StdImp|Product Description: AutoCAD Mechanical|Company: Autodesk, Inc."
 90
     1024
 91
        1
280
     0
281
     0
  0
CLASS
  1
ACMWELDSTANDARDANSI
  2
AcmWeldingStdANSI
  3
"Amdt_StdImp|Product Description: AutoCAD Mechanical|Company: Autodesk, Inc."
 90
     1024
 91
        1
280
     0
281
     0
  0
CLASS
  1
ACMIDSTANDARDANSI
  2
AcmIdStdANSI
  3
"Amdt_StdImp|Product Description: AutoCAD Mechanical|Company: Autodesk, Inc."
 90
     1024
 91
        1
280
     0
281
     0
  0
CLASS
  1
ACMDATUMSTANDARDANSI
  2
AcmDatumStdANSI
  3
"Amdt_StdImp|Product Description: AutoCAD Mechanical|Company: Autodesk, Inc."
 90
     1024
 91
        1
280
     0
281
     0
  0
CLASS
  1
ACMBOMSTANDARDANSI
  2
AcmBOMStdANSI
  3
"Amdt_StdImp|Product Description: AutoCAD Mechanical|Company: Autodesk, Inc."
 90
     1024
 91
        1
280
     0
281
     0
  0
CLASS
  1
ACMDETAILSTANDARDANSI
  2
AmdtDetailSymStdANSI
  3
"Amdt_StdImp|Product Description: AutoCAD Mechanical|Company: Autodesk, Inc."
 90
     1024
 91
        1
280
     0
281
     0
  0
CLASS
  1
ACMSECTIONSTANDARDANSI
  2
AmdtSectionSymStdANSI
  3
"Amdt_StdImp|Product Description: AutoCAD Mechanical|Company: Autodesk, Inc."
 90
     1024
 91
        1
280
     0
281
     0
  0
CLASS
  1
ACMCENTERLINESTANDARDANSI
  2
AmdtCenterLineStdANSI
  3
"Amdt_StdImp|Product Description: AutoCAD Mechanical|Company: Autodesk, Inc."
 90
     1024
 91
        1
280
     0
281
     0
  0
CLASS
  1
ACMTHREADLINESTANDARDANSI
  2
AmdtThreadLineStdANSI
  3
"Amdt_StdImp|Product Description: AutoCAD Mechanical|Company: Autodesk, Inc."
 90
     1024
 91
        1
280
     0
281
     0
  0
CLASS
  1
ACMNOTESTANDARDANSI
  2
AmdtNoteStdANSI
  3
"Amdt_StdImp|Product Description: AutoCAD Mechanical|Company: Autodesk, Inc."
 90
     1024
 91
        1
280
     0
281
     0
  0
CLASS
  1
ACMTAPERSTANDARDANSI
  2
AcmTaperStdANSI
  3
"Amdt_StdImp|Product Description: AutoCAD Mechanical|Company: Autodesk, Inc."
 90
     1024
 91
        1
280
     0
281
     0
  0
CLASS
  1
ACMANOOTATIONVIEWSTANDARDANSI
  2
AmdtAnViewStdANSI
  3
"Amdt_StdImp|Product Description: AutoCAD Mechanical|Company: Autodesk, Inc."
 90
     1024
 91
        1
280
     0
281
     0
  0
CLASS
  1
ACAMGLAYSTD
  2
AcAmgLayStd
  3
"AmgLay|Product Description: AutoCAD Mechanical|Company: Autodesk, Inc."
 90
     1024
 91
        2
280
     0
281
     0
  0
CLASS
  1
ACAMGDIMSTD
  2
AcAmgDimStd
  3
"AmgDim|Product Description: AutoCAD Mechanical|Company: Autodesk, Inc."
 90
     1024
 91
        2
280
     0
281
     0
  0
CLASS
  1
AMGOBJPROPCFG
  2
AmgObjPropCfg
  3
"AmgLay|Product Description: AutoCAD Mechanical|Company: Autodesk, Inc."
 90
     1024
 91
        1
280
     0
281
     0
  0
CLASS
  1
ACAMGHOLECHARTSTDANSI
  2
AcAmgHoleChartStdANSI
  3
AmgDim|Product Description: AutoCAD Mechanical|Company: Autodesk, Inc.
 90
     1024
 91
        1
280
     0
281
     0
  0
CLASS
  1
ACAMGTITLESTD
  2
AcAmgTitleStd
  3
"AmgTitle|Product Description: AutoCAD Mechanical|Company: Autodesk, Inc."
 90
     1024
 91
        2
280
     0
281
     0
  0
CLASS
  1
ACMSECTIONSTANDARDCUSTOM
  2
AmdtSectionSymStdCustom
  3
"Amdt_StdImp|Product Description: AutoCAD Mechanical|Company: Autodesk, Inc."
 90
     1024
 91
        4
280
     0
281
     0
  0
CLASS
  1
ACMDETAILTANDARDCUSTOM
  2
AmdtDetailSymStdCustom
  3
"Amdt_StdImp|Product Description: AutoCAD Mechanical|Company: Autodesk, Inc."
 90
     1024
 91
        4
280
     0
281
     0
  0
CLASS
  1
FIELD
  2
AcDbField
  3
ObjectDBX Classes
 90
     1152
 91
        7
280
     0
281
     0
  0
CLASS
  1
FIELDLIST
  2
AcDbFieldList
  3
ObjectDBX Classes
 90
     1152
 91
        1
280
     0
281
     0
  0
CLASS
  1
AMDTNOTETEMPLATEDB
  2
AmdtNoteTemplateDB
  3
AcmSymBB|Product Description: AutoCAD Mechanical|Company: Autodesk, Inc.
 90
     1024
 91
       14
280
     0
281
     0
  0
CLASS
  1
EXACXREFPANELOBJECT
  2
ExAcXREFPanelObject
  3
EXAC_ESW
 90
     1025
 91
        2
280
     0
281
     0
  0
CLASS
  1
NPOCOLLECTION
  2
AcDbImpNonPersistentObjectsCollection
  3
ObjectDBX Classes
 90
     1153
 91
        1
280
     0
281
     0
  0
CLASS
  1
ACAMGFILTERDAT
  2
AcAmgFilterDat
  3
"AcadM|Product Description: AutoCAD Mechanical|Company: Autodesk, Inc."
 90
     1024
 91
        6
280
     0
281
     0
  0
CLASS
  1
CAMSSTRUCTBTNSTATE
  2
StructBtnState
  3
DesignerAssemblies
 90
     1024
 91
        1
280
     0
281
     0
  0
CLASS
  1
ACMSTANDARDISO
  2
AcmStandardISO
  3
"Amdt_StdImp|Product Description: AutoCAD Mechanical|Company: Autodesk, Inc."
 90
     1024
 91
        1
280
     0
281
     0
  0
CLASS
  1
AMDTEDGESTANDARDISO13715
  2
AmdtEdgeStdISO13715
  3
"Amdt_StdImp|Product Description: AutoCAD Mechanical|Company: Autodesk, Inc."
 90
     1024
 91
        1
280
     0
281
     0
  0
CLASS
  1
ACMSURFSTANDARDISO2002
  2
AcmSurfTextStdISO2002
  3
"Amdt_StdImp|Product Description: AutoCAD Mechanical|Company: Autodesk, Inc."
 90
     1024
 91
        1
280
     0
281
     0
  0
CLASS
  1
ACMFCFSTANDARDISO2004
  2
AcmFCFStdISO2004
  3
"Amdt_StdImp|Product Description: AutoCAD Mechanical|Company: Autodesk, Inc."
 90
     1024
 91
        1
280
     0
281
     0
  0
CLASS
  1
ACMWELDSTANDARDISO
  2
AcmWeldingStdISO
  3
"Amdt_StdImp|Product Description: AutoCAD Mechanical|Company: Autodesk, Inc."
 90
     1024
 91
        1
280
     0
281
     0
  0
CLASS
  1
ACMIDSTANDARDISO2004
  2
AcmIdStdISO2004
  3
"Amdt_StdImp|Product Description: AutoCAD Mechanical|Company: Autodesk, Inc."
 90
     1024
 91
        1
280
     0
281
     0
  0
CLASS
  1
ACMDATUMSTANDARDISO
  2
AcmDatumStdISO
  3
"Amdt_StdImp|Product Description: AutoCAD Mechanical|Company: Autodesk, Inc."
 90
     1024
 91
        1
280
     0
281
     0
  0
CLASS
  1
ACMBOMSTANDARDISO
  2
AcmBOMStdISO
  3
"Amdt_StdImp|Product Description: AutoCAD Mechanical|Company: Autodesk, Inc."
 90
     1024
 91
        1
280
     0
281
     0
  0
CLASS
  1
ACMDETAILSTANDARDISO
  2
AmdtDetailSymStdISO
  3
"Amdt_StdImp|Product Description: AutoCAD Mechanical|Company: Autodesk, Inc."
 90
     1024
 91
        1
280
     0
281
     0
  0
CLASS
  1
ACMSECTIONSTANDARDISO2001
  2
AmdtSectionSymStdISO2001
  3
"Amdt_StdImp|Product Description: AutoCAD Mechanical|Company: Autodesk, Inc."
 90
     1024
 91
        1
280
     0
281
     0
  0
CLASS
  1
ACMCENTERLINESTANDARDISO
  2
AmdtCenterLineStdISO
  3
"Amdt_StdImp|Product Description: AutoCAD Mechanical|Company: Autodesk, Inc."
 90
     1024
 91
        1
280
     0
281
     0
  0
CLASS
  1
ACMTHREADLINESTANDARDISO
  2
AmdtThreadLineStdISO
  3
"Amdt_StdImp|Product Description: AutoCAD Mechanical|Company: Autodesk, Inc."
 90
     1024
 91
        1
280
     0
281
     0
  0
CLASS
  1
ACMNOTESTANDARDISO
  2
AmdtNoteStdISO
  3
"Amdt_StdImp|Product Description: AutoCAD Mechanical|Company: Autodesk, Inc."
 90
     1024
 91
        1
280
     0
281
     0
  0
CLASS
  1
ACMTAPERSTANDARDISO
  2
AcmTaperStdISO
  3
"Amdt_StdImp|Product Description: AutoCAD Mechanical|Company: Autodesk, Inc."
 90
     1024
 91
        1
280
     0
281
     0
  0
CLASS
  1
ACMANOOTATIONVIEWSTANDARDISO
  2
AmdtAnViewStdISO
  3
"Amdt_StdImp|Product Description: AutoCAD Mechanical|Company: Autodesk, Inc."
 90
     1024
 91
        1
280
     0
281
     0
  0
CLASS
  1
ACAMGHOLECHARTSTDISO
  2
AcAmgHoleChartStdISO
  3
AmgDim|Product Description: AutoCAD Mechanical|Company: Autodesk, Inc.
 90
     1024
 91
        1
280
     0
281
     0
  0
ENDSEC
  0
SECTION
  2
TABLES
  0
TABLE
  2
VPORT
  5
8
102
{ACAD_XDICTIONARY
360
11183
102
}
330
0
100
AcDbSymbolTable
 70
     1
  0
VPORT
  5
102FD
330
8
100
AcDbSymbolTableRecord
100
AcDbViewportTableRecord
  2
*Active
 70
     0
 10
0.0
 20
0.0
 11
1.0
 21
1.0
 12
688.3520867515578
 22
93.88594682125164
 13
0.0
 23
0.0
 14
0.5
 24
0.5
 15
0.5
 25
0.5
 16
0.0
 26
0.0
 36
1.0
 17
0.0
 27
0.0
 37
0.0
 40
709.1087224856908
 41
1.746906636670416
 42
50.0
 43
0.0
 44
0.0
 50
0.0
 51
0.0
 71
     0
 72
   100
 73
     1
 74
     1
 75
     0
 76
     0
 77
     0
 78
     0
281
     0
 65
     0
110
0.0
120
0.0
130
0.0
111
1.0
121
0.0
131
0.0
112
0.0
122
1.0
132
0.0
 79
     0
146
0.0
348
1032C
 60
     3
 61
     5
292
     1
282
     1
141
0.0
142
0.0
 63
   250
421
  3355443
1001
ACAD_NAV_VCDISPLAY
1070
     3
  0
ENDTAB
  0
TABLE
  2
LTYPE
  5
5
330
0
100
AcDbSymbolTable
 70
    13
  0
LTYPE
  5
12
330
5
100
AcDbSymbolTableRecord
100
AcDbLinetypeTableRecord
  2
BYBLOCK
 70
     0
  3

 72
    65
 73
     0
 40
0.0
  0
LTYPE
  5
13
330
5
100
AcDbSymbolTableRecord
100
AcDbLinetypeTableRecord
  2
BYLAYER
 70
     0
  3

 72
    65
 73
     0
 40
0.0
  0
LTYPE
  5
14
330
5
100
AcDbSymbolTableRecord
100
AcDbLinetypeTableRecord
  2
CONTINUOUS
 70
     0
  3
Solid line
 72
    65
 73
     0
 40
0.0
  0
LTYPE
  5
32
330
5
100
AcDbSymbolTableRecord
100
AcDbLinetypeTableRecord
  2
CENTER2
 70
     0
  3
Center (.5x) ___ _ ___ _ ___ _ ___ _ ___ _ ___
 72
    65
 73
     4
 40
1.125
 49
0.75
 74
     0
 49
-0.125
 74
     0
 49
0.125
 74
     0
 49
-0.125
 74
     0
  0
LTYPE
  5
33
330
5
100
AcDbSymbolTableRecord
100
AcDbLinetypeTableRecord
  2
DASHED2
 70
     0
  3
Dashed (.5x) _ _ _ _ _ _ _ _ _ _ _ _ _ _ _ _ _
 72
    65
 73
     2
 40
0.375
 49
0.25
 74
     0
 49
-0.125
 74
     0
  0
LTYPE
  5
114
330
5
100
AcDbSymbolTableRecord
100
AcDbLinetypeTableRecord
  2
CENTER
 70
     0
  3
____ _ ____ _ ____ _ ____ _ ____ _ ____ _ ____
 72
    65
 73
     4
 40
2.0
 49
1.25
 74
     0
 49
-0.25
 74
     0
 49
0.25
 74
     0
 49
-0.25
 74
     0
  0
LTYPE
  5
11DDE
330
5
100
AcDbSymbolTableRecord
100
AcDbLinetypeTableRecord
  2
HIDDEN
 70
     0
  3
Hidden __ __ __ __ __ __ __ __ __ __ __ __ __ _
 72
    65
 73
     2
 40
0.375
 49
0.25
 74
     0
 49
-0.125
 74
     0
  0
LTYPE
  5
11DDF
330
5
100
AcDbSymbolTableRecord
100
AcDbLinetypeTableRecord
  2
PHANTOM2
 70
     0
  3
Phantom (.5x) ___ _ _ ___ _ _ ___ _ _ ___ _ _
 72
    65
 73
     6
 40
1.25
 49
0.625
 74
     0
 49
-0.125
 74
     0
 49
0.125
 74
     0
 49
-0.125
 74
     0
 49
0.125
 74
     0
 49
-0.125
 74
     0
  0
LTYPE
  5
11E1C
330
5
100
AcDbSymbolTableRecord
100
AcDbLinetypeTableRecord
  2
HIDDEN2
 70
     0
  3
Hidden (.5x) _ _ _ _ _ _ _ _ _ _ _ _ _ _ _ _ _
 72
    65
 73
     2
 40
0.1875
 49
0.125
 74
     0
 49
-0.0625
 74
     0
  0
LTYPE
  5
11E2C
330
5
100
AcDbSymbolTableRecord
100
AcDbLinetypeTableRecord
  2
ACANSTGB
 70
     0
  3
__ . . __ . .
 72
    65
 73
     6
 40
0.35433070866
 49
0.15748031496
 74
     0
 49
-0.03937007874
 74
     0
 49
0.03937007874
 74
     0
 49
-0.03937007874
 74
     0
 49
0.03937007874
 74
     0
 49
-0.03937007874
 74
     0
  0
LTYPE
  5
11E2D
330
5
100
AcDbSymbolTableRecord
100
AcDbLinetypeTableRecord
  2
ACANSTGL
 70
     0
  3
_ _ _ _ _
 72
    65
 73
     2
 40
0.11811023622
 49
0.07874015748
 74
     0
 49
-0.03937007874
 74
     0
  0
LTYPE
  5
13339
330
5
100
AcDbSymbolTableRecord
100
AcDbLinetypeTableRecord
  2
ACISOWELD
 70
     0
  3
_ _ _ _ _
 72
    65
 73
     2
 40
2.0
 49
2.0
 74
     0
 49
-1.0
 74
     0
  0
LTYPE
  5
1333A
330
5
100
AcDbSymbolTableRecord
100
AcDbLinetypeTableRecord
  2
ACISOTGL
 70
     0
  3
_ _ _ _ _
 72
    65
 73
     2
 40
3.0
 49
2.0
 74
     0
 49
-1.0
 74
     0
  0
LTYPE
  5
1333B
330
5
100
AcDbSymbolTableRecord
100
AcDbLinetypeTableRecord
  2
ACISOTGB
 70
     0
  3
__ . . __ . .
 72
    65
 73
     6
 40
9.0
 49
4.0
 74
     0
 49
-1.0
 74
     0
 49
1.0
 74
     0
 49
-1.0
 74
     0
 49
1.0
 74
     0
 49
-1.0
 74
     0
  0
ENDTAB
  0
TABLE
  2
LAYER
  5
2
102
{ACAD_XDICTIONARY
360
D9A6
102
}
330
0
100
AcDbSymbolTable
 70
    10
  0
LAYER
  5
E
102
{ACAD_XDICTIONARY
360
10372
102
}
330
2
100
AcDbSymbolTableRecord
100
AcDbLayerTableRecord
  2
0
 70
     0
 62
     7
  6
CONTINUOUS
370
    -3
390
5C1E
347
1031E
  0
LAYER
  5
34
102
{ACAD_XDICTIONARY
360
10374
102
}
330
2
100
AcDbSymbolTableRecord
100
AcDbLayerTableRecord
  2
SHEET
 70
     0
 62
     7
  6
CONTINUOUS
370
    -3
390
5C1E
347
1031E
  0
LAYER
  5
36
102
{ACAD_XDICTIONARY
360
10376
102
}
330
2
100
AcDbSymbolTableRecord
100
AcDbLayerTableRecord
  2
CL
 70
     0
 62
     2
  6
CENTER2
370
    -3
390
5C1E
347
1031E
  0
LAYER
  5
38
102
{ACAD_XDICTIONARY
360
10378
102
}
330
2
100
AcDbSymbolTableRecord
100
AcDbLayerTableRecord
  2
VP
 70
     1
 62
     4
  6
CONTINUOUS
370
    -3
390
5C1E
347
1031E
  0
LAYER
  5
39
102
{ACAD_XDICTIONARY
360
1037A
102
}
330
2
100
AcDbSymbolTableRecord
100
AcDbLayerTableRecord
  2
SINK
 70
     0
 62
     4
  6
CONTINUOUS
370
    -3
390
5C1E
347
1031E
  0
LAYER
  5
E8
330
2
100
AcDbSymbolTableRecord
100
AcDbLayerTableRecord
  2
DEFPOINTS
 70
     0
 62
     7
  6
CONTINUOUS
290
     0
370
    -3
390
5C1E
347
1031E
  0
LAYER
  5
1D50
102
{ACAD_XDICTIONARY
360
1037C
102
}
330
2
100
AcDbSymbolTableRecord
100
AcDbLayerTableRecord
  2
HATCH
 70
     0
 62
     3
  6
CONTINUOUS
370
    -3
390
5C1E
347
1031E
  0
LAYER
  5
43B1
102
{ACAD_XDICTIONARY
360
1037E
102
}
330
2
100
AcDbSymbolTableRecord
100
AcDbLayerTableRecord
  2
DIM
 70
     0
 62
     1
  6
CONTINUOUS
370
    -3
390
5C1E
347
1031E
  0
LAYER
  5
12849
102
{ACAD_XDICTIONARY
360
1284A
102
}
330
2
100
AcDbSymbolTableRecord
100
AcDbLayerTableRecord
  2
P-0000
 70
     0
 62
     7
  6
CONTINUOUS
370
    -3
390
5C1E
347
1031E
  0
LAYER
  5
12BAF
330
2
100
AcDbSymbolTableRecord
100
AcDbLayerTableRecord
  2
AM_5
 70
     0
 62
     3
  6
CONTINUOUS
370
    15
390
5C1E
347
1031E
1001
AcAecLayerStandard
1000

1000

  0
ENDTAB
  0
TABLE
  2
STYLE
  5
3
330
0
100
AcDbSymbolTable
 70
    10
  0
STYLE
  5
F
330
3
100
AcDbSymbolTableRecord
100
AcDbTextStyleTableRecord
  2
STANDARD
 70
     0
 40
25.0
 41
1.0
 50
0.0
 71
     0
 42
5.0
  3
comic.ttf
  4

1001
ACAD
1000
Comic Sans MS
1071
       66
  0
STYLE
  5
3F
330
3
100
AcDbSymbolTableRecord
100
AcDbTextStyleTableRecord
  2
TITLE
 70
     0
 40
0.0
 41
1.0
 50
0.0
 71
     0
 42
4.0
  3
C:\R13\COM\fonts\eur_____.pfb
  4

  0
STYLE
  5
116
330
3
100
AcDbSymbolTableRecord
100
AcDbTextStyleTableRecord
  2
EUROROMAN
 70
     0
 40
0.5343811892451882
 41
1.0
 50
0.0
 71
     0
 42
0.5343811892451882
  3
eur_____.pfb
  4

  0
STYLE
  5
43B4
330
3
100
AcDbSymbolTableRecord
100
AcDbTextStyleTableRecord
  2
ROMANS
 70
     0
 40
5.0
 41
1.0
 50
0.0
 71
     0
 42
10.0
  3
romans
  4

  0
STYLE
  5
11E2A
330
3
100
AcDbSymbolTableRecord
100
AcDbTextStyleTableRecord
  2
ACANSTS
 70
     0
 40
0.0
 41
1.0
 50
0.0
 71
     0
 42
5.0
  3
romans.shx
  4

  0
STYLE
  5
11E2B
330
3
100
AcDbSymbolTableRecord
100
AcDbTextStyleTableRecord
  2
ACANSGDT
 70
     0
 40
0.0
 41
1.0
 50
0.0
 71
     0
 42
5.0
  3
amgdt.shx
  4

  0
STYLE
  5
1284B
330
3
100
AcDbSymbolTableRecord
100
AcDbTextStyleTableRecord
  2
Text_3.5mm
 70
     0
 40
0.0
 41
0.899999976158142
 50
0.0
 71
     0
 42
0.2
  3
arial.ttf
  4

1001
ACAD
1000
Arial
1071
      256
  0
STYLE
  5
1284C
330
3
100
AcDbSymbolTableRecord
100
AcDbTextStyleTableRecord
  2
Franke
 70
     0
 40
0.0
 41
1.0
 50
0.0
 71
     0
 42
40.0
  3
swissc.ttf
  4

1001
ACAD
1000
Swis721 Cn BT
1071
       34
  0
STYLE
  5
1333C
330
3
100
AcDbSymbolTableRecord
100
AcDbTextStyleTableRecord
  2
Text__5.0mm
 70
     0
 40
0.0
 41
0.899999976158142
 50
0.0
 71
     0
 42
0.2
  3
arial.ttf
  4

1001
ACAD
1000
Arial
1071
      256
  0
STYLE
  5
1333D
330
3
100
AcDbSymbolTableRecord
100
AcDbTextStyleTableRecord
  2
ACISOGDT
 70
     0
 40
0.0
 41
1.0
 50
0.0
 71
     0
 42
0.2
  3
amgdt.shx
  4

  0
ENDTAB
  0
TABLE
  2
VIEW
  5
6
330
0
100
AcDbSymbolTable
 70
     2
  0
VIEW
  5
278
330
6
100
AcDbSymbolTableRecord
100
AcDbViewTableRecord
  2
P
 70
     0
 40
815.0
 10
608.7931217819457
 20
3.744870706040615
 41
1137.5
 11
0.0
 21
0.0
 31
1.0
 12
0.0
 22
0.0
 32
0.0
 42
50.0
 43
0.0
 44
0.0
 50
0.0
 71
     0
281
     0
 72
     0
 73
     0
348
1032C
  0
VIEW
  5
2F21
330
6
100
AcDbSymbolTableRecord
100
AcDbViewTableRecord
  2
E
 70
     0
 40
655.0725840874363
 10
622.5998899062656
 20
58.70190082387842
 41
1137.170295034238
 11
0.0
 21
0.0
 31
1.0
 12
0.0
 22
0.0
 32
0.0
 42
50.0
 43
0.0
 44
0.0
 50
0.0
 71
     0
281
     0
 72
     0
 73
     0
348
1032C
  0
ENDTAB
  0
TABLE
  2
UCS
  5
7
330
0
100
AcDbSymbolTable
 70
     0
  0
ENDTAB
  0
TABLE
  2
APPID
  5
9
330
0
100
AcDbSymbolTable
 70
    30
  0
APPID
  5
10
330
9
100
AcDbSymbolTableRecord
100
AcDbRegAppTableRecord
  2
ACAD
 70
     0
  0
APPID
  5
DBD1
330
9
100
AcDbSymbolTableRecord
100
AcDbRegAppTableRecord
  2
ACAD_EXEMPT_FROM_CAD_STANDARDS
 70
     0
  0
APPID
  5
E106
330
9
100
AcDbSymbolTableRecord
100
AcDbRegAppTableRecord
  2
ACAD_PSEXT
 70
     0
  0
APPID
  5
E18B
330
9
100
AcDbSymbolTableRecord
100
AcDbRegAppTableRecord
  2
ACAD_DSTYLE_DIMEXT_LENGTH
 70
     0
  0
APPID
  5
E18C
330
9
100
AcDbSymbolTableRecord
100
AcDbRegAppTableRecord
  2
ACAD_DSTYLE_DIMEXT_ENABLED
 70
     0
  0
APPID
  5
E18D
330
9
100
AcDbSymbolTableRecord
100
AcDbRegAppTableRecord
  2
ACAD_DSTYLE_DIMJOGGED_JOGANGLE_SYMBOL
 70
     0
  0
APPID
  5
E18E
330
9
100
AcDbSymbolTableRecord
100
AcDbRegAppTableRecord
  2
ACAD_DSTYLE_DIMARC_LENGTH_SYMBOL
 70
     0
  0
APPID
  5
1035B
330
9
100
AcDbSymbolTableRecord
100
AcDbRegAppTableRecord
  2
ACAD_MLEADERVER
 70
     0
  0
APPID
  5
10412
330
9
100
AcDbSymbolTableRecord
100
AcDbRegAppTableRecord
  2
ACAD_DSTYLE_DIMJAG
 70
     0
  0
APPID
  5
10413
330
9
100
AcDbSymbolTableRecord
100
AcDbRegAppTableRecord
  2
ACAD_DSTYLE_DIMTALN
 70
     0
  0
APPID
  5
10AD8
330
9
100
AcDbSymbolTableRecord
100
AcDbRegAppTableRecord
  2
ACAD_DSTYLE_DIMRADIAL_EXTENSION
 70
     0
  0
APPID
  5
11648
330
9
100
AcDbSymbolTableRecord
100
AcDbRegAppTableRecord
  2
ACAD_NAV_VCDISPLAY
 70
     0
  0
APPID
  5
11729
330
9
100
AcDbSymbolTableRecord
100
AcDbRegAppTableRecord
  2
GradientColor1ACI
 70
     0
  0
APPID
  5
1172A
330
9
100
AcDbSymbolTableRecord
100
AcDbRegAppTableRecord
  2
GradientColor2ACI
 70
     0
  0
APPID
  5
11B06
330
9
100
AcDbSymbolTableRecord
100
AcDbRegAppTableRecord
  2
AcAecLayerStandard
 70
     0
  0
APPID
  5
11B07
330
9
100
AcDbSymbolTableRecord
100
AcDbRegAppTableRecord
  2
ACCMTRANSPARENCY
 70
     0
  0
APPID
  5
11C05
330
9
100
AcDbSymbolTableRecord
100
AcDbRegAppTableRecord
  2
AcadAnnoPO
 70
     0
  0
APPID
  5
11DD7
330
9
100
AcDbSymbolTableRecord
100
AcDbRegAppTableRecord
  2
MCAD_NO_VIS
 70
     0
  0
APPID
  5
11DD8
330
9
100
AcDbSymbolTableRecord
100
AcDbRegAppTableRecord
  2
ACAD_TEMP_GRAPHIC
 70
     0
  0
APPID
  5
11DE4
330
9
100
AcDbSymbolTableRecord
100
AcDbRegAppTableRecord
  2
ACATTRIBSERVICES
 70
     0
  0
APPID
  5
11E00
330
9
100
AcDbSymbolTableRecord
100
AcDbRegAppTableRecord
  2
DESIGNERASSEMBLIES
 70
     0
  0
APPID
  5
11E1A
330
9
100
AcDbSymbolTableRecord
100
AcDbRegAppTableRecord
  2
ACAD_DSTYLE_DIMBREAK
 70
     0
  0
APPID
  5
11E46
330
9
100
AcDbSymbolTableRecord
100
AcDbRegAppTableRecord
  2
GENIUS_GENSCREG_15
 70
     0
  0
APPID
  5
11E47
330
9
100
AcDbSymbolTableRecord
100
AcDbRegAppTableRecord
  2
GENIUS_GENOBJ-N-SDF_13
 70
     0
  0
APPID
  5
11E48
330
9
100
AcDbSymbolTableRecord
100
AcDbRegAppTableRecord
  2
GENIUS_GENODEF_13
 70
     0
  0
APPID
  5
11E5D
330
9
100
AcDbSymbolTableRecord
100
AcDbRegAppTableRecord
  2
ACAD_DSTYLE_DIMINSPECT
 70
     0
  0
APPID
  5
11E68
330
9
100
AcDbSymbolTableRecord
100
AcDbRegAppTableRecord
  2
AcadAnnoMonitorAlertIconDisabled
 70
     0
  0
APPID
  5
11E69
330
9
100
AcDbSymbolTableRecord
100
AcDbRegAppTableRecord
  2
GENIUS_GENDTOL_13
 70
     0
  0
APPID
  5
12430
330
9
100
AcDbSymbolTableRecord
100
AcDbRegAppTableRecord
  2
AMAcad
 70
     0
  0
APPID
  5
1284F
330
9
100
AcDbSymbolTableRecord
100
AcDbRegAppTableRecord
  2
TOP
 70
     0
  0
ENDTAB
  0
TABLE
  2
DIMSTYLE
  5
A
330
0
100
AcDbSymbolTable
 70
    18
100
AcDbDimStyleTable
 71
     1
340
1D
  0
DIMSTYLE
105
1D
330
A
100
AcDbSymbolTableRecord
100
AcDbDimStyleTableRecord
  2
STANDARD
 70
     0
 41
15.0
140
25.0
178
     1
271
     2
272
     2
340
F
1001
ACAD_DSTYLE_DIMJAG
1070
   388
1040
1.5
1001
ACAD_DSTYLE_DIMTALN
1070
   392
1070
     0
  0
DIMSTYLE
105
11E19
102
{ACAD_REACTORS
330
11E09
102
}
330
A
100
AcDbSymbolTableRecord
100
AcDbDimStyleTableRecord
  2
AM_ANSI
 70
     0
  4
mm
 41
0.12
 42
0.05
 43
0.5
 44
0.1
 47
0.1
 48
0.1
 78
     7
 79
     2
 90
     1
140
0.12
141
0.0
146
0.71
147
0.06
176
   256
177
   256
178
     2
274
     4
284
     7
340
F
345
12
346
12
347
12
371
    -1
372
    -1
1001
ACAD_DSTYLE_DIMJAG
1070
   388
1040
1.5
1001
ACAD_DSTYLE_DIMBREAK
1070
   391
1040
0.125
  0
DIMSTYLE
105
11E1D
330
A
100
AcDbSymbolTableRecord
100
AcDbDimStyleTableRecord
  2
AM_ANSI$3
 70
     0
  4
mm
 41
0.12
 42
0.05
 43
0.5
 44
0.1
 47
0.1
 48
0.1
 78
     7
 79
     2
 90
     1
140
0.12
141
0.0
146
0.71
147
0.06
176
   256
177
   256
178
     2
274
     4
284
     7
288
     1
289
     0
340
F
345
12
346
12
347
12
371
    -1
372
    -1
1001
ACAD_DSTYLE_DIMBREAK
1070
   391
1040
0.125
1001
ACAD_DSTYLE_DIMJAG
1070
   388
1040
1.5
  0
DIMSTYLE
105
11E1E
330
A
100
AcDbSymbolTableRecord
100
AcDbDimStyleTableRecord
  2
AM_ANSI$4
 70
     0
  4
mm
 41
0.12
 42
0.05
 43
0.5
 44
0.1
 47
0.1
 48
0.1
 78
     7
 79
     2
 90
     1
140
0.12
141
0.0
146
0.71
147
0.06
176
   256
177
   256
178
     2
274
     4
284
     7
288
     1
289
     0
340
F
345
12
346
12
347
12
371
    -1
372
    -1
1001
ACAD_DSTYLE_DIMBREAK
1070
   391
1040
0.125
1001
ACAD_DSTYLE_DIMJAG
1070
   388
1040
1.5
  0
DIMSTYLE
105
11E1F
330
A
100
AcDbSymbolTableRecord
100
AcDbDimStyleTableRecord
  2
AM_ANSI$7
 70
     0
  4
mm
 41
0.12
 42
0.05
 43
0.5
 44
0.1
 47
0.1
 48
0.1
 78
     7
 79
     2
 90
     1
140
0.12
141
0.0
146
0.71
147
0.06
176
   256
177
   256
178
     2
274
     4
284
     7
340
F
345
12
346
12
347
12
371
    -1
372
    -1
1001
ACAD_DSTYLE_DIMBREAK
1070
   391
1040
0.125
1001
ACAD_DSTYLE_DIMJAG
1070
   388
1040
1.5
  0
DIMSTYLE
105
11E20
330
A
100
AcDbSymbolTableRecord
100
AcDbDimStyleTableRecord
  2
AM_ANSI$SF
 70
     0
  4
mm
 41
0.12
 42
0.05
 43
0.5
 44
0.1
 47
0.1
 48
0.1
 75
     1
 76
     1
 78
     7
 79
     2
 90
     1
140
0.12
141
0.0
146
0.71
147
0.06
176
   256
177
   256
178
     2
274
     4
284
     7
340
F
345
12
346
12
347
12
371
    -1
372
    -1
1001
ACAD_DSTYLE_DIMBREAK
1070
   391
1040
0.125
1001
ACAD_DSTYLE_DIMJAG
1070
   388
1040
1.5
  0
DIMSTYLE
105
11E25
330
A
100
AcDbSymbolTableRecord
100
AcDbDimStyleTableRecord
  2
AM_ANSI$SH
 70
     0
  4
mm
 41
0.12
 42
0.05
 43
0.5
 44
0.1
 47
0.1
 48
0.1
 75
     1
 76
     1
 78
     7
 79
     2
 90
     1
140
0.12
141
0.0
146
0.71
147
0.06
173
     1
176
   256
177
   256
178
     2
274
     4
284
     7
340
F
343
11E21
345
12
346
12
347
12
371
    -1
372
    -1
1001
ACAD_DSTYLE_DIMBREAK
1070
   391
1040
0.125
1001
ACAD_DSTYLE_DIMJAG
1070
   388
1040
1.5
  0
DIMSTYLE
105
1284D
102
{ACAD_REACTORS
330
12991
102
}
330
A
100
AcDbSymbolTableRecord
100
AcDbDimStyleTableRecord
  2
Lead of KS-STANDARD
 70
     0
 40
6.666666666666666
 41
2.5
 42
0.0
 43
6.0
 44
3.174999999999998
 45
0.00000001
 46
10.0
 73
     0
 77
     1
 78
     8
 79
     2
140
3.5
143
0.03937
146
0.7142857142857145
147
0.8000000000000001
171
     3
176
     4
177
     7
178
     7
271
     1
272
     1
274
     3
284
     8
286
     8
340
1284B
371
    25
372
    25
1001
ACAD_DSTYLE_DIMBREAK
1070
   391
1040
3.75
1001
ACAD_DSTYLE_DIMJAG
1070
   388
1040
1.5
1001
ACAD_DSTYLE_DIMTALN
1070
   392
1070
     0
  0
DIMSTYLE
105
1284E
102
{ACAD_REACTORS
330
12990
330
12CBC
102
}
330
A
100
AcDbSymbolTableRecord
100
AcDbDimStyleTableRecord
  2
Lead of KS-STANDARD$0
 70
     0
 40
6.666666666666666
 41
2.5
 42
0.0
 43
6.0
 44
3.174999999999998
 45
0.00000001
 46
10.0
 73
     0
 77
     1
 78
     8
 79
     2
140
3.5
143
0.03937
146
0.7142857142857145
147
0.8000000000000001
171
     3
176
     4
177
     7
178
     7
271
     1
272
     1
274
     3
284
     8
286
     8
340
1284B
371
    25
372
    25
1001
ACAD_DSTYLE_DIMBREAK
1070
   391
1040
3.75
1001
ACAD_DSTYLE_DIMJAG
1070
   388
1040
1.5
  0
DIMSTYLE
105
12BB0
330
A
100
AcDbSymbolTableRecord
100
AcDbDimStyleTableRecord
  2
STANDARD$0
 70
     0
 41
15.0
140
25.0
178
     1
271
     2
272
     2
340
F
1001
ACAD_DSTYLE_DIMBREAK
1070
   391
1040
0.125
1001
ACAD_DSTYLE_DIMJAG
1070
   388
1040
1.5
  0
DIMSTYLE
105
1333E
330
A
100
AcDbSymbolTableRecord
100
AcDbDimStyleTableRecord
  2
KS-Marketing
 70
     0
  3
 in
 40
10.0
 41
3.5
 42
0.0
 43
12.0
 44
3.174999999999998
 45
0.00000001
 46
10.0
 73
     0
 74
     0
 77
     1
 78
     2
 79
     2
140
5.0
143
1.0
144
0.0393700787401575
146
0.7
147
0.8
171
     3
172
     1
176
     7
177
     7
178
     7
271
     3
274
     3
276
     2
277
     5
278
    44
284
     8
286
     8
340
1333C
371
    25
372
    25
  0
DIMSTYLE
105
1333F
102
{ACAD_REACTORS
330
13355
102
}
330
A
100
AcDbSymbolTableRecord
100
AcDbDimStyleTableRecord
  2
AM_ISO
 70
     0
  4
"
 41
3.5
 42
1.0
 43
10.0
 44
1.0
 47
0.1
 48
0.1
 73
     0
 74
     0
 77
     1
 78
     8
 79
     2
 90
     1
140
3.5
141
0.0
143
0.0393701
146
0.71
147
1.5
172
     1
176
   256
177
   256
178
     2
271
     2
272
     3
274
     4
283
     0
284
     8
340
F
345
12
346
12
347
12
371
    -1
372
    -1
1001
ACAD_DSTYLE_DIMJAG
1070
   388
1040
1.5
1001
ACAD_DSTYLE_DIMBREAK
1070
   391
1040
3.75
  0
DIMSTYLE
105
13340
330
A
100
AcDbSymbolTableRecord
100
AcDbDimStyleTableRecord
  2
AM_ISO$3
 70
     0
  4
"
 41
3.5
 42
1.0
 43
10.0
 44
1.0
 47
0.1
 48
0.1
 73
     0
 77
     1
 78
     8
 79
     2
 90
     1
140
3.5
141
0.0
143
0.0393701
146
0.71
147
1.5
176
   256
177
   256
178
     2
271
     2
272
     3
274
     4
283
     0
284
     8
288
     1
289
     0
340
F
345
12
346
12
347
12
371
    -1
372
    -1
1001
ACAD_DSTYLE_DIMBREAK
1070
   391
1040
3.75
1001
ACAD_DSTYLE_DIMJAG
1070
   388
1040
1.5
  0
DIMSTYLE
105
13341
330
A
100
AcDbSymbolTableRecord
100
AcDbDimStyleTableRecord
  2
AM_ISO$4
 70
     0
  4
"
 41
3.5
 42
1.0
 43
10.0
 44
1.0
 47
0.1
 48
0.1
 73
     0
 77
     1
 78
     8
 79
     2
 90
     1
140
3.5
141
0.0
143
0.0393701
146
0.71
147
1.5
176
   256
177
   256
178
     2
271
     2
272
     3
274
     4
283
     0
284
     8
288
     1
289
     0
340
F
345
12
346
12
347
12
371
    -1
372
    -1
1001
ACAD_DSTYLE_DIMBREAK
1070
   391
1040
3.75
1001
ACAD_DSTYLE_DIMJAG
1070
   388
1040
1.5
  0
DIMSTYLE
105
13342
330
A
100
AcDbSymbolTableRecord
100
AcDbDimStyleTableRecord
  2
AM_ISO$6
 70
     0
  4
"
 41
3.5
 42
1.0
 43
10.0
 44
1.0
 47
0.1
 48
0.1
 73
     0
 74
     0
 78
     8
 79
     2
 90
     1
140
3.5
141
0.0
143
0.0393701
146
0.71
147
1.5
172
     1
176
   256
177
   256
178
     2
271
     2
272
     3
274
     4
283
     0
284
     8
340
F
345
12
346
12
347
12
371
    -1
372
    -1
1001
ACAD_DSTYLE_DIMBREAK
1070
   391
1040
3.75
1001
ACAD_DSTYLE_DIMJAG
1070
   388
1040
1.5
  0
DIMSTYLE
105
13343
330
A
100
AcDbSymbolTableRecord
100
AcDbDimStyleTableRecord
  2
AM_ISO$7
 70
     0
  4
"
 41
3.5
 42
1.0
 43
10.0
 44
1.0
 47
0.1
 48
0.1
 73
     0
 74
     0
 77
     1
 78
     8
 79
     2
 90
     1
140
3.5
141
0.0
143
0.0393701
146
0.71
147
1.5
172
     1
176
   256
177
   256
178
     2
271
     2
272
     3
274
     4
283
     0
284
     8
340
F
345
12
346
12
347
12
371
    -1
372
    -1
1001
ACAD_DSTYLE_DIMBREAK
1070
   391
1040
3.75
1001
ACAD_DSTYLE_DIMJAG
1070
   388
1040
1.5
  0
DIMSTYLE
105
13344
330
A
100
AcDbSymbolTableRecord
100
AcDbDimStyleTableRecord
  2
AM_ISO$SF
 70
     0
  4
"
 41
3.5
 42
1.0
 43
10.0
 44
1.0
 47
0.1
 48
0.1
 73
     0
 74
     0
 75
     1
 76
     1
 77
     1
 78
     8
 79
     2
 90
     1
140
3.5
141
0.0
143
0.0393701
146
0.71
147
1.5
172
     1
176
   256
177
   256
178
     2
271
     2
272
     3
274
     4
283
     0
284
     8
340
F
345
12
346
12
347
12
371
    -1
372
    -1
1001
ACAD_DSTYLE_DIMBREAK
1070
   391
1040
3.75
1001
ACAD_DSTYLE_DIMJAG
1070
   388
1040
1.5
  0
DIMSTYLE
105
13345
330
A
100
AcDbSymbolTableRecord
100
AcDbDimStyleTableRecord
  2
AM_ISO$SH
 70
     0
  4
"
 41
3.5
 42
1.0
 43
10.0
 44
1.0
 47
0.1
 48
0.1
 73
     0
 74
     0
 75
     1
 76
     1
 77
     1
 78
     8
 79
     2
 90
     1
140
3.5
141
0.0
143
0.0393701
144
2.0
146
0.71
147
1.5
172
     1
173
     1
176
   256
177
   256
178
     2
271
     2
272
     3
274
     4
283
     0
284
     8
340
F
343
11E21
345
12
346
12
347
12
371
    -1
372
    -1
1001
ACAD_DSTYLE_DIMBREAK
1070
   391
1040
3.75
1001
ACAD_DSTYLE_DIMJAG
1070
   388
1040
1.5
  0
ENDTAB
  0
TABLE
  2
BLOCK_RECORD
  5
1
330
0
100
AcDbSymbolTable
 70
     9
  0
BLOCK_RECORD
  5
18
102
{ACAD_XDICTIONARY
360
982C
102
}
330
1
100
AcDbSymbolTableRecord
100
AcDbBlockTableRecord
  2
*MODEL_SPACE
340
5C21
 70
     0
280
     1
281
     0
  0
BLOCK_RECORD
  5
15
102
{ACAD_XDICTIONARY
360
982A
102
}
330
1
100
AcDbSymbolTableRecord
100
AcDbBlockTableRecord
  2
*PAPER_SPACE
340
5C22
 70
     0
280
     1
281
     0
  0
BLOCK_RECORD
  5
11E21
330
1
100
AcDbSymbolTableRecord
100
AcDbBlockTableRecord
  2
GENAXEH
340
0
 70
     0
280
     1
281
     0
  0
BLOCK_RECORD
  5
11E2F
330
1
100
AcDbSymbolTableRecord
100
AcDbBlockTableRecord
  2
_ACMFILLEDHALF
340
0
 70
     0
280
     1
281
     0
  0
BLOCK_RECORD
  5
12994
330
1
100
AcDbSymbolTableRecord
100
AcDbBlockTableRecord
  2
*D3
340
0
 70
     0
280
     1
281
     0
  0
BLOCK_RECORD
  5
129A0
330
1
100
AcDbSymbolTableRecord
100
AcDbBlockTableRecord
  2
*D4
340
0
 70
     0
280
     1
281
     0
  0
BLOCK_RECORD
  5
12CBD
330
1
100
AcDbSymbolTableRecord
100
AcDbBlockTableRecord
  2
*D5
340
0
 70
     0
280
     1
281
     0
  0
BLOCK_RECORD
  5
132CC
330
1
100
AcDbSymbolTableRecord
100
AcDbBlockTableRecord
  2
*D6
340
0
 70
     0
280
     1
281
     0
  0
BLOCK_RECORD
  5
13317
330
1
100
AcDbSymbolTableRecord
100
AcDbBlockTableRecord
  2
*D7
340
0
 70
     0
280
     1
281
     0
  0
ENDTAB
  0
ENDSEC
  0
SECTION
  2
BLOCKS
  0
BLOCK
  5
19
330
18
100
AcDbEntity
  8
0
100
AcDbBlockBegin
  2
*MODEL_SPACE
 70
     0
 10
0.0
 20
0.0
 30
0.0
  3
*MODEL_SPACE
  1

  0
ENDBLK
  5
1A
330
18
100
AcDbEntity
  8
0
100
AcDbBlockEnd
  0
BLOCK
  5
16
330
15
100
AcDbEntity
 67
     1
  8
0
100
AcDbBlockBegin
  2
*PAPER_SPACE
 70
     0
 10
0.0
 20
0.0
 30
0.0
  3
*PAPER_SPACE
  1

  0
ENDBLK
  5
17
330
15
100
AcDbEntity
 67
     1
  8
0
100
AcDbBlockEnd
  0
BLOCK
  5
11E23
330
11E21
100
AcDbEntity
  8
0
100
AcDbBlockBegin
  2
GENAXEH
 70
     0
 10
0.0
 20
0.0
 30
0.0
  3
GENAXEH
  1

  0
LINE
  5
11E22
330
11E21
100
AcDbEntity
  8
0
100
AcDbLine
 10
-1.0
 20
0.0
 30
0.0
 11
1.0
 21
0.0
 31
0.0
  0
ENDBLK
  5
11E24
330
11E21
100
AcDbEntity
  8
0
100
AcDbBlockEnd
  0
BLOCK
  5
11E32
330
11E2F
100
AcDbEntity
  8
0
100
AcDbBlockBegin
  2
_ACMFILLEDHALF
 70
     0
 10
0.0
 20
0.0
 30
0.0
  3
_ACMFILLEDHALF
  1

  0
TRACE
  5
11E30
330
11E2F
100
AcDbEntity
  8
DIM
 62
     0
100
AcDbTrace
 10
-0.8
 20
0.0
 30
0.0
 11
-1.0
 21
0.166666666
 31
0.0
 12
0.0
 22
0.0
 32
0.0
 13
0.0
 23
0.0
 33
0.0
  0
LINE
  5
11E31
330
11E2F
100
AcDbEntity
  8
DIM
 62
     0
100
AcDbLine
 10
-1.0
 20
0.0
 30
0.0
 11
-0.8
 21
0.0
 31
0.0
  0
ENDBLK
  5
11E33
330
11E2F
100
AcDbEntity
  8
0
100
AcDbBlockEnd
  0
BLOCK
  5
12995
330
12994
100
AcDbEntity
  8
0
100
AcDbBlockBegin
  2
*D3
 70
     1
 10
0.0
 20
0.0
 30
0.0
  3
*D3
  1

  0
LINE
  5
13113
330
12994
100
AcDbEntity
  8
0
 62
     7
440
 16777216
370
    25
100
AcDbLine
 10
221.7100389891821
 20
-51.12424684112713
 30
0.0
 11
221.7100389891821
 21
14.67516029250843
 31
0.0
  0
LINE
  5
13114
330
12994
100
AcDbEntity
  8
0
 62
     7
440
 16777216
370
    25
100
AcDbLine
 10
996.4230389891552
 20
-51.12424684112703
 30
0.0
 11
996.4230389891552
 21
14.67516029250841
 31
0.0
  0
LINE
  5
13115
330
12994
100
AcDbEntity
  8
0
 62
     1
440
 16777216
370
    25
100
AcDbLine
 10
238.3767056558487
 20
-6.491506374158234
 30
0.0
 11
979.7563723224886
 21
-6.491506374158234
 31
0.0
  0
SOLID
  5
13116
330
12994
100
AcDbEntity
  8
0
 62
     1
440
 16777216
100
AcDbTrace
 10
238.3767056558487
 20
-3.713728596380457
 30
0.0
 11
238.3767056558487
 21
-9.269284151936011
 31
0.0
 12
221.7100389891821
 22
-6.491506374158234
 32
0.0
 13
221.7100389891821
 23
-6.491506374158234
 33
0.0
  0
SOLID
  5
13117
330
12994
100
AcDbEntity
  8
0
 62
     1
440
 16777216
100
AcDbTrace
 10
979.7563723224886
 20
-3.713728596380457
 30
0.0
 11
979.7563723224886
 21
-9.269284151936011
 31
0.0
 12
996.4230389891552
 22
-6.491506374158234
 32
0.0
 13
996.4230389891552
 23
-6.491506374158234
 33
0.0
  0
MTEXT
  5
13118
330
12994
100
AcDbEntity
  8
0
 62
     1
440
 16777216
100
AcDbMText
 10
888.8739706495906
 20
2.291070353899973
 30
0.0
 40
23.33333333333333
 41
0.0
 46
0.0
 71
     5
 72
     1
  1
\A1;{\H0.28571x;30-1/2"}
  7
Text_3.5mm
 73
     1
 44
1.0
  0
POINT
  5
13119
330
12994
100
AcDbEntity
  8
DEFPOINTS
 62
     0
440
 16777216
100
AcDbPoint
 10
221.7100389891821
 20
-51.12424684112713
 30
0.0
  0
POINT
  5
1311A
330
12994
100
AcDbEntity
  8
DEFPOINTS
 62
     0
440
 16777216
100
AcDbPoint
 10
996.4230389891552
 20
-51.12424684112703
 30
0.0
  0
POINT
  5
1311B
330
12994
100
AcDbEntity
  8
DEFPOINTS
 62
     0
440
 16777216
100
AcDbPoint
 10
996.4230389891552
 20
-6.491506374158234
 30
0.0
  0
ENDBLK
  5
12996
330
12994
100
AcDbEntity
  8
0
100
AcDbBlockEnd
  0
BLOCK
  5
129A1
330
129A0
100
AcDbEntity
  8
0
100
AcDbBlockBegin
  2
*D4
 70
     1
 10
0.0
 20
0.0
 30
0.0
  3
*D4
  1

  0
LINE
  5
12EA8
330
129A0
100
AcDbEntity
  8
0
 62
     1
440
 16777216
370
    25
100
AcDbLine
 10
897.7329051600882
 20
-47.71655279049435
 30
0.0
 11
924.3957058683564
 21
-47.71655279049428
 31
0.0
  0
LINE
  5
12EA9
330
129A0
100
AcDbEntity
  8
0
 62
     1
440
 16777216
370
    25
100
AcDbLine
 10
924.3957058683564
 20
-47.71655279049428
 30
0.0
 11
970.6292550093891
 21
-62.65400928476253
 31
0.0
  0
MTEXT
  5
12EAA
330
129A0
100
AcDbEntity
  8
0
 62
     1
440
 16777216
100
AcDbMText
 10
908.3976388475557
 20
-40.00054551445972
 30
0.0
 40
4.666666666666666
 41
0.0
 46
0.0
 71
     5
 72
     1
  1
\A1;R 25mm
  7
Text_3.5mm
 73
     1
 44
1.0
  0
SOLID
  5
12EAB
330
129A0
100
AcDbEntity
  8
0
 62
     1
440
 16777216
100
AcDbTrace
 10
971.4832525780613
 20
-60.01076553220812
 30
0.0
 11
969.775257440717
 21
-65.29725303731698
 31
0.0
 12
986.4887175247158
 22
-67.77799469679564
 32
0.0
 13
986.4887175247158
 23
-67.77799469679564
 33
0.0
  0
LINE
  5
12EAC
330
129A0
100
AcDbEntity
  8
0
 62
     7
440
 16777216
370
    25
100
AcDbLine
 10
997.3075305357477
 20
-71.46726419345847
 30
0.0
 11
998.5075305357478
 21
-71.4672641934585
 31
0.0
  0
LINE
  5
12EAD
330
129A0
100
AcDbEntity
  8
0
 62
     7
440
 16777216
370
    25
100
AcDbLine
 10
997.9075305357477
 20
-72.06726419345844
 30
0.0
 11
997.9075305357477
 21
-70.86726419345851
 31
0.0
  0
ARC
  5
12EAE
330
129A0
100
AcDbEntity
  8
0
 62
     7
440
 16777216
370
    25
100
AcDbCircle
 10
997.9075305357477
 20
-71.46726419345847
 30
0.0
 40
11.9999999999967
100
AcDbArc
 50
162.0950321643306
 51
179.9999999999999
  0
POINT
  5
12EAF
330
129A0
100
AcDbEntity
  8
DEFPOINTS
 62
     0
440
 16777216
100
AcDbPoint
 10
986.4887175247158
 20
-67.77799469679564
 30
0.0
  0
POINT
  5
12EB0
330
129A0
100
AcDbEntity
  8
DEFPOINTS
 62
     0
440
 16777216
100
AcDbPoint
 10
997.9075305357477
 20
-71.46726419345847
 30
0.0
  0
ENDBLK
  5
129A2
330
129A0
100
AcDbEntity
  8
0
100
AcDbBlockEnd
  0
BLOCK
  5
12CBE
330
12CBD
100
AcDbEntity
  8
0
100
AcDbBlockBegin
  2
*D5
 70
     1
 10
0.0
 20
0.0
 30
0.0
  3
*D5
  1

  0
LINE
  5
13238
330
12CBD
100
AcDbEntity
  8
0
 62
     7
440
 16777216
370
    25
100
AcDbLine
 10
806.811700386239
 20
362.0252217181701
 30
0.0
 11
829.5663670528949
 21
362.0252217181701
 31
0.0
  0
LINE
  5
13239
330
12CBD
100
AcDbEntity
  8
0
 62
     7
440
 16777216
370
    25
100
AcDbLine
 10
968.2470389891667
 20
-79.29924684112703
 30
0.0
 11
787.2330337195615
 21
-79.29924684112697
 31
0.0
  0
LINE
  5
1323A
330
12CBD
100
AcDbEntity
  8
0
 62
     1
440
 16777216
370
    25
100
AcDbLine
 10
808.3997003862283
 20
345.3585550515034
 30
0.0
 11
808.3997003862281
 21
-62.63258017446031
 31
0.0
  0
SOLID
  5
1323B
330
12CBD
100
AcDbEntity
  8
0
 62
     1
440
 16777216
100
AcDbTrace
 10
805.6219226084504
 20
345.3585550515034
 30
0.0
 11
811.1774781640061
 21
345.3585550515034
 31
0.0
 12
808.3997003862283
 22
362.0252217181701
 32
0.0
 13
808.3997003862283
 23
362.0252217181701
 33
0.0
  0
SOLID
  5
1323C
330
12CBD
100
AcDbEntity
  8
0
 62
     1
440
 16777216
100
AcDbTrace
 10
805.6219226084502
 20
-62.63258017446031
 30
0.0
 11
811.1774781640059
 21
-62.63258017446031
 31
0.0
 12
808.3997003862281
 22
-79.29924684112698
 32
0.0
 13
808.3997003862281
 23
-79.29924684112698
 33
0.0
  0
MTEXT
  5
1323D
330
12CBD
100
AcDbEntity
  8
0
 62
     1
440
 16777216
100
AcDbMText
 10
799.6171236581699
 20
243.8345872183172
 30
0.0
 40
23.33333333333333
 41
0.0
 46
0.0
 71
     5
 72
     1
  1
\A1;{\H0.28571x;17-3/8"}
  7
Text_3.5mm
 11
0.0000000000000001
 21
1.0
 31
0.0
 73
     1
 44
1.0
  0
POINT
  5
1323E
330
12CBD
100
AcDbEntity
  8
DEFPOINTS
 62
     0
440
 16777216
100
AcDbPoint
 10
806.811700386239
 20
362.0252217181701
 30
0.0
  0
POINT
  5
1323F
330
12CBD
100
AcDbEntity
  8
DEFPOINTS
 62
     0
440
 16777216
100
AcDbPoint
 10
968.2470389891667
 20
-79.29924684112703
 30
0.0
  0
POINT
  5
13240
330
12CBD
100
AcDbEntity
  8
DEFPOINTS
 62
     0
440
 16777216
100
AcDbPoint
 10
808.3997003862281
 20
-79.29924684112698
 30
0.0
  0
ENDBLK
  5
12CBF
330
12CBD
100
AcDbEntity
  8
0
100
AcDbBlockEnd
  0
BLOCK
  5
132CD
330
132CC
100
AcDbEntity
  8
0
100
AcDbBlockBegin
  2
*D6
 70
     1
 10
0.0
 20
0.0
 30
0.0
  3
*D6
  1

  0
LINE
  5
1330C
330
132CC
100
AcDbEntity
  8
AM_5
 62
     0
440
 16777216
370
    -2
100
AcDbLine
 10
808.462200386228
 20
362.0252217181701
 30
0.0
 11
1052.966745957381
 21
362.0252217181701
 31
0.0
  0
LINE
  5
1330D
330
132CC
100
AcDbEntity
  8
AM_5
 62
     0
440
 16777216
370
    -2
100
AcDbLine
 10
971.4855389891551
 20
-79.29924684112702
 30
0.0
 11
1052.966745957381
 21
-79.29924684112703
 31
0.0
  0
LINE
  5
1330E
330
132CC
100
AcDbEntity
  8
AM_5
 62
     0
440
 16777216
370
    -2
100
AcDbLine
 10
1052.786745957381
 20
347.0252217181701
 30
0.0
 11
1052.786745957381
 21
155.4330280339207
 31
0.0
  0
LINE
  5
1330F
330
132CC
100
AcDbEntity
  8
AM_5
 62
     0
440
 16777216
370
    -2
100
AcDbLine
 10
1052.786745957381
 20
-64.29924684112703
 30
0.0
 11
1052.786745957381
 21
127.2929468431223
 31
0.0
  0
SOLID
  5
13310
330
132CC
100
AcDbEntity
  8
AM_5
 62
     0
440
 16777216
100
AcDbTrace
 10
1050.286745957381
 20
347.0252217181701
 30
0.0
 11
1055.286745957381
 21
347.0252217181701
 31
0.0
 12
1052.786745957381
 22
362.0252217181701
 32
0.0
 13
1052.786745957381
 23
362.0252217181701
 33
0.0
  0
SOLID
  5
13311
330
132CC
100
AcDbEntity
  8
AM_5
 62
     0
440
 16777216
100
AcDbTrace
 10
1050.286745957381
 20
-64.29924684112703
 30
0.0
 11
1055.286745957381
 21
-64.29924684112703
 31
0.0
 12
1052.786745957381
 22
-79.29924684112703
 32
0.0
 13
1052.786745957381
 23
-79.29924684112703
 33
0.0
  0
MTEXT
  5
13312
330
132CC
100
AcDbEntity
  8
AM_5
 62
     1
440
 16777216
100
AcDbMText
 10
1052.786745957381
 20
141.3629874385217
 30
0.0
 40
25.0
 41
0.0
 46
0.0
 71
     5
 72
     1
  1
\A1;441.32
 73
     1
 44
1.0
  0
POINT
  5
13313
330
132CC
100
AcDbEntity
  8
DEFPOINTS
 62
     0
440
 16777216
100
AcDbPoint
 10
808.3997003862281
 20
362.0252217181701
 30
0.0
  0
POINT
  5
13314
330
132CC
100
AcDbEntity
  8
DEFPOINTS
 62
     0
440
 16777216
100
AcDbPoint
 10
971.423038989155
 20
-79.29924684112702
 30
0.0
  0
POINT
  5
13315
330
132CC
100
AcDbEntity
  8
DEFPOINTS
 62
     0
440
 16777216
100
AcDbPoint
 10
1052.786745957381
 20
-79.29924684112703
 30
0.0
  0
ENDBLK
  5
132CE
330
132CC
100
AcDbEntity
  8
0
100
AcDbBlockEnd
  0
BLOCK
  5
13318
330
13317
100
AcDbEntity
  8
0
100
AcDbBlockBegin
  2
*D7
 70
     1
 10
0.0
 20
0.0
 30
0.0
  3
*D7
  1

  0
LINE
  5
1332E
330
13317
100
AcDbEntity
  8
AM_5
 62
     0
440
 16777216
370
    -2
100
AcDbLine
 10
996.423038989155
 20
-54.36174684112702
 30
0.0
 11
996.423038989155
 21
-137.3626605882993
 31
0.0
  0
LINE
  5
1332F
330
13317
100
AcDbEntity
  8
AM_5
 62
     0
440
 16777216
370
    -2
100
AcDbLine
 10
221.7100389891821
 20
-54.36174684112712
 30
0.0
 11
221.7100389891821
 21
-137.3626605882993
 31
0.0
  0
LINE
  5
13330
330
13317
100
AcDbEntity
  8
AM_5
 62
     0
440
 16777216
370
    -2
100
AcDbLine
 10
981.423038989155
 20
-137.1826605882993
 30
0.0
 11
661.939015308519
 21
-137.1826605882993
 31
0.0
  0
LINE
  5
13331
330
13317
100
AcDbEntity
  8
AM_5
 62
     0
440
 16777216
370
    -2
100
AcDbLine
 10
236.7100389891821
 20
-137.1826605882993
 30
0.0
 11
556.1940626698182
 21
-137.1826605882993
 31
0.0
  0
SOLID
  5
13332
330
13317
100
AcDbEntity
  8
AM_5
 62
     0
440
 16777216
100
AcDbTrace
 10
981.423038989155
 20
-134.6826605882993
 30
0.0
 11
981.423038989155
 21
-139.6826605882993
 31
0.0
 12
996.423038989155
 22
-137.1826605882993
 32
0.0
 13
996.423038989155
 23
-137.1826605882993
 33
0.0
  0
SOLID
  5
13333
330
13317
100
AcDbEntity
  8
AM_5
 62
     0
440
 16777216
100
AcDbTrace
 10
236.7100389891821
 20
-134.6826605882993
 30
0.0
 11
236.7100389891821
 21
-139.6826605882993
 31
0.0
 12
221.7100389891821
 22
-137.1826605882993
 32
0.0
 13
221.7100389891821
 23
-137.1826605882993
 33
0.0
  0
MTEXT
  5
13334
330
13317
100
AcDbEntity
  8
AM_5
 62
     1
440
 16777216
100
AcDbMText
 10
609.0665389891686
 20
-137.1826605882993
 30
0.0
 40
25.0
 41
0.0
 46
0.0
 71
     5
 72
     1
  1
\A1;774.71
 73
     1
 44
1.0
  0
POINT
  5
13335
330
13317
100
AcDbEntity
  8
DEFPOINTS
 62
     0
440
 16777216
100
AcDbPoint
 10
996.423038989155
 20
-54.29924684112702
 30
0.0
  0
POINT
  5
13336
330
13317
100
AcDbEntity
  8
DEFPOINTS
 62
     0
440
 16777216
100
AcDbPoint
 10
221.7100389891821
 20
-54.29924684112712
 30
0.0
  0
POINT
  5
13337
330
13317
100
AcDbEntity
  8
DEFPOINTS
 62
     0
440
 16777216
100
AcDbPoint
 10
221.7100389891821
 20
-137.1826605882993
 30
0.0
  0
ENDBLK
  5
13319
330
13317
100
AcDbEntity
  8
0
100
AcDbBlockEnd
  0
ENDSEC
  0
SECTION
  2
ENTITIES
  0
LINE
  5
10C29
330
18
100
AcDbEntity
  8
0
100
AcDbLine
 39
0.4
 10
246.7100389891821
 20
-79.29924684112712
 30
0.0
 11
605.8905389891822
 21
-79.29924684112712
 31
0.0
  0
ARC
  5
10C2C
330
18
100
AcDbEntity
  8
0
100
AcDbCircle
 39
0.4
 10
971.423038989155
 20
-54.29924684112702
 30
0.0
 40
25.0
100
AcDbArc
 50
270.0
 51
0.0
  0
ARC
  5
10C2D
330
18
100
AcDbEntity
  8
0
100
AcDbCircle
 39
0.4
 10
246.7100389891821
 20
-54.29924684112712
 30
0.0
 40
25.0
100
AcDbArc
 50
180.0
 51
270.0
  0
ARC
  5
10C41
330
18
100
AcDbEntity
  8
0
100
AcDbCircle
 10
814.0828778364133
 20
-389.7393715094911
 30
0.0
 40
751.7860747158604
100
AcDbArc
 50
77.49692502049628
 51
90.43313542846894
  0
ARC
  5
10C42
330
18
100
AcDbEntity
  8
0
100
AcDbCircle
 10
971.423038989155
 20
319.8112414955576
 30
0.0
 40
25.0
100
AcDbArc
 50
0.0
 51
77.48937301019409
  0
ARC
  5
10C44
330
18
100
AcDbEntity
  8
0
100
AcDbCircle
 10
609.0665389891671
 20
490.1893469726901
 30
0.0
 40
150.0
100
AcDbArc
 50
257.3529572880163
 51
282.6470427119837
  0
ARC
  5
10C45
330
18
100
AcDbEntity
  8
0
100
AcDbCircle
 10
411.8958106446127
 20
-388.6995299077224
 30
0.0
 40
750.7341196800894
100
AcDbArc
 50
77.35608620715317
 51
90.28623299972277
  0
ARC
  5
10C46
330
18
100
AcDbEntity
  8
0
100
AcDbCircle
 10
246.7100389891819
 20
319.8112414955575
 30
0.0
 40
25.0
100
AcDbArc
 50
102.5106269898059
 51
180.0
  0
LINE
  5
128FA
330
18
100
AcDbEntity
  8
P-0000
  6
Continuous
 62
    22
100
AcDbLine
 10
257.5775985414166
 20
310.8141887148377
 30
0.0
 11
258.2819377548094
 21
310.8141887148377
 31
0.0
  0
LINE
  5
128FB
330
18
100
AcDbEntity
  8
P-0000
  6
Continuous
 62
    22
100
AcDbLine
 10
278.0034357296954
 20
305.8838142210998
 30
0.0
 11
278.7077749430882
 21
305.8838142210998
 31
0.0
  0
LINE
  5
128FC
330
18
100
AcDbEntity
  8
P-0000
  6
Continuous
 62
    22
100
AcDbLine
 10
277.6512661230317
 20
303.7707965809268
 30
0.0
 11
277.6512661230317
 21
305.8838142210998
 31
0.0
  0
LINE
  5
128FD
330
18
100
AcDbEntity
  8
P-0000
  6
Continuous
 62
    22
100
AcDbLine
 10
277.6512661230317
 20
305.8838142210998
 30
0.0
 11
276.946926909639
 21
305.8838142210998
 31
0.0
  0
LINE
  5
128FE
330
18
100
AcDbEntity
  8
P-0000
  6
Continuous
 62
    22
100
AcDbLine
 10
276.946926909639
 20
305.8838142210998
 30
0.0
 11
275.5382484828569
 21
310.8141887148377
 31
0.0
  0
LINE
  5
128FF
330
18
100
AcDbEntity
  8
P-0000
  6
Continuous
 62
    22
100
AcDbLine
 10
275.5382484828569
 20
310.8141887148377
 30
0.0
 11
276.1721537749272
 21
310.8141887148377
 31
0.0
  0
LINE
  5
12900
330
18
100
AcDbEntity
  8
P-0000
  6
Continuous
 62
    22
100
AcDbLine
 10
276.1721537749272
 20
310.8141887148377
 30
0.0
 11
276.1721537749272
 21
312.9272063549961
 31
0.0
  0
LINE
  5
12901
330
18
100
AcDbEntity
  8
P-0000
  6
Continuous
 62
    22
100
AcDbLine
 10
276.1721537749272
 20
312.9272063549961
 30
0.0
 11
269.8331008544101
 21
312.9272063549961
 31
0.0
  0
LINE
  5
12902
330
18
100
AcDbEntity
  8
P-0000
  6
Continuous
 62
    22
100
AcDbLine
 10
269.8331008544101
 20
312.9272063549961
 30
0.0
 11
269.8331008544101
 21
310.8141887148377
 31
0.0
  0
LINE
  5
12903
330
18
100
AcDbEntity
  8
P-0000
  6
Continuous
 62
    22
100
AcDbLine
 10
269.8331008544101
 20
310.8141887148377
 30
0.0
 11
270.4670061464185
 21
310.8141887148377
 31
0.0
  0
LINE
  5
12904
330
18
100
AcDbEntity
  8
P-0000
  6
Continuous
 62
    22
100
AcDbLine
 10
270.4670061464185
 20
310.8141887148377
 30
0.0
 11
269.3400634050431
 21
305.8838142210998
 31
0.0
  0
LINE
  5
12905
330
18
100
AcDbEntity
  8
P-0000
  6
Continuous
 62
    22
100
AcDbLine
 10
269.3400634050431
 20
305.8838142210998
 30
0.0
 11
268.494856348947
 21
305.8838142210998
 31
0.0
  0
LINE
  5
12906
330
18
100
AcDbEntity
  8
P-0000
  6
Continuous
 62
    22
100
AcDbLine
 10
268.494856348947
 20
305.8838142210998
 30
0.0
 11
268.494856348947
 21
303.7707965809268
 31
0.0
  0
LINE
  5
12907
330
18
100
AcDbEntity
  8
P-0000
  6
Continuous
 62
    22
100
AcDbLine
 10
268.494856348947
 20
303.7707965809268
 30
0.0
 11
272.2982881012486
 21
303.7707965809268
 31
0.0
  0
LINE
  5
12908
330
18
100
AcDbEntity
  8
P-0000
  6
Continuous
 62
    22
100
AcDbLine
 10
272.2982881012486
 20
303.7707965809268
 30
0.0
 11
272.2982881012486
 21
305.8838142210998
 31
0.0
  0
LINE
  5
12909
330
18
100
AcDbEntity
  8
P-0000
  6
Continuous
 62
    22
100
AcDbLine
 10
272.2982881012486
 20
305.8838142210998
 30
0.0
 11
271.5939488878557
 21
305.8838142210998
 31
0.0
  0
LINE
  5
1290A
330
18
100
AcDbEntity
  8
P-0000
  6
Continuous
 62
    22
100
AcDbLine
 10
271.5939488878557
 20
305.8838142210998
 30
0.0
 11
271.9159325282653
 21
307.2924926478827
 31
0.0
  0
LINE
  5
1290B
330
18
100
AcDbEntity
  8
P-0000
  6
Continuous
 62
    22
100
AcDbLine
 10
271.9159325282653
 20
307.2924926478827
 30
0.0
 11
273.7270905055939
 21
307.2924926478827
 31
0.0
  0
LINE
  5
1290C
330
18
100
AcDbEntity
  8
P-0000
  6
Continuous
 62
    22
100
AcDbLine
 10
273.7270905055939
 20
307.2924926478827
 30
0.0
 11
274.1295700560749
 21
305.8838142210998
 31
0.0
  0
LINE
  5
1290D
330
18
100
AcDbEntity
  8
P-0000
  6
Continuous
 62
    22
100
AcDbLine
 10
274.1295700560749
 20
305.8838142210998
 30
0.0
 11
273.0730612359603
 21
305.8838142210998
 31
0.0
  0
LINE
  5
1290E
330
18
100
AcDbEntity
  8
P-0000
  6
Continuous
 62
    22
100
AcDbLine
 10
273.0730612359603
 20
305.8838142210998
 30
0.0
 11
273.0730612359603
 21
303.7707965809268
 31
0.0
  0
LINE
  5
1290F
330
18
100
AcDbEntity
  8
P-0000
  6
Continuous
 62
    22
100
AcDbLine
 10
273.0730612359603
 20
303.7707965809268
 30
0.0
 11
277.6512661230317
 21
303.7707965809268
 31
0.0
  0
LINE
  5
12910
330
18
100
AcDbEntity
  8
P-0000
  6
Continuous
 62
    22
100
AcDbLine
 10
287.8641847171693
 20
298.4882524805098
 30
0.0
 11
287.8641847171693
 21
318.2097504554276
 31
0.0
  0
LINE
  5
12911
330
18
100
AcDbEntity
  8
P-0000
  6
Continuous
 62
    22
100
AcDbLine
 10
287.8641847171693
 20
318.2097504554276
 30
0.0
 11
268.1426867422833
 21
318.2097504554276
 31
0.0
  0
LINE
  5
12912
330
18
100
AcDbEntity
  8
P-0000
  6
Continuous
 62
    22
100
AcDbLine
 10
268.1426867422833
 20
318.2097504554276
 30
0.0
 11
268.1426867422833
 21
298.4882524805098
 31
0.0
  0
LINE
  5
12913
330
18
100
AcDbEntity
  8
P-0000
  6
Continuous
 62
    22
100
AcDbLine
 10
268.1426867422833
 20
298.4882524805098
 30
0.0
 11
287.8641847171693
 21
298.4882524805098
 31
0.0
  0
LINE
  5
12914
330
18
100
AcDbEntity
  8
P-0000
  6
Continuous
 62
    22
100
AcDbLine
 10
272.2379161686786
 20
308.7011710746647
 30
0.0
 11
273.3246109550473
 21
308.7011710746647
 31
0.0
  0
LINE
  5
12915
330
18
100
AcDbEntity
  8
P-0000
  6
Continuous
 62
    22
100
AcDbLine
 10
273.3246109550473
 20
308.7011710746647
 30
0.0
 11
272.720891629293
 21
310.8141887148377
 31
0.0
  0
LINE
  5
12916
330
18
100
AcDbEntity
  8
P-0000
  6
Continuous
 62
    22
100
AcDbLine
 10
272.720891629293
 20
310.8141887148377
 30
0.0
 11
272.2379161686786
 21
308.7011710746647
 31
0.0
  0
LINE
  5
12917
330
18
100
AcDbEntity
  8
P-0000
  6
Continuous
 62
    22
100
AcDbLine
 10
249.4711729397987
 20
310.763452021959
 30
0.0
 11
249.4711729397987
 21
305.8838142210998
 31
0.0
  0
LINE
  5
12918
330
18
100
AcDbEntity
  8
P-0000
  6
Continuous
 62
    22
100
AcDbLine
 10
249.4334566916568
 20
305.8580522127641
 30
0.0
 11
248.4943377404688
 21
305.8580522127641
 31
0.0
  0
LINE
  5
12919
330
18
100
AcDbEntity
  8
P-0000
  6
Continuous
 62
    22
100
AcDbLine
 10
248.4943377404688
 20
305.8580522127641
 30
0.0
 11
248.4845473943624
 21
303.7707965809268
 31
0.0
  0
LINE
  5
1291A
330
18
100
AcDbEntity
  8
P-0000
  6
Continuous
 62
    22
100
AcDbLine
 10
248.4211887673355
 20
303.7707965809268
 30
0.0
 11
253.3515632610706
 21
303.7707965809268
 31
0.0
  0
LINE
  5
1291B
330
18
100
AcDbEntity
  8
P-0000
  6
Continuous
 62
    22
100
AcDbLine
 10
253.3515632610706
 20
303.7707965809268
 30
0.0
 11
253.3515632610706
 21
305.8838142210998
 31
0.0
  0
LINE
  5
1291C
330
18
100
AcDbEntity
  8
P-0000
  6
Continuous
 62
    22
100
AcDbLine
 10
253.3515632610706
 20
305.8838142210998
 30
0.0
 11
252.6472240476814
 21
305.8838142210998
 31
0.0
  0
LINE
  5
1291D
330
18
100
AcDbEntity
  8
P-0000
  6
Continuous
 62
    22
100
AcDbLine
 10
252.6472240476814
 20
305.8838142210998
 30
0.0
 11
252.6472240476814
 21
307.5037944119058
 31
0.0
  0
LINE
  5
1291E
330
18
100
AcDbEntity
  8
P-0000
  6
Continuous
 62
    22
100
AcDbLine
 10
252.6472240476814
 20
307.5037944119058
 30
0.0
 11
254.0559024744634
 21
307.5037944119058
 31
0.0
  0
LINE
  5
1291F
330
18
100
AcDbEntity
  8
P-0000
  6
Continuous
 62
    22
100
AcDbLine
 10
254.0559024744634
 20
307.5037944119058
 30
0.0
 11
254.0559024744634
 21
309.1942085240316
 31
0.0
  0
LINE
  5
12920
330
18
100
AcDbEntity
  8
P-0000
  6
Continuous
 62
    22
100
AcDbLine
 10
254.0559024744634
 20
309.1942085240316
 30
0.0
 11
252.6472240476814
 21
309.1942085240316
 31
0.0
  0
LINE
  5
12921
330
18
100
AcDbEntity
  8
P-0000
  6
Continuous
 62
    22
100
AcDbLine
 10
252.6472240476814
 20
309.1942085240316
 30
0.0
 11
252.6472240476814
 21
310.8141887148377
 31
0.0
  0
LINE
  5
12922
330
18
100
AcDbEntity
  8
P-0000
  6
Continuous
 62
    22
100
AcDbLine
 10
252.6472240476814
 20
310.8141887148377
 30
0.0
 11
254.7602416878526
 21
310.8141887148377
 31
0.0
  0
LINE
  5
12923
330
18
100
AcDbEntity
  8
P-0000
  6
Continuous
 62
    22
100
AcDbLine
 10
254.7602416878526
 20
310.8141887148377
 30
0.0
 11
254.7602416878526
 21
310.1098495014458
 31
0.0
  0
LINE
  5
12924
330
18
100
AcDbEntity
  8
P-0000
  6
Continuous
 62
    22
100
AcDbLine
 10
254.7602416878526
 20
310.1098495014458
 30
0.0
 11
256.8732593280274
 21
310.1098495014458
 31
0.0
  0
LINE
  5
12925
330
18
100
AcDbEntity
  8
P-0000
  6
Continuous
 62
    22
100
AcDbLine
 10
256.8732593280274
 20
310.1098495014458
 30
0.0
 11
256.8732593280274
 21
312.9272063549961
 31
0.0
  0
LINE
  5
12926
330
18
100
AcDbEntity
  8
P-0000
  6
Continuous
 62
    22
100
AcDbLine
 10
256.8732593280274
 20
312.9272063549961
 30
0.0
 11
248.4211887673355
 21
312.9272063549961
 31
0.0
  0
LINE
  5
12927
330
18
100
AcDbEntity
  8
P-0000
  6
Continuous
 62
    22
100
AcDbLine
 10
248.4701027380379
 20
312.899810311993
 30
0.0
 11
248.4701027380379
 21
310.8141887148377
 31
0.0
  0
LINE
  5
12928
330
18
100
AcDbEntity
  8
P-0000
  6
Continuous
 62
    22
100
AcDbLine
 10
248.5320539886107
 20
310.763452021959
 30
0.0
 11
249.4711729397987
 21
310.763452021959
 31
0.0
  0
ARC
  5
12929
330
18
100
AcDbEntity
  8
P-0000
  6
Continuous
 62
    22
100
AcDbCircle
 10
262.5079730351554
 20
310.1098495014458
 30
0.0
 40
0.7043392133903155
100
AcDbArc
 50
270.0000193187132
 51
89.99998633941322
  0
LINE
  5
1292A
330
18
100
AcDbEntity
  8
P-0000
  6
Continuous
 62
    22
100
AcDbLine
 10
262.5079732030735
 20
310.8141887148377
 30
0.0
 11
261.8036338217625
 21
310.8141887148377
 31
0.0
  0
LINE
  5
1292B
330
18
100
AcDbEntity
  8
P-0000
  6
Continuous
 62
    22
100
AcDbLine
 10
261.8036338217625
 20
310.8141887148377
 30
0.0
 11
261.8036338217625
 21
309.4055102880561
 31
0.0
  0
LINE
  5
1292C
330
18
100
AcDbEntity
  8
P-0000
  6
Continuous
 62
    22
100
AcDbLine
 10
261.8036338217625
 20
309.4055102880561
 30
0.0
 11
262.5079730351554
 21
309.4055102880561
 31
0.0
  0
LINE
  5
1292D
330
18
100
AcDbEntity
  8
P-0000
  6
Continuous
 62
    22
100
AcDbLine
 10
258.2819377548094
 20
305.8838142210998
 30
0.0
 11
257.5775985414166
 21
305.8838142210998
 31
0.0
  0
LINE
  5
1292E
330
18
100
AcDbEntity
  8
P-0000
  6
Continuous
 62
    22
100
AcDbLine
 10
257.5775985414166
 20
305.8838142210998
 30
0.0
 11
258.2819377548094
 21
305.8838142210998
 31
0.0
  0
LINE
  5
1292F
330
18
100
AcDbEntity
  8
P-0000
  6
Continuous
 62
    22
100
AcDbLine
 10
258.2819377548094
 20
305.8838142210998
 30
0.0
 11
258.2819377548094
 21
310.8141887148377
 31
0.0
  0
LINE
  5
12930
330
18
100
AcDbEntity
  8
P-0000
  6
Continuous
 62
    22
100
AcDbLine
 10
258.2819377548094
 20
310.8141887148377
 30
0.0
 11
257.5775985414166
 21
310.8141887148377
 31
0.0
  0
LINE
  5
12931
330
18
100
AcDbEntity
  8
P-0000
  6
Continuous
 62
    22
100
AcDbLine
 10
257.5775985414166
 20
310.8141887148377
 30
0.0
 11
257.5775985414166
 21
312.9272063549961
 31
0.0
  0
LINE
  5
12932
330
18
100
AcDbEntity
  8
P-0000
  6
Continuous
 62
    22
100
AcDbLine
 10
257.5775985414166
 20
312.9272063549961
 30
0.0
 11
264.0975731125527
 21
312.9272063549961
 31
0.0
  0
ARC
  5
12933
330
18
100
AcDbEntity
  8
P-0000
  6
Continuous
 62
    22
100
AcDbCircle
 10
264.3347781345128
 20
310.3678442065366
 30
0.0
 40
2.570330879366269
100
AcDbArc
 50
299.3919370094392
 51
95.29512076159738
  0
LINE
  5
12934
330
18
100
AcDbEntity
  8
P-0000
  6
Continuous
 62
    22
100
AcDbLine
 10
265.5962480705548
 20
308.1283589018285
 30
0.0
 11
266.3818387087758
 21
305.8838142210998
 31
0.0
  0
LINE
  5
12935
330
18
100
AcDbEntity
  8
P-0000
  6
Continuous
 62
    22
100
AcDbLine
 10
266.3818387087758
 20
305.8838142210998
 30
0.0
 11
267.086177922165
 21
305.8838142210998
 31
0.0
  0
LINE
  5
12936
330
18
100
AcDbEntity
  8
P-0000
  6
Continuous
 62
    22
100
AcDbLine
 10
267.086177922165
 20
305.8838142210998
 30
0.0
 11
267.086177922165
 21
303.7707965809268
 31
0.0
  0
LINE
  5
12937
330
18
100
AcDbEntity
  8
P-0000
  6
Continuous
 62
    22
100
AcDbLine
 10
267.086177922165
 20
303.7707965809268
 30
0.0
 11
263.9870853832563
 21
303.7707965809268
 31
0.0
  0
LINE
  5
12938
330
18
100
AcDbEntity
  8
P-0000
  6
Continuous
 62
    22
100
AcDbLine
 10
263.9870853832563
 20
303.7707965809268
 30
0.0
 11
262.5079730351554
 21
307.9968318612728
 31
0.0
  0
LINE
  5
12939
330
18
100
AcDbEntity
  8
P-0000
  6
Continuous
 62
    22
100
AcDbLine
 10
262.5079730351554
 20
307.9968318612728
 30
0.0
 11
261.8036338217625
 21
307.9968318612728
 31
0.0
  0
LINE
  5
1293A
330
18
100
AcDbEntity
  8
P-0000
  6
Continuous
 62
    22
100
AcDbLine
 10
261.8036338217625
 20
307.9968318612728
 30
0.0
 11
261.8036338217625
 21
305.8838142210998
 31
0.0
  0
LINE
  5
1293B
330
18
100
AcDbEntity
  8
P-0000
  6
Continuous
 62
    22
100
AcDbLine
 10
261.8036338217625
 20
305.8838142210998
 30
0.0
 11
262.5079730351554
 21
305.8838142210998
 31
0.0
  0
LINE
  5
1293C
330
18
100
AcDbEntity
  8
P-0000
  6
Continuous
 62
    22
100
AcDbLine
 10
262.5079730351554
 20
305.8838142210998
 30
0.0
 11
262.5079730351554
 21
303.7707965809268
 31
0.0
  0
LINE
  5
1293D
330
18
100
AcDbEntity
  8
P-0000
  6
Continuous
 62
    22
100
AcDbLine
 10
262.5079730351554
 20
303.7707965809268
 30
0.0
 11
257.5775985414166
 21
303.7707965809268
 31
0.0
  0
LINE
  5
1293E
330
18
100
AcDbEntity
  8
P-0000
  6
Continuous
 62
    22
100
AcDbLine
 10
257.5775985414166
 20
303.7707965809268
 30
0.0
 11
257.5775985414166
 21
305.8838142210998
 31
0.0
  0
LINE
  5
1293F
330
18
100
AcDbEntity
  8
P-0000
  6
Continuous
 62
    22
100
AcDbLine
 10
247.7168495539427
 20
298.4882524805098
 30
0.0
 11
267.4383475288905
 21
298.4882524805098
 31
0.0
  0
LINE
  5
12940
330
18
100
AcDbEntity
  8
P-0000
  6
Continuous
 62
    22
100
AcDbLine
 10
267.4383475288905
 20
298.4882524805098
 30
0.0
 11
267.4383475288905
 21
318.2097504554276
 31
0.0
  0
LINE
  5
12941
330
18
100
AcDbEntity
  8
P-0000
  6
Continuous
 62
    22
100
AcDbLine
 10
267.4383475288905
 20
318.2097504554276
 30
0.0
 11
247.7168495539427
 21
318.2097504554276
 31
0.0
  0
LINE
  5
12942
330
18
100
AcDbEntity
  8
P-0000
  6
Continuous
 62
    22
100
AcDbLine
 10
247.7168495539427
 20
318.2097504554276
 30
0.0
 11
247.7168495539427
 21
298.4882524805098
 31
0.0
  0
LINE
  5
12943
330
18
100
AcDbEntity
  8
P-0000
  6
Continuous
 62
    22
100
AcDbLine
 10
288.9206935372877
 20
310.8141887148377
 30
0.0
 11
288.9206935372877
 21
312.9272063549961
 31
0.0
  0
LINE
  5
12944
330
18
100
AcDbEntity
  8
P-0000
  6
Continuous
 62
    22
100
AcDbLine
 10
288.9206935372877
 20
312.9272063549961
 30
0.0
 11
293.8510680310264
 21
312.9272063549961
 31
0.0
  0
LINE
  5
12945
330
18
100
AcDbEntity
  8
P-0000
  6
Continuous
 62
    22
100
AcDbLine
 10
293.8510680310264
 20
312.9272063549961
 30
0.0
 11
293.8510680310264
 21
310.8141887148377
 31
0.0
  0
LINE
  5
12946
330
18
100
AcDbEntity
  8
P-0000
  6
Continuous
 62
    22
100
AcDbLine
 10
293.8510680310264
 20
310.8141887148377
 30
0.0
 11
293.1467288176336
 21
310.8141887148377
 31
0.0
  0
LINE
  5
12947
330
18
100
AcDbEntity
  8
P-0000
  6
Continuous
 62
    22
100
AcDbLine
 10
293.1467288176336
 20
310.8141887148377
 30
0.0
 11
293.1467288176336
 21
308.8994498806314
 31
0.0
  0
LINE
  5
12948
330
18
100
AcDbEntity
  8
P-0000
  6
Continuous
 62
    22
100
AcDbLine
 10
293.1467288176336
 20
308.8994498806314
 30
0.0
 11
294.9075768510793
 21
310.8141887148377
 31
0.0
  0
LINE
  5
12949
330
18
100
AcDbEntity
  8
P-0000
  6
Continuous
 62
    22
100
AcDbLine
 10
294.9075768510793
 20
310.8141887148377
 30
0.0
 11
294.2032376376901
 21
310.8141887148377
 31
0.0
  0
LINE
  5
1294A
330
18
100
AcDbEntity
  8
P-0000
  6
Continuous
 62
    22
100
AcDbLine
 10
294.2032376376901
 20
310.8141887148377
 30
0.0
 11
294.2032376376901
 21
312.9272063549961
 31
0.0
  0
LINE
  5
1294B
330
18
100
AcDbEntity
  8
P-0000
  6
Continuous
 62
    22
100
AcDbLine
 10
294.2032376376901
 20
312.9272063549961
 30
0.0
 11
298.4292729180361
 21
312.9272063549961
 31
0.0
  0
LINE
  5
1294C
330
18
100
AcDbEntity
  8
P-0000
  6
Continuous
 62
    22
100
AcDbLine
 10
298.4292729180361
 20
312.9272063549961
 30
0.0
 11
298.4292729180361
 21
310.8141887148377
 31
0.0
  0
LINE
  5
1294D
330
18
100
AcDbEntity
  8
P-0000
  6
Continuous
 62
    22
100
AcDbLine
 10
298.4292729180361
 20
310.8141887148377
 30
0.0
 11
297.7249337046433
 21
310.8141887148377
 31
0.0
  0
LINE
  5
1294E
330
18
100
AcDbEntity
  8
P-0000
  6
Continuous
 62
    22
100
AcDbLine
 10
297.7249337046433
 20
310.8141887148377
 30
0.0
 11
296.0203922307865
 21
308.960677399572
 31
0.0
  0
LINE
  5
1294F
330
18
100
AcDbEntity
  8
P-0000
  6
Continuous
 62
    22
100
AcDbLine
 10
296.0203922307865
 20
308.960677399572
 30
0.0
 11
298.0771033113106
 21
305.8838142210998
 31
0.0
  0
LINE
  5
12950
330
18
100
AcDbEntity
  8
P-0000
  6
Continuous
 62
    22
100
AcDbLine
 10
298.0771033113106
 20
305.8838142210998
 30
0.0
 11
298.7814425247616
 21
305.8838142210998
 31
0.0
  0
LINE
  5
12951
330
18
100
AcDbEntity
  8
P-0000
  6
Continuous
 62
    22
100
AcDbLine
 10
298.7814425247616
 20
305.8838142210998
 30
0.0
 11
298.7814425247616
 21
303.7707965809268
 31
0.0
  0
LINE
  5
12952
330
18
100
AcDbEntity
  8
P-0000
  6
Continuous
 62
    22
100
AcDbLine
 10
298.7814425247616
 20
303.7707965809268
 30
0.0
 11
294.2032376376901
 21
303.7707965809268
 31
0.0
  0
LINE
  5
12953
330
18
100
AcDbEntity
  8
P-0000
  6
Continuous
 62
    22
100
AcDbLine
 10
294.2032376376901
 20
303.7707965809268
 30
0.0
 11
294.2032376376901
 21
305.8838142210998
 31
0.0
  0
LINE
  5
12954
330
18
100
AcDbEntity
  8
P-0000
  6
Continuous
 62
    22
100
AcDbLine
 10
294.2032376376901
 20
305.8838142210998
 30
0.0
 11
294.9075768510793
 21
305.8838142210998
 31
0.0
  0
LINE
  5
12955
330
18
100
AcDbEntity
  8
P-0000
  6
Continuous
 62
    22
100
AcDbLine
 10
294.9075768510793
 20
305.8838142210998
 30
0.0
 11
293.1467288176336
 21
308.5180629146926
 31
0.0
  0
LINE
  5
12956
330
18
100
AcDbEntity
  8
P-0000
  6
Continuous
 62
    22
100
AcDbLine
 10
293.1467288176336
 20
308.5180629146926
 30
0.0
 11
293.1467288176336
 21
305.8838142210998
 31
0.0
  0
LINE
  5
12957
330
18
100
AcDbEntity
  8
P-0000
  6
Continuous
 62
    22
100
AcDbLine
 10
293.1467288176336
 20
305.8838142210998
 30
0.0
 11
293.8510680310264
 21
305.8838142210998
 31
0.0
  0
LINE
  5
12958
330
18
100
AcDbEntity
  8
P-0000
  6
Continuous
 62
    22
100
AcDbLine
 10
293.8510680310264
 20
305.8838142210998
 30
0.0
 11
293.8510680310264
 21
303.7707965809268
 31
0.0
  0
LINE
  5
12959
330
18
100
AcDbEntity
  8
P-0000
  6
Continuous
 62
    22
100
AcDbLine
 10
293.8510680310264
 20
303.7707965809268
 30
0.0
 11
288.9206935372877
 21
303.7707965809268
 31
0.0
  0
LINE
  5
1295A
330
18
100
AcDbEntity
  8
P-0000
  6
Continuous
 62
    22
100
AcDbLine
 10
288.9206935372877
 20
303.7707965809268
 30
0.0
 11
288.9206935372877
 21
305.8838142210998
 31
0.0
  0
LINE
  5
1295B
330
18
100
AcDbEntity
  8
P-0000
  6
Continuous
 62
    22
100
AcDbLine
 10
288.9206935372877
 20
305.8838142210998
 30
0.0
 11
289.6250327506805
 21
305.8838142210998
 31
0.0
  0
LINE
  5
1295C
330
18
100
AcDbEntity
  8
P-0000
  6
Continuous
 62
    22
100
AcDbLine
 10
289.6250327506805
 20
305.8838142210998
 30
0.0
 11
289.6250327506805
 21
310.8141887148377
 31
0.0
  0
LINE
  5
1295D
330
18
100
AcDbEntity
  8
P-0000
  6
Continuous
 62
    22
100
AcDbLine
 10
289.6250327506805
 20
310.8141887148377
 30
0.0
 11
288.9206935372877
 21
310.8141887148377
 31
0.0
  0
LINE
  5
1295E
330
18
100
AcDbEntity
  8
P-0000
  6
Continuous
 62
    22
100
AcDbLine
 10
288.9206935372877
 20
310.8141887148377
 30
0.0
 11
289.6250327506805
 21
310.8141887148377
 31
0.0
  0
LINE
  5
1295F
330
18
100
AcDbEntity
  8
P-0000
  6
Continuous
 62
    22
100
AcDbLine
 10
288.5685239305622
 20
318.2097504554276
 30
0.0
 11
288.5685239305622
 21
298.4882524805098
 31
0.0
  0
LINE
  5
12960
330
18
100
AcDbEntity
  8
P-0000
  6
Continuous
 62
    22
100
AcDbLine
 10
288.5685239305622
 20
298.4882524805098
 30
0.0
 11
308.29002190551
 21
298.4882524805098
 31
0.0
  0
LINE
  5
12961
330
18
100
AcDbEntity
  8
P-0000
  6
Continuous
 62
    22
100
AcDbLine
 10
308.29002190551
 20
298.4882524805098
 30
0.0
 11
308.29002190551
 21
318.2097504554276
 31
0.0
  0
LINE
  5
12962
330
18
100
AcDbEntity
  8
P-0000
  6
Continuous
 62
    22
100
AcDbLine
 10
308.29002190551
 20
318.2097504554276
 30
0.0
 11
288.5685239305622
 21
318.2097504554276
 31
0.0
  0
LINE
  5
12963
330
18
100
AcDbEntity
  8
P-0000
  6
Continuous
 62
    22
100
AcDbLine
 10
278.0034357296954
 20
310.8141887148377
 30
0.0
 11
278.0034357296954
 21
312.9272063549961
 31
0.0
  0
LINE
  5
12964
330
18
100
AcDbEntity
  8
P-0000
  6
Continuous
 62
    22
100
AcDbLine
 10
278.0034357296954
 20
312.9272063549961
 30
0.0
 11
281.3238920214408
 21
312.9272063549961
 31
0.0
  0
LINE
  5
12965
330
18
100
AcDbEntity
  8
P-0000
  6
Continuous
 62
    22
100
AcDbLine
 10
281.3238920214408
 20
312.9272063549961
 30
0.0
 11
284.3424886502162
 21
308.7011710746647
 31
0.0
  0
LINE
  5
12966
330
18
100
AcDbEntity
  8
P-0000
  6
Continuous
 62
    22
100
AcDbLine
 10
284.3424886502162
 20
308.7011710746647
 30
0.0
 11
284.3424886502162
 21
310.8141887148377
 31
0.0
  0
LINE
  5
12967
330
18
100
AcDbEntity
  8
P-0000
  6
Continuous
 62
    22
100
AcDbLine
 10
284.3424886502162
 20
310.8141887148377
 30
0.0
 11
283.6381494368234
 21
310.8141887148377
 31
0.0
  0
LINE
  5
12968
330
18
100
AcDbEntity
  8
P-0000
  6
Continuous
 62
    22
100
AcDbLine
 10
283.6381494368234
 20
310.8141887148377
 30
0.0
 11
283.6381494368234
 21
312.9272063549961
 31
0.0
  0
LINE
  5
12969
330
18
100
AcDbEntity
  8
P-0000
  6
Continuous
 62
    22
100
AcDbLine
 10
283.6381494368234
 20
312.9272063549961
 30
0.0
 11
287.1598455037802
 21
312.9272063549961
 31
0.0
  0
LINE
  5
1296A
330
18
100
AcDbEntity
  8
P-0000
  6
Continuous
 62
    22
100
AcDbLine
 10
287.1598455037802
 20
312.9272063549961
 30
0.0
 11
287.1598455037802
 21
310.8141887148377
 31
0.0
  0
LINE
  5
1296B
330
18
100
AcDbEntity
  8
P-0000
  6
Continuous
 62
    22
100
AcDbLine
 10
287.1598455037802
 20
310.8141887148377
 30
0.0
 11
286.4555062903873
 21
310.8141887148377
 31
0.0
  0
LINE
  5
1296C
330
18
100
AcDbEntity
  8
P-0000
  6
Continuous
 62
    22
100
AcDbLine
 10
286.4555062903873
 20
310.8141887148377
 30
0.0
 11
286.4555062903873
 21
303.7707965809268
 31
0.0
  0
LINE
  5
1296D
330
18
100
AcDbEntity
  8
P-0000
  6
Continuous
 62
    22
100
AcDbLine
 10
286.4555062903873
 20
303.7707965809268
 30
0.0
 11
284.3424886502162
 21
303.7707965809268
 31
0.0
  0
LINE
  5
1296E
330
18
100
AcDbEntity
  8
P-0000
  6
Continuous
 62
    22
100
AcDbLine
 10
284.3424886502162
 20
303.7707965809268
 30
0.0
 11
280.8207925832594
 21
308.7011710746647
 31
0.0
  0
LINE
  5
1296F
330
18
100
AcDbEntity
  8
P-0000
  6
Continuous
 62
    22
100
AcDbLine
 10
280.8207925832594
 20
308.7011710746647
 30
0.0
 11
280.8207925832594
 21
305.8838142210998
 31
0.0
  0
LINE
  5
12970
330
18
100
AcDbEntity
  8
P-0000
  6
Continuous
 62
    22
100
AcDbLine
 10
280.8207925832594
 20
305.8838142210998
 30
0.0
 11
281.5251317966522
 21
305.8838142210998
 31
0.0
  0
LINE
  5
12971
330
18
100
AcDbEntity
  8
P-0000
  6
Continuous
 62
    22
100
AcDbLine
 10
281.5251317966522
 20
305.8838142210998
 30
0.0
 11
281.5251317966522
 21
303.7707965809268
 31
0.0
  0
LINE
  5
12972
330
18
100
AcDbEntity
  8
P-0000
  6
Continuous
 62
    22
100
AcDbLine
 10
281.5251317966522
 20
303.7707965809268
 30
0.0
 11
278.0034357296954
 21
303.7707965809268
 31
0.0
  0
LINE
  5
12973
330
18
100
AcDbEntity
  8
P-0000
  6
Continuous
 62
    22
100
AcDbLine
 10
278.0034357296954
 20
303.7707965809268
 30
0.0
 11
278.0034357296954
 21
305.8838142210998
 31
0.0
  0
LINE
  5
12974
330
18
100
AcDbEntity
  8
P-0000
  6
Continuous
 62
    22
100
AcDbLine
 10
278.0034357296954
 20
305.8838142210998
 30
0.0
 11
278.7077749430882
 21
305.8838142210998
 31
0.0
  0
LINE
  5
12975
330
18
100
AcDbEntity
  8
P-0000
  6
Continuous
 62
    22
100
AcDbLine
 10
278.7077749430882
 20
305.8838142210998
 30
0.0
 11
278.7077749430882
 21
310.8141887148377
 31
0.0
  0
LINE
  5
12976
330
18
100
AcDbEntity
  8
P-0000
  6
Continuous
 62
    22
100
AcDbLine
 10
278.7077749430882
 20
310.8141887148377
 30
0.0
 11
278.0034357296954
 21
310.8141887148377
 31
0.0
  0
LINE
  5
12977
330
18
100
AcDbEntity
  8
P-0000
  6
Continuous
 62
    22
100
AcDbLine
 10
278.0034357296954
 20
310.8141887148377
 30
0.0
 11
278.7077749430882
 21
310.8141887148377
 31
0.0
  0
LINE
  5
12978
330
18
100
AcDbEntity
  8
P-0000
  6
Continuous
 62
    22
100
AcDbLine
 10
299.1336121314289
 20
305.8838142210998
 30
0.0
 11
299.8379513448181
 21
305.8838142210998
 31
0.0
  0
LINE
  5
12979
330
18
100
AcDbEntity
  8
P-0000
  6
Continuous
 62
    22
100
AcDbLine
 10
299.8379513448181
 20
305.8838142210998
 30
0.0
 11
299.1336121314289
 21
305.8838142210998
 31
0.0
  0
LINE
  5
1297A
330
18
100
AcDbEntity
  8
P-0000
  6
Continuous
 62
    22
100
AcDbLine
 10
299.1336121314289
 20
305.8838142210998
 30
0.0
 11
299.1336121314289
 21
303.7707965809268
 31
0.0
  0
LINE
  5
1297B
330
18
100
AcDbEntity
  8
P-0000
  6
Continuous
 62
    22
100
AcDbLine
 10
299.1336121314289
 20
303.7707965809268
 30
0.0
 11
307.5856826921208
 21
303.7707965809268
 31
0.0
  0
LINE
  5
1297C
330
18
100
AcDbEntity
  8
P-0000
  6
Continuous
 62
    22
100
AcDbLine
 10
307.5856826921208
 20
303.7707965809268
 30
0.0
 11
307.5856826921208
 21
306.5881534344917
 31
0.0
  0
LINE
  5
1297D
330
18
100
AcDbEntity
  8
P-0000
  6
Continuous
 62
    22
100
AcDbLine
 10
307.5856826921208
 20
306.5881534344917
 30
0.0
 11
305.472665051946
 21
306.5881534344917
 31
0.0
  0
LINE
  5
1297E
330
18
100
AcDbEntity
  8
P-0000
  6
Continuous
 62
    22
100
AcDbLine
 10
305.472665051946
 20
306.5881534344917
 30
0.0
 11
305.472665051946
 21
305.8838142210998
 31
0.0
  0
LINE
  5
1297F
330
18
100
AcDbEntity
  8
P-0000
  6
Continuous
 62
    22
100
AcDbLine
 10
305.472665051946
 20
305.8838142210998
 30
0.0
 11
303.3596474117749
 21
305.8838142210998
 31
0.0
  0
LINE
  5
12980
330
18
100
AcDbEntity
  8
P-0000
  6
Continuous
 62
    22
100
AcDbLine
 10
303.3596474117749
 20
305.8838142210998
 30
0.0
 11
303.3596474117749
 21
307.5037944119058
 31
0.0
  0
LINE
  5
12981
330
18
100
AcDbEntity
  8
P-0000
  6
Continuous
 62
    22
100
AcDbLine
 10
303.3596474117749
 20
307.5037944119058
 30
0.0
 11
304.7683258385569
 21
307.5037944119058
 31
0.0
  0
LINE
  5
12982
330
18
100
AcDbEntity
  8
P-0000
  6
Continuous
 62
    22
100
AcDbLine
 10
304.7683258385569
 20
307.5037944119058
 30
0.0
 11
304.7683258385569
 21
309.1942085240316
 31
0.0
  0
LINE
  5
12983
330
18
100
AcDbEntity
  8
P-0000
  6
Continuous
 62
    22
100
AcDbLine
 10
304.7683258385569
 20
309.1942085240316
 30
0.0
 11
303.3596474117749
 21
309.1942085240316
 31
0.0
  0
LINE
  5
12984
330
18
100
AcDbEntity
  8
P-0000
  6
Continuous
 62
    22
100
AcDbLine
 10
303.3596474117749
 20
309.1942085240316
 30
0.0
 11
303.3596474117749
 21
310.8141887148377
 31
0.0
  0
LINE
  5
12985
330
18
100
AcDbEntity
  8
P-0000
  6
Continuous
 62
    22
100
AcDbLine
 10
303.3596474117749
 20
310.8141887148377
 30
0.0
 11
305.472665051946
 21
310.8141887148377
 31
0.0
  0
LINE
  5
12986
330
18
100
AcDbEntity
  8
P-0000
  6
Continuous
 62
    22
100
AcDbLine
 10
305.472665051946
 20
310.8141887148377
 30
0.0
 11
305.472665051946
 21
310.1098495014458
 31
0.0
  0
LINE
  5
12987
330
18
100
AcDbEntity
  8
P-0000
  6
Continuous
 62
    22
100
AcDbLine
 10
305.472665051946
 20
310.1098495014458
 30
0.0
 11
307.5856826921208
 21
310.1098495014458
 31
0.0
  0
LINE
  5
12988
330
18
100
AcDbEntity
  8
P-0000
  6
Continuous
 62
    22
100
AcDbLine
 10
307.5856826921208
 20
310.1098495014458
 30
0.0
 11
307.5856826921208
 21
312.9272063549961
 31
0.0
  0
LINE
  5
12989
330
18
100
AcDbEntity
  8
P-0000
  6
Continuous
 62
    22
100
AcDbLine
 10
307.5856826921208
 20
312.9272063549961
 30
0.0
 11
299.1336121314289
 21
312.9272063549961
 31
0.0
  0
LINE
  5
1298A
330
18
100
AcDbEntity
  8
P-0000
  6
Continuous
 62
    22
100
AcDbLine
 10
299.1336121314289
 20
312.9272063549961
 30
0.0
 11
299.1336121314289
 21
310.8141887148377
 31
0.0
  0
LINE
  5
1298B
330
18
100
AcDbEntity
  8
P-0000
  6
Continuous
 62
    22
100
AcDbLine
 10
299.1336121314289
 20
310.8141887148377
 30
0.0
 11
299.8379513448181
 21
310.8141887148377
 31
0.0
  0
LINE
  5
1298C
330
18
100
AcDbEntity
  8
P-0000
  6
Continuous
 62
    22
100
AcDbLine
 10
299.8379513448181
 20
310.8141887148377
 30
0.0
 11
299.8379513448181
 21
305.8838142210998
 31
0.0
  0
TEXT
  5
1298D
330
18
100
AcDbEntity
  8
P-0000
  6
Continuous
 62
    22
100
AcDbText
 10
328.1208439284783
 20
308.8963998572317
 30
0.0
 40
9.0
  1
CUT-OUT TEMPLATE FOR ELG120
  7
Franke
100
AcDbText
1001
TOP
1070
     1
  0
MTEXT
  5
1298E
330
18
100
AcDbEntity
  8
P-0000
  6
Continuous
 62
    22
100
AcDbMText
 10
249.1807399201589
 20
270.1697764431092
 30
0.0
 40
5.022394538402071
 41
74.09365619278912
 46
0.0
 71
     7
 72
     5
  1
Questions?  Call Franke Customer Service USA 1-800-626-5771
  7
Franke
 73
     2
 44
0.9035999999999999
1001
TOP
1070
    22
  0
DIMENSION
  5
12990
330
18
100
AcDbEntity
  8
0
100
AcDbDimension
280
     0
  2
*D3
 10
996.4230389891552
 20
-6.491506374158234
 30
0.0
 11
888.8739706495906
 21
-6.491506374158234
 31
0.0
 70
   160
  1
{\H0.28571x;30-1/2"}
 71
     5
 42
774.7129999999731
 73
     0
 74
     0
 75
     0
  3
Lead of KS-STANDARD$0
100
AcDbAlignedDimension
 13
221.7100389891821
 23
-51.12424684112713
 33
0.0
 14
996.4230389891552
 24
-51.12424684112703
 34
0.0
100
AcDbRotatedDimension
1001
ACAD
1000
DSTYLE
1002
{
1070
   176
1070
     1
1070
   178
1070
     1
1002
}
1001
ACAD_DSTYLE_DIMINSPECT
1070
   396
1000
100%
1070
   395
1000

1070
   394
1070
    33
1070
   393
1070
     0
  0
DIMENSION
  5
12991
330
18
100
AcDbEntity
  8
0
100
AcDbDimension
280
     0
  2
*D4
 10
997.9075305357477
 20
-71.46726419345847
 30
0.0
 11
908.3976388475557
 21
-47.71655279049428
 31
0.0
 70
   164
  1
R 25mm
 71
     5
 42
11.9999999999967
 73
     0
 74
     0
 75
     0
  3
Lead of KS-STANDARD
100
AcDbRadialDimension
 15
986.4887175247158
 25
-67.77799469679564
 35
0.0
 40
0.0
1001
ACAD_DSTYLE_DIMRADIAL_EXTENSION
1070
   387
1070
     1
1070
   388
1040
3.141592653589793
1070
   390
1040
4.712388980384689
1001
ACAD_DSTYLE_DIMINSPECT
1070
   396
1000
100%
1070
   395
1000

1070
   394
1070
    33
1070
   393
1070
     0
1001
ACAD
1000
DSTYLE
1002
{
1070
   140
1040
0.7
1070
   176
1070
     1
1070
   178
1070
     1
1070
   288
1070
     1
1002
}
  0
ARC
  5
12C7B
330
18
100
AcDbEntity
  8
0
100
AcDbCircle
 10
403.9165635536562
 20
-388.9232380421873
 30
0.0
 40
750.960366520514
100
AcDbArc
 50
89.6773538416807
 51
102.5066013401152
  0
ARC
  5
12C7C
330
18
100
AcDbEntity
  8
0
100
AcDbCircle
 10
806.1550025892755
 20
-388.204842600683
 30
0.0
 40
750.2334223933709
100
AcDbArc
 50
89.82857081796081
 51
102.6460531559117
  0
DIMENSION
  5
12CBC
330
18
100
AcDbEntity
  8
0
100
AcDbDimension
280
     0
  2
*D5
 10
808.3997003862281
 20
-79.29924684112698
 30
0.0
 11
808.3997003862281
 21
243.8345872183172
 31
0.0
 70
   160
  1
{\H0.28571x;17-3/8"}
 71
     5
 42
441.324468559297
 73
     0
 74
     0
 75
     0
  3
Lead of KS-STANDARD$0
100
AcDbAlignedDimension
 13
806.811700386239
 23
362.0252217181701
 33
0.0
 14
968.2470389891667
 24
-79.29924684112703
 34
0.0
 50
90.0
100
AcDbRotatedDimension
1001
ACAD
1000
DSTYLE
1002
{
1070
   176
1070
     1
1070
   178
1070
     1
1002
}
1001
ACAD_DSTYLE_DIMINSPECT
1070
   396
1000
100%
1070
   395
1000

1070
   394
1070
    33
1070
   393
1070
     0
  0
LINE
  5
12D6B
330
18
100
AcDbEntity
  8
0
100
AcDbLine
 39
0.4
 10
996.423038989155
 20
319.8112414955576
 30
0.0
 11
996.423038989155
 21
40.59078336084894
 31
0.0
  0
LINE
  5
12D6C
330
18
100
AcDbEntity
  8
0
100
AcDbLine
 39
0.4
 10
221.7100389891819
 20
319.8112414955575
 30
0.0
 11
221.710038989182
 21
40.59078336084882
 31
0.0
  0
LINE
  5
12E4D
330
18
100
AcDbEntity
  8
0
100
AcDbLine
 39
0.4
 10
996.423038989155
 20
40.59078336084894
 30
0.0
 11
996.423038989155
 21
-54.29924684112702
 31
0.0
  0
LINE
  5
12E4E
330
18
100
AcDbEntity
  8
0
100
AcDbLine
 39
0.4
 10
221.710038989182
 20
40.59078336084882
 30
0.0
 11
221.7100389891821
 21
-54.29924684112713
 31
0.0
  0
LINE
  5
12F5E
330
18
100
AcDbEntity
  8
0
100
AcDbLine
 39
0.4
 10
605.8905389891822
 20
-79.29924684112712
 30
0.0
 11
971.423038989155
 21
-79.29924684112702
 31
0.0
  0
MTEXT
  5
13292
330
18
100
AcDbEntity
  8
P-0000
  6
Continuous
 62
    22
100
AcDbMText
 10
242.5924388701587
 20
-62.91165156218994
 30
0.0
 40
5.022394538402071
 41
74.09365619278912
 46
0.0
 71
     7
 72
     5
  1
TEM-ELG120
  7
Franke
 73
     2
 44
0.9035999999999999
1001
TOP
1070
    22
  0
MTEXT
  5
13374
102
{ACAD_XDICTIONARY
360
13375
102
}
330
18
100
AcDbEntity
  8
P-0000
  6
Continuous
 62
    22
100
AcDbMText
 10
328.6746327001854
 20
291.5708944316541
 30
0.0
 40
5.5
 41
228.7030505324378
 46
0.0
 71
     1
 72
     5
  3
\pi-16.5,l16.5,t16.5;Any deviation from this template could prevent the homeowner from being able to\Puse the Franke custom fit accessories that match this sink, so we strongly\Precommend following this cutout template.\P\PClosely follow installation
  3
 instructions before making any cuts to countertop\P\PThis template file, like any template, is meant to be a guideline.  The actual sink\Pand accessories should ALWAYS be present to ensure a perfect cut.\P\pi0,l0,tz;\PFRANKE IS NOT RESPONSIBLE FOR A
  1
N IMPROPERLY CUT COUNTERTOP OR \PAN IMPROPER INSTALLATION\P
  7
Franke
 73
     1
 44
1.0
1001
ACAD
1000
ACAD_MTEXT_COLUMN_INFO_BEGIN
1070
    75
1070
     2
1070
    79
1070
     0
1070
    76
1070
     1
1070
    78
1070
     0
1070
    48
1040
228.7030505324378
1070
    49
1040
15.0
1070
    50
1070
     1
1040
163.6401225953889
1000
ACAD_MTEXT_COLUMN_INFO_END
  0
VIEWPORT
  5
3D
330
15
100
AcDbEntity
 67
     1
  8
0
100
AcDbViewport
 10
525.4176843747195
 20
279.7222346914865
 30
0.0
 40
1147.802566469685
 41
564.0170846000123
 68
     1
 69
     1
 12
525.4176843747195
 22
279.7222346914865
 13
0.0
 23
0.0
 14
0.5
 24
0.5
 15
0.5
 25
0.5
 16
0.0
 26
0.0
 36
1.0
 17
0.0
 27
0.0
 37
0.0
 42
50.0
 43
0.0
 44
0.0
 45
564.0170846000123
 50
0.0
 51
0.0
 72
   100
 90
    32800
  1

281
     0
 71
     1
 74
     0
110
0.0
120
0.0
130
0.0
111
1.0
121
0.0
131
0.0
112
0.0
122
1.0
132
0.0
 79
     0
146
0.0
170
     0
 61
     5
348
1032C
292
     1
282
     1
141
0.0
142
0.0
 63
   250
421
  3355443
1001
GENIUS_GENSCREG_15
1000
PF
1040
1.0
1000
DF
1040
1.0
1000
MIN
1011
-48.48359886012326
1021
-2.286307608519678
1031
0.0
1000
MAX
1011
1099.318967609562
1021
561.7307769914926
1031
0.0
1000
FLAGS
1070
     4
1001
GENIUS_GENOBJ-N-SDF_13
1002
{
1000
OWNER
1000
GEN
1002
}
1001
GENIUS_GENODEF_13
1002
{
1000
HIER
1070
     0
1002
}
1002
{
1000
MANEDIT
1070
     0
1002
}
1002
{
1000
NOSEL
1070
     0
1002
}
1002
{
1000
BEHIND
1070
     0
1002
}
1002
{
1000
OTHER
1070
     0
1002
}
1002
{
1000
REACTOR
1002
}
  0
VIEWPORT
  5
91
330
15
100
AcDbEntity
 67
     1
  8
VP
100
AcDbViewport
 10
413.0
 20
268.0
 30
0.0
 40
826.0
 41
536.0
 68
     2
 69
     2
 12
773.7532502270989
 22
13.63697416495284
 13
0.0
 23
0.0
 14
0.5
 24
0.5
 15
0.5
 25
0.5
 16
0.0
 26
0.0
 36
1.0
 17
0.0
 27
0.0
 37
0.0
 42
50.0
 43
0.0
 44
0.0
 45
1072.000000972193
 50
0.0
 51
0.0
 72
   100
 90
    32800
  1

281
     0
 71
     1
 74
     0
110
0.0
120
0.0
130
0.0
111
1.0
121
0.0
131
0.0
112
0.0
122
1.0
132
0.0
 79
     0
146
0.0
170
     0
 61
     5
348
1032C
292
     1
282
     1
141
0.0
142
0.0
 63
   250
421
  3355443
1001
GENIUS_GENSCREG_15
1000
PF
1040
0.0
1000
DF
1040
0.0
1000
MIN
1011
0.0
1021
0.0
1031
0.0
1000
MAX
1011
826.0
1021
536.0
1031
0.0
1000
FLAGS
1070
     4
1001
GENIUS_GENOBJ-N-SDF_13
1002
{
1000
OWNER
1000
GEN
1002
}
1001
GENIUS_GENODEF_13
1002
{
1000
HIER
1070
     0
1002
}
1002
{
1000
MANEDIT
1070
     0
1002
}
1002
{
1000
NOSEL
1070
     0
1002
}
1002
{
1000
BEHIND
1070
     0
1002
}
1002
{
1000
OTHER
1070
     0
1002
}
1002
{
1000
REACTOR
1002
}
  0
TEXT
  5
C3
330
15
100
AcDbEntity
 67
     1
  8
SHEET
100
AcDbText
 10
643.6074401272232
 20
29.1462164538458
 30
0.0
 40
7.0
  1
CARRON PHOENIX LIMITED
 41
1.25
  7
TITLE
100
AcDbText
  0
TEXT
  5
C4
330
15
100
AcDbEntity
 67
     1
  8
SHEET
100
AcDbText
 10
686.277084038376
 20
9.996084583200172
 30
0.0
 40
3.0
  1
T. PATON
100
AcDbText
  0
TEXT
  5
C5
330
15
100
AcDbEntity
 67
     1
  8
SHEET
100
AcDbText
 10
632.8414978404748
 20
9.996084583200172
 30
0.0
 40
3.0
  1
SCALE
100
AcDbText
  0
TEXT
  5
C6
330
15
100
AcDbEntity
 67
     1
  8
SHEET
100
AcDbText
 10
661.9584781159993
 20
20.99891592694101
 30
0.0
 40
4.0
  1
FALKIRK
 41
1.25
  7
TITLE
100
AcDbText
  0
TEXT
  5
C7
330
15
100
AcDbEntity
 67
     1
  8
SHEET
100
AcDbText
 10
660.8840537883387
 20
9.996084583200172
 30
0.0
 40
3.0
  1
DRN.
100
AcDbText
  0
TEXT
  5
C8
330
15
100
AcDbEntity
 67
     1
  8
SHEET
100
AcDbText
 10
741.4796427340283
 20
20.99891592694101
 30
0.0
 40
4.0
  1
SCOTLAND
 41
1.25
  7
TITLE
100
AcDbText
  0
TEXT
  5
C9
330
15
100
AcDbEntity
 67
     1
  8
SHEET
100
AcDbText
 10
742.0273106036347
 20
9.996084583200172
 30
0.0
 40
3.0
  1
18/02/15
100
AcDbText
  0
TEXT
  5
CA
330
15
100
AcDbEntity
 67
     1
  8
SHEET
100
AcDbText
 10
718.9266097362026
 20
9.996084583200172
 30
0.0
 40
3.0
  1
DATE
100
AcDbText
  0
TEXT
  5
CB
330
15
100
AcDbEntity
 67
     1
  8
SHEET
100
AcDbText
 10
768.4372487231684
 20
9.996084583200172
 30
0.0
 40
3.0
  1
DWG. No.
100
AcDbText
  0
TEXT
  5
CD
330
15
100
AcDbEntity
 67
     1
  8
SHEET
100
AcDbText
 10
707.7772917306797
 20
55.45675693379303
 30
0.0
 40
8.0
  1
ELG 12D
  7
TITLE
100
AcDbText
  0
TEXT
  5
CE
330
15
100
AcDbEntity
 67
     1
  8
SHEET
100
AcDbText
 10
628.4372487231686
 20
64.52122657551583
 30
0.0
 40
3.5
  1
TITLE
100
AcDbText
  0
LINE
  5
D0
330
15
100
AcDbEntity
 67
     1
  8
SHEET
100
AcDbLine
 10
626.0
 20
38.0
 30
0.0
 11
826.0
 21
38.0
 31
0.0
  0
LINE
  5
D1
330
15
100
AcDbEntity
 67
     1
  8
SHEET
100
AcDbLine
 10
626.0
 20
16.0
 30
0.0
 11
826.0
 21
16.0
 31
0.0
  0
LINE
  5
D2
330
15
100
AcDbEntity
 67
     1
  8
SHEET
100
AcDbLine
 10
626.0
 20
70.0
 30
0.0
 11
826.0
 21
70.0
 31
0.0
  0
LINE
  5
D3
330
15
100
AcDbEntity
 67
     1
  8
SHEET
100
AcDbLine
 10
626.0
 20
0.0
 30
0.0
 11
626.0
 21
70.0
 31
0.0
  0
LINE
  5
D4
330
15
100
AcDbEntity
 67
     1
  8
SHEET
100
AcDbLine
 10
766.0
 20
8.0
 30
0.0
 11
626.0
 21
8.0
 31
0.0
  0
TEXT
  5
D5
330
15
100
AcDbEntity
 67
     1
  8
SHEET
100
AcDbText
 10
636.0230835199595
 20
1.996084583200172
 30
0.0
 40
3.0
  1
1 : 2
100
AcDbText
  0
LINE
  5
D6
330
15
100
AcDbEntity
 67
     1
  8
SHEET
100
AcDbLine
 10
656.0
 20
16.0
 30
0.0
 11
656.0
 21
0.0
 31
0.0
  0
TEXT
  5
D7
330
15
100
AcDbEntity
 67
     1
  8
SHEET
100
AcDbText
 10
718.9266097362026
 20
1.996084583200172
 30
0.0
 40
3.0
  1
DATE
100
AcDbText
  0
LINE
  5
D8
330
15
100
AcDbEntity
 67
     1
  8
SHEET
100
AcDbLine
 10
716.0
 20
16.0
 30
0.0
 11
716.0
 21
0.0
 31
0.0
  0
LINE
  5
D9
330
15
100
AcDbEntity
 67
     1
  8
SHEET
100
AcDbLine
 10
736.0
 20
16.0
 30
0.0
 11
736.0
 21
0.0
 31
0.0
  0
LINE
  5
DA
330
15
100
AcDbEntity
 67
     1
  8
SHEET
100
AcDbLine
 10
766.0
 20
16.0
 30
0.0
 11
766.0
 21
0.0
 31
0.0
  0
TEXT
  5
14C
330
15
100
AcDbEntity
 67
     1
  8
SHEET
100
AcDbText
 10
394.3111155747608
 20
542.7165616792604
 30
0.0
 40
3.0
  1
UNTOLERANCED DIMENSIONS +/-2
  7
EUROROMAN
100
AcDbText
  0
TEXT
  5
14D
330
15
100
AcDbEntity
 67
     1
  8
SHEET
100
AcDbText
 10
394.3111155747608
 20
547.7165616792603
 30
0.0
 40
3.0
  1
UNLESS OTHERWISE SPECIFIED ALL
  7
EUROROMAN
100
AcDbText
  0
TEXT
  5
170
330
15
100
AcDbEntity
 67
     1
  8
SHEET
100
AcDbText
 10
645.7143374186281
 20
544.5964358029121
 30
0.0
 40
4.0
  1
THIRD ANGLE PROJECTION
 41
1.25
  7
TITLE
100
AcDbText
  0
TEXT
  5
171
330
15
100
AcDbEntity
 67
     1
  8
SHEET
100
AcDbText
 10
482.2548096935725
 20
542.0929519229177
 30
0.0
 40
3.0
  1
UNLESS OTHERWISE SPECIFIED
  7
TITLE
100
AcDbText
  0
TEXT
  5
172
330
15
100
AcDbEntity
 67
     1
  8
SHEET
100
AcDbText
 10
478.2731496697663
 20
547.7365066104174
 30
0.0
 40
3.0
  1
ALL DIMENSIONS IN MILLIMETRES
  7
TITLE
100
AcDbText
  0
TEXT
  5
173
330
15
100
AcDbEntity
 67
     1
  8
SHEET
100
AcDbText
 10
581.9291848841144
 20
542.0929519229177
 30
0.0
 40
3.0
  1
IF IN DOUBT ASK
  7
TITLE
100
AcDbText
  0
TEXT
  5
174
330
15
100
AcDbEntity
 67
     1
  8
SHEET
100
AcDbText
 10
560.6918259577939
 20
547.7365066104174
 30
0.0
 40
3.0
  1
DO NOT SCALE FROM THIS DRAWING
  7
TITLE
100
AcDbText
  0
LINE
  5
175
330
15
100
AcDbEntity
 67
     1
  8
SHEET
100
AcDbLine
 10
776.0
 20
551.4999604751336
 30
0.0
 11
811.0
 21
553.9999604751336
 31
0.0
  0
LINE
  5
176
330
15
100
AcDbEntity
 67
     1
  8
SHEET
  6
CENTER
100
AcDbLine
 10
741.0
 20
546.4999604751336
 30
0.0
 11
816.0
 21
546.4999604751336
 31
0.0
  0
LINE
  5
177
330
15
100
AcDbEntity
 67
     1
  8
SHEET
100
AcDbLine
 10
776.0
 20
541.4999604751336
 30
0.0
 11
811.0
 21
538.9999604751336
 31
0.0
  0
CIRCLE
  5
178
330
15
100
AcDbEntity
 67
     1
  8
SHEET
100
AcDbCircle
 10
751.0
 20
546.4999604751336
 30
0.0
 40
5.0
  0
CIRCLE
  5
179
330
15
100
AcDbEntity
 67
     1
  8
SHEET
100
AcDbCircle
 10
751.0
 20
546.4999604751336
 30
0.0
 40
7.5
  0
LINE
  5
17A
330
15
100
AcDbEntity
 67
     1
  8
SHEET
  6
CENTER
100
AcDbLine
 10
751.0
 20
536.4999604751337
 30
0.0
 11
751.0
 21
556.4999604751336
 31
0.0
  0
LINE
  5
17B
330
15
100
AcDbEntity
 67
     1
  8
SHEET
100
AcDbLine
 10
776.0
 20
541.4999604751336
 30
0.0
 11
776.0
 21
551.4999604751336
 31
0.0
  0
LINE
  5
17C
330
15
100
AcDbEntity
 67
     1
  8
SHEET
100
AcDbLine
 10
811.0
 20
538.9999604751336
 30
0.0
 11
811.0
 21
553.9999604751336
 31
0.0
  0
LINE
  5
1184
330
15
100
AcDbEntity
 67
     1
  8
SHEET
100
AcDbLine
 10
676.0
 20
16.0
 30
0.0
 11
676.0
 21
0.0
 31
0.0
  0
TEXT
  5
2F5D
330
15
100
AcDbEntity
 67
     1
  8
SHEET
100
AcDbText
 10
689.1696353061774
 20
45.22399627243316
 30
0.0
 40
5.0
  1
MACHINE DIMENSIONS
  7
TITLE
100
AcDbText
  0
LINE
  5
4B8C
330
15
100
AcDbEntity
 67
     1
  8
SHEET
100
AcDbLine
 10
48.10977352972173
 20
559.0
 30
0.0
 11
48.10977352972173
 21
534.0
 31
0.0
  0
TEXT
  5
4B8F
330
15
100
AcDbEntity
 67
     1
  8
SHEET
100
AcDbText
 10
0.8543636042879256
 20
544.3549735064748
 30
0.0
 40
4.5
  1
AMENDMENTS
  7
TITLE
100
AcDbText
  0
LINE
  5
4B90
330
15
100
AcDbEntity
 67
     1
  8
SHEET
100
AcDbLine
 10
0.0
 20
559.0
 30
0.0
 11
826.0
 21
559.0
 31
0.0
  0
LINE
  5
4B97
330
15
100
AcDbEntity
 67
     1
  8
SHEET
100
AcDbLine
 10
0.0
 20
534.0
 30
0.0
 11
826.0
 21
534.0
 31
0.0
  0
LINE
  5
4B98
330
15
100
AcDbEntity
 67
     1
  8
SHEET
100
AcDbLine
 10
0.0
 20
0.0
 30
0.0
 11
0.0
 21
559.0
 31
0.0
  0
LINE
  5
4B9A
330
15
100
AcDbEntity
 67
     1
  8
SHEET
100
AcDbLine
 10
826.0
 20
0.0
 30
0.0
 11
826.0
 21
559.0
 31
0.0
  0
LINE
  5
4B9B
330
15
100
AcDbEntity
 67
     1
  8
SHEET
100
AcDbLine
 10
0.0
 20
0.0
 30
0.0
 11
826.0
 21
0.0
 31
0.0
  0
LINE
  5
5B7C
330
15
100
AcDbEntity
 67
     1
  8
SHEET
100
AcDbLine
 10
103.1097735297217
 20
559.0
 30
0.0
 11
103.1097735297217
 21
534.0
 31
0.0
  0
TEXT
  5
5B7D
330
15
100
AcDbEntity
 67
     1
  8
SHEET
100
AcDbText
 10
49.8179114701345
 20
542.5018345610635
 30
0.0
 40
3.0
  1
TP  COD321  18/02/15
  7
EUROROMAN
100
AcDbText
  0
TEXT
  5
5B7E
330
15
100
AcDbEntity
 67
     1
  8
SHEET
100
AcDbText
 10
49.8179114701345
 20
547.5018345610635
 30
0.0
 40
3.0
  1
ISSUED TO PRODUCTION
  7
EUROROMAN
100
AcDbText
  0
TEXT
  5
5B7F
330
15
100
AcDbEntity
 67
     1
  8
SHEET
100
AcDbText
 10
48.9473677858723
 20
555.6444888966905
 30
0.0
 40
3.0
  1
A
  7
EUROROMAN
100
AcDbText
  0
LINE
  5
5B80
330
15
100
AcDbEntity
 67
     1
  8
SHEET
100
AcDbLine
 10
53.10977352972173
 20
559.0
 30
0.0
 11
53.10977352972173
 21
555.0
 31
0.0
  0
LINE
  5
5B81
330
15
100
AcDbEntity
 67
     1
  8
SHEET
100
AcDbLine
 10
53.10977352972173
 20
555.0
 30
0.0
 11
48.10977352972173
 21
555.0
 31
0.0
  0
TEXT
  5
96AA
330
15
100
AcDbEntity
 67
     1
  8
SHEET
100
AcDbText
 10
792.3857929534583
 20
5.57783144135169
 30
0.0
 40
2.5
  1
ELG12D--X
100
AcDbText
  0
LINE
  5
119DA
330
15
100
AcDbEntity
 67
     1
  8
SHEET
100
AcDbLine
 10
158.1097735297217
 20
559.0
 30
0.0
 11
158.1097735297217
 21
534.0
 31
0.0
  0
TEXT
  5
119DB
330
15
100
AcDbEntity
 67
     1
  8
SHEET
100
AcDbText
 10
104.8179114701345
 20
536.1709071481254
 30
0.0
 40
3.0
  1
TP  ECN321  18/02/15
  7
EUROROMAN
100
AcDbText
  0
TEXT
  5
119DC
330
15
100
AcDbEntity
 67
     1
  8
SHEET
100
AcDbText
 10
104.8179114701345
 20
547.5018345610635
 30
0.0
 40
3.0
  1
FROM 45 DEGREES TO 
  7
EUROROMAN
100
AcDbText
  0
TEXT
  5
119DD
330
15
100
AcDbEntity
 67
     1
  8
SHEET
100
AcDbText
 10
103.9473677858723
 20
555.6444888966905
 30
0.0
 40
3.0
  1
B
  7
EUROROMAN
100
AcDbText
  0
LINE
  5
119DE
330
15
100
AcDbEntity
 67
     1
  8
SHEET
100
AcDbLine
 10
108.1097735297217
 20
559.0
 30
0.0
 11
108.1097735297217
 21
555.0
 31
0.0
  0
LINE
  5
119DF
330
15
100
AcDbEntity
 67
     1
  8
SHEET
100
AcDbLine
 10
108.1097735297217
 20
555.0
 30
0.0
 11
103.1097735297217
 21
555.0
 31
0.0
  0
TEXT
  5
119E0
330
15
100
AcDbEntity
 67
     1
  8
SHEET
100
AcDbText
 10
104.8179114701345
 20
542.0150312407882
 30
0.0
 40
3.0
  1
HORIZONTAL
  7
EUROROMAN
100
AcDbText
  0
TEXT
  5
119E1
330
15
100
AcDbEntity
 67
     1
  8
SHEET
100
AcDbText
 10
110.5186936203174
 20
554.1493086728519
 30
0.0
 40
3.0
  1
FLASH CUT CHANGED
  7
EUROROMAN
100
AcDbText
  0
LINE
  5
11A28
330
15
100
AcDbEntity
 67
     1
  8
SHEET
100
AcDbLine
 10
642.2710003186033
 20
533.9999999999998
 30
0.0
 11
642.2710003186032
 21
436.0026349802402
 31
0.0
  0
LINE
  5
11A29
330
15
100
AcDbEntity
 67
     1
  8
SHEET
100
AcDbLine
 10
642.2710003186031
 20
436.0024206105359
 30
0.0
 11
826.0
 21
435.9999999891512
 31
0.0
  0
TEXT
  5
11A2A
330
15
100
AcDbEntity
 67
     1
  8
SHEET
  6
Continuous
100
AcDbText
 10
643.9168054606873
 20
438.5010539747381
 30
0.0
 40
5.0
  1
SCALE 1 : 1
 72
     1
 11
662.2710003186035
 21
438.5010539747381
 31
0.0
100
AcDbText
  0
TEXT
  5
11A2B
330
15
100
AcDbEntity
 67
     1
  8
SHEET
100
AcDbText
 10
690.9950483152873
 20
440.6794353207529
 30
0.0
 40
3.75
  1
SECTION A-A
  7
ROMANS
 72
     4
 11
710.0129054581445
 21
442.554435320753
 31
0.0
100
AcDbText
  0
TEXT
  5
11A2C
330
15
100
AcDbEntity
 67
     1
  8
SHEET
100
AcDbText
 10
737.6398327002566
 20
440.7568682431336
 30
0.0
 40
2.5
  1
VIEW OF FOREDGE SECTION
  7
ROMANS
 72
     4
 11
763.7112612716852
 21
442.0068682431336
 31
0.0
100
AcDbText
  0
LINE
  5
11A2D
330
15
100
AcDbEntity
 67
     1
  8
DIM
 62
     1
100
AcDbLine
 10
780.7042768091597
 20
509.7027864878675
 30
0.0
 11
794.5929035724154
 21
509.7027864878675
 31
0.0
  0
LINE
  5
11A2E
330
15
100
AcDbEntity
 67
     1
  8
DIM
 62
     1
100
AcDbLine
 10
780.7042768091597
 20
496.9821125450279
 30
0.0
 11
794.5929035724154
 21
496.9821125450279
 31
0.0
  0
LINE
  5
11A2F
330
15
100
AcDbEntity
 67
     1
  8
DIM
 62
     1
100
AcDbLine
 10
794.4129035724155
 20
514.7027864878675
 30
0.0
 11
794.4129035724155
 21
519.7027864878675
 31
0.0
  0
LINE
  5
11A30
330
15
100
AcDbEntity
 67
     1
  8
DIM
 62
     1
100
AcDbLine
 10
794.4129035724155
 20
491.9821125450278
 30
0.0
 11
794.4129035724155
 21
486.9821125450278
 31
0.0
  0
SOLID
  5
11A31
330
15
100
AcDbEntity
 67
     1
  8
DIM
 62
     1
100
AcDbTrace
 10
793.5795702390821
 20
514.7027864878675
 30
0.0
 11
795.2462369057489
 21
514.7027864878675
 31
0.0
 12
794.4129035724155
 22
509.7027864878675
 32
0.0
 13
794.4129035724155
 23
509.7027864878675
 33
0.0
  0
SOLID
  5
11A32
330
15
100
AcDbEntity
 67
     1
  8
DIM
 62
     1
100
AcDbTrace
 10
793.5795702390821
 20
491.9821125450278
 30
0.0
 11
795.2462369057489
 21
491.9821125450278
 31
0.0
 12
794.4129035724155
 22
496.9821125450278
 32
0.0
 13
794.4129035724155
 23
496.9821125450278
 33
0.0
  0
MTEXT
  5
11A33
330
15
100
AcDbEntity
 67
     1
  8
DIM
  6
ByBlock
 62
     1
100
AcDbMText
 10
795.9059938510781
 20
502.8727018932106
 30
0.0
 40
3.0
 41
0.0
 46
0.0
 71
     5
 72
     5
  1
12.70%%P1
 73
     1
 44
1.0
  0
LINE
  5
11A34
330
15
100
AcDbEntity
 67
     1
  8
SINK
100
AcDbLine
 10
735.2474243989495
 20
509.6821125450264
 30
0.0
 11
754.2427884469321
 21
509.6821125450264
 31
0.0
  0
LINE
  5
11A35
330
15
100
AcDbEntity
 67
     1
  8
CL
100
AcDbLine
 10
780.6481967939576
 20
507.1821125450273
 30
0.0
 11
780.6481967939567
 21
512.1821125450282
 31
0.0
  0
LINE
  5
11A36
330
15
100
AcDbEntity
 67
     1
  8
CL
100
AcDbLine
 10
778.1481967939575
 20
509.6821125450273
 30
0.0
 11
783.1481967939566
 21
509.6821125450282
 31
0.0
  0
LINE
  5
11A37
330
15
100
AcDbEntity
 67
     1
  8
SINK
100
AcDbLine
 10
765.6481967939571
 20
509.6821125450264
 30
0.0
 11
754.2427884469321
 21
509.6821125450264
 31
0.0
  0
LINE
  5
11A38
330
15
100
AcDbEntity
 67
     1
  8
SINK
100
AcDbLine
 10
764.5555552455367
 20
499.6821125450264
 30
0.0
 11
764.3894471739223
 21
499.6821125450264
 31
0.0
  0
ARC
  5
11A39
330
15
100
AcDbEntity
 67
     1
  8
SINK
100
AcDbCircle
 10
764.3894471739223
 20
494.6821125450264
 30
0.0
 40
5.0
100
AcDbArc
 50
90.0
 51
155.0000000000211
  0
ARC
  5
11A3A
330
15
100
AcDbEntity
 67
     1
  8
SINK
100
AcDbCircle
 10
764.5555552455367
 20
494.6821125450264
 30
0.0
 40
5.0
100
AcDbArc
 50
45.00000000000921
 51
90.0
  0
LINE
  5
11A3B
330
15
100
AcDbEntity
 67
     1
  8
SINK
100
AcDbLine
 10
741.9501214282428
 20
475.8340084626829
 30
0.0
 11
740.7153780958867
 21
467.0483531407209
 31
0.0
  0
ARC
  5
11A3C
330
15
100
AcDbEntity
 67
     1
  8
SINK
100
AcDbCircle
 10
749.6481967939567
 20
483.1821125450264
 30
0.0
 40
3.5
100
AcDbArc
 50
251.1467538454625
 51
335.0000000000211
  0
ARC
  5
11A3D
330
15
100
AcDbEntity
 67
     1
  8
SINK
100
AcDbCircle
 10
746.9014617719509
 20
475.1381429578827
 30
0.0
 40
5.0
100
AcDbArc
 50
71.14675384546257
 51
172.000000000012
  0
LINE
  5
11A3E
330
15
100
AcDbEntity
 67
     1
  8
SINK
100
AcDbLine
 10
752.8202740485845
 20
481.7029486289342
 30
0.0
 11
759.8579082387392
 21
496.7952038537299
 31
0.0
  0
LINE
  5
11A3F
330
15
100
AcDbEntity
 67
     1
  8
SINK
100
AcDbLine
 10
739.503853029336
 20
501.539683570249
 30
0.0
 11
734.6564126607743
 21
467.0483531407209
 31
0.0
  0
ELLIPSE
  5
11A40
330
15
100
AcDbEntity
 67
     1
  8
SINK
100
AcDbEllipse
 10
754.2427884469321
 20
499.6821125450264
 30
0.0
 11
-15.0
 21
0.0
 31
0.0
210
0.0
220
0.0
230
-1.0
 40
0.6666666666666666
 41
6.470027626238897
 42
7.853981633974482
  0
ELLIPSE
  5
11A41
330
15
100
AcDbEntity
 67
     1
  8
SINK
100
AcDbEllipse
 10
765.6481967939571
 20
499.6821125450264
 30
0.0
 11
14.81119760775209
 21
0.0
 31
0.0
210
0.0
220
0.0
230
-1.0
 40
0.6751648492466308
 41
4.712388980384689
 42
6.283185307179586
  0
LINE
  5
11A42
330
15
100
AcDbEntity
 67
     1
  8
SINK
100
AcDbLine
 39
0.4
 10
734.6564126607743
 20
467.0483531407209
 30
0.0
 11
735.4539076884434
 21
466.7691787642185
 31
0.0
  0
LINE
  5
11A43
330
15
100
AcDbEntity
 67
     1
  8
SINK
100
AcDbLine
 39
0.4
 10
735.4539076884434
 20
466.7691787642185
 30
0.0
 11
736.918893161273
 21
467.1450124984486
 31
0.0
  0
LINE
  5
11A44
330
15
100
AcDbEntity
 67
     1
  8
SINK
100
AcDbLine
 39
0.4
 10
736.918893161273
 20
467.1450124984486
 30
0.0
 11
738.2347854029007
 21
466.6525412715192
 31
0.0
  0
LINE
  5
11A45
330
15
100
AcDbEntity
 67
     1
  8
SINK
100
AcDbLine
 39
0.4
 10
738.2347854029007
 20
466.6525412715192
 30
0.0
 11
740.335026762455
 21
467.3134897834467
 31
0.0
  0
LINE
  5
11A46
330
15
100
AcDbEntity
 67
     1
  8
SINK
100
AcDbLine
 39
0.4
 10
740.335026762455
 20
467.3134897834467
 30
0.0
 11
740.7153780958867
 21
467.0483531407209
 31
0.0
  0
LINE
  5
11A47
330
15
100
AcDbEntity
 67
     1
  8
SINK
100
AcDbLine
 10
780.4593944017092
 20
499.6821125450287
 30
0.0
 11
780.648196793957
 21
496.9821125450265
 31
0.0
  0
LINE
  5
11A48
330
15
100
AcDbEntity
 67
     1
  8
SINK
100
AcDbLine
 10
768.0910891514677
 20
498.2176464509611
 30
0.0
 11
769.3266230574042
 21
496.9821125450265
 31
0.0
  0
LINE
  5
11A49
330
15
100
AcDbEntity
 67
     1
  8
SINK
100
AcDbLine
 39
0.4
 10
780.648196793957
 20
496.9821125450265
 30
0.0
 11
769.3266230574042
 21
496.9821125450265
 31
0.0
  0
HATCH
  5
11A4A
330
15
100
AcDbEntity
 67
     1
  8
HATCH
100
AcDbHatch
 10
0.0
 20
0.0
 30
0.0
210
0.0
220
0.0
230
1.0
  2
ANSI34
 70
     0
 71
     0
 91
        1
 92
        1
 93
       19
 72
     1
 10
740.335026762455
 20
467.3134897834467
 11
740.7153780958867
 21
467.0483531407209
 72
     1
 10
740.7153780958867
 20
467.0483531407209
 11
741.9501214282428
 21
475.8340084626829
 72
     2
 10
746.9014617719509
 20
475.1381429578827
 40
5.0
 50
187.9999999999879
 51
288.8532461545375
 73
     0
 72
     2
 10
749.6481967939567
 20
483.1821125450264
 40
3.5
 50
251.1467538454625
 51
335.000000000024
 73
     1
 72
     1
 10
752.8202740485845
 20
481.7029486289342
 11
759.8579082387392
 21
496.7952038537299
 72
     2
 10
764.3894471739223
 20
494.6821125450264
 40
5.0
 50
204.9999999999759
 51
270.0
 73
     0
 72
     1
 10
764.3894471739223
 20
499.6821125450264
 11
764.5555552455367
 21
499.6821125450264
 72
     2
 10
764.5555552455367
 20
494.6821125450264
 40
5.0
 50
270.0
 51
314.9999999999931
 73
     0
 72
     1
 10
768.0910891514677
 20
498.2176464509611
 11
769.3266230574042
 21
496.9821125450265
 72
     1
 10
769.3266230574042
 20
496.9821125450265
 11
780.648196793957
 21
496.9821125450265
 72
     1
 10
780.648196793957
 20
496.9821125450265
 11
780.4593944017092
 21
499.6821125450287
 72
     3
 10
765.6481967939571
 20
499.6821125450264
 11
14.81119760775209
 21
0.0
 40
0.6751648492466308
 50
0.0
 51
90.0
 73
     1
 72
     1
 10
765.6481967939571
 20
509.6821125450264
 11
754.2427884469321
 21
509.6821125450264
 72
     3
 10
754.2427884469321
 20
499.6821125450264
 11
-15.0
 21
0.0
 40
0.6666666666666666
 50
-90.0
 51
-7.183203689740437
 73
     1
 72
     1
 10
739.503853029336
 20
501.539683570249
 11
734.6564126607743
 21
467.0483531407209
 72
     1
 10
734.6564126607743
 20
467.0483531407209
 11
735.4539076884434
 21
466.7691787642185
 72
     1
 10
735.4539076884434
 20
466.7691787642185
 11
736.918893161273
 21
467.1450124984486
 72
     1
 10
736.918893161273
 20
467.1450124984486
 11
738.2347854029007
 21
466.6525412715192
 72
     1
 10
738.2347854029007
 20
466.6525412715192
 11
740.335026762455
 21
467.3134897834467
 97
        0
 75
     1
 76
     1
 52
0.0
 41
10.0
 77
     0
 78
     4
 53
45.0
 43
0.0
 44
0.0
 45
-5.303300858899105
 46
5.303300858899106
 79
     0
 53
45.0
 43
1.767766950000009
 44
0.0
 45
-5.303300858899105
 46
5.303300858899106
 79
     0
 53
45.0
 43
3.535533910000026
 44
0.0
 45
-5.303300858899105
 46
5.303300858899106
 79
     0
 53
45.0
 43
5.303300860000035
 44
0.0
 45
-5.303300858899105
 46
5.303300858899106
 79
     0
 98
        1
 10
0.0
 20
0.0
1001
GradientColor1ACI
1070
     5
1001
GradientColor2ACI
1070
     2
1001
ACAD
1010
0.0
1020
0.0
1030
0.0
  0
ENDSEC
  0
SECTION
  2
OBJECTS
  0
DICTIONARY
  5
C
330
0
100
AcDbDictionary
281
     1
  3
ACAD_CIP_PREVIOUS_PRODUCT_INFO
350
11613
  3
ACAD_COLOR
350
D99F
  3
ACAD_DETAILVIEWSTYLE
350
11636
  3
ACAD_FIELDLIST
350
11E39
  3
ACAD_GROUP
350
D
  3
ACAD_LAYOUT
350
5C1F
  3
ACAD_MATERIAL
350
D99E
  3
ACAD_MLEADERSTYLE
350
10359
  3
ACAD_MLINESTYLE
350
1B
  3
ACAD_PLOTSETTINGS
350
5C20
  3
ACAD_PLOTSTYLENAME
350
5C1D
  3
ACAD_SCALELIST
350
10337
  3
ACAD_SECTIONVIEWSTYLE
350
11634
  3
ACAD_TABLESTYLE
350
D9A0
  3
ACAD_VISUALSTYLE
350
10326
  3
AcadDim
350
F973
  3
ACDB_RECOMPOSE_DATA
350
13378
  3
ACDBVARIABLEDICTIONARY
350
2C7C
  3
AcDsDecomposeData
350
1337E
  3
AcmDictionary
350
11E01
  3
AMG
350
11DE9
  3
AMGSNAPSETTINGS
350
11E49
  0
DICTIONARY
  5
11183
330
8
100
AcDbDictionary
280
     1
281
     1
  0
DICTIONARY
  5
D9A6
330
2
100
AcDbDictionary
280
     1
281
     1
  3
ACAD_LAYERSTATES
360
D9A7
  0
DICTIONARY
  5
10372
330
E
100
AcDbDictionary
280
     1
281
     1
  3
ADSK_XREC_LAYER_RECONCILED
360
10373
  0
DICTIONARY
  5
10374
330
34
100
AcDbDictionary
280
     1
281
     1
  3
ADSK_XREC_LAYER_RECONCILED
360
10375
  0
DICTIONARY
  5
10376
330
36
100
AcDbDictionary
280
     1
281
     1
  3
ADSK_XREC_LAYER_RECONCILED
360
10377
  0
DICTIONARY
  5
10378
330
38
100
AcDbDictionary
280
     1
281
     1
  3
ADSK_XREC_LAYER_RECONCILED
360
10379
  0
DICTIONARY
  5
1037A
330
39
100
AcDbDictionary
280
     1
281
     1
  3
ADSK_XREC_LAYER_RECONCILED
360
1037B
  0
DICTIONARY
  5
1037C
330
1D50
100
AcDbDictionary
280
     1
281
     1
  3
ADSK_XREC_LAYER_RECONCILED
360
1037D
  0
DICTIONARY
  5
1037E
330
43B1
100
AcDbDictionary
280
     1
281
     1
  3
ADSK_XREC_LAYER_RECONCILED
360
1037F
  0
DICTIONARY
  5
1284A
330
12849
100
AcDbDictionary
280
     1
281
     1
  0
DICTIONARY
  5
982C
330
18
100
AcDbDictionary
280
     1
281
     1
  3
ACAD_LAYOUTSELFREF
360
982D
  3
ACAD_SORTENTS
360
D9EB
  0
DICTIONARY
  5
982A
330
15
100
AcDbDictionary
280
     1
281
     1
  3
ACAD_LAYOUTSELFREF
360
982B
  3
ACAD_SORTENTS
360
DE28
  0
DICTIONARY
  5
13375
330
13374
100
AcDbDictionary
280
     1
281
     1
  3
ACAD_MTEXT_2008_RT
360
13377
  0
XRECORD
  5
11613
102
{ACAD_REACTORS
330
C
102
}
330
C
100
AcDbXrecord
280
     1
300
AMECH_PP
300
2014
300
PDSP_F_S
  0
DICTIONARY
  5
D99F
102
{ACAD_REACTORS
330
C
102
}
330
C
100
AcDbDictionary
281
     1
  0
DICTIONARY
  5
11636
102
{ACAD_REACTORS
330
C
102
}
330
C
100
AcDbDictionary
281
     1
  3
Imperial24
350
11637
  3
Metric50
350
12852
  0
FIELDLIST
  5
11E39
102
{ACAD_REACTORS
330
C
102
}
330
C
100
AcDbIdSet
 90
        7
330
11E37
330
11E38
330
11E3A
330
11E3B
330
13349
330
1334A
330
1334B
100
AcDbFieldList
  0
DICTIONARY
  5
D
102
{ACAD_REACTORS
330
C
102
}
330
0
100
AcDbDictionary
281
     1
  0
DICTIONARY
  5
5C1F
102
{ACAD_REACTORS
330
C
102
}
330
C
100
AcDbDictionary
281
     1
  3
Layout1
350
5C22
  3
Model
350
5C21
  0
DICTIONARY
  5
D99E
102
{ACAD_REACTORS
330
C
102
}
330
C
100
AcDbDictionary
281
     1
  3
ByBlock
350
10316
  3
ByLayer
350
1030E
  3
Global
350
1031E
  0
DICTIONARY
  5
10359
102
{ACAD_REACTORS
330
C
102
}
330
C
100
AcDbDictionary
281
     1
  3
Standard
350
1035A
  0
DICTIONARY
  5
1B
102
{ACAD_REACTORS
330
C
102
}
330
0
100
AcDbDictionary
281
     1
  3
STANDARD
350
1C
  0
DICTIONARY
  5
5C20
102
{ACAD_REACTORS
330
C
102
}
330
C
100
AcDbDictionary
281
     1
  0
ACDBDICTIONARYWDFLT
  5
5C1D
102
{ACAD_REACTORS
330
C
102
}
330
C
100
AcDbDictionary
281
     1
  3
Normal
350
5C1E
100
AcDbDictionaryWithDefault
340
5C1E
  0
DICTIONARY
  5
10337
102
{ACAD_REACTORS
330
C
102
}
330
C
100
AcDbDictionary
281
     1
  3
A0
350
10338
  3
A1
350
10339
  3
A2
350
1033A
  3
A3
350
1033B
  3
A4
350
1033C
  3
A5
350
1033D
  3
A6
350
1033E
  3
A7
350
1033F
  3
A8
350
10340
  3
A9
350
10341
  3
B0
350
10342
  3
B1
350
10343
  3
B2
350
10344
  3
B3
350
10345
  3
B4
350
10346
  3
B5
350
10347
  3
B6
350
10348
  3
B7
350
10349
  3
B8
350
1034A
  3
B9
350
1034B
  3
C0
350
1034C
  3
C1
350
1034D
  3
C2
350
1034E
  3
C3
350
1034F
  3
C4
350
10350
  3
C5
350
10351
  3
C6
350
10352
  3
C7
350
10353
  3
C8
350
10354
  3
C9
350
10355
  3
D0
350
10356
  3
D1
350
10357
  3
D2
350
10358
  0
DICTIONARY
  5
11634
102
{ACAD_REACTORS
330
C
102
}
330
C
100
AcDbDictionary
281
     1
  3
Imperial24
350
11635
  3
Metric50
350
12850
  0
DICTIONARY
  5
D9A0
102
{ACAD_REACTORS
330
C
102
}
330
C
100
AcDbDictionary
281
     1
  3
Standard
350
D9A1
  0
DICTIONARY
  5
10326
102
{ACAD_REACTORS
330
C
102
}
330
C
100
AcDbDictionary
281
     1
  3
2dWireframe
350
1032C
  3
3D Hidden
350
1032E
  3
3dWireframe
350
1032D
  3
Basic
350
1032B
  3
Brighten
350
10332
  3
ColorChange
350
10336
  3
Conceptual
350
1032F
  3
Dim
350
10331
  3
EdgeColorOff
350
1105F
  3
Facepattern
350
10335
  3
Flat
350
10327
  3
FlatWithEdges
350
10328
  3
Gouraud
350
10329
  3
GouraudWithEdges
350
1032A
  3
Hidden
350
11605
  3
JitterOff
350
1105D
  3
Linepattern
350
10334
  3
OverhangOff
350
1105E
  3
Realistic
350
10330
  3
Shaded
350
1160A
  3
Shaded with edges
350
11609
  3
Shades of Gray
350
11606
  3
Sketchy
350
11607
  3
Thicken
350
10333
  3
Wireframe
350
11604
  3
X-Ray
350
11608
  0
XRECORD
  5
F973
102
{ACAD_REACTORS
330
C
102
}
330
C
100
AcDbXrecord
280
     1
 90
   990106
  3

 60
     0
 61
     0
 62
     1
 63
     3
 64
     0
 65
     0
 66
     0
 67
     3
 68
     1
 69
     0
 70
     0
 71
     0
 72
     0
 40
0.0
170
     0
  0
XRECORD
  5
13378
102
{ACAD_REACTORS
330
C
102
}
330
C
100
AcDbXrecord
280
     1
 90
        1
330
D9A1
330
13374
  0
DICTIONARY
  5
2C7C
102
{ACAD_REACTORS
330
C
102
}
330
C
100
AcDbDictionary
281
     1
  3
CANNOSCALE
350
103A7
  3
CMLEADERSTYLE
350
103A5
  3
CTABLESTYLE
350
D9C1
  3
CVIEWDETAILSTYLE
350
11686
  3
CVIEWSECTIONSTYLE
350
11687
  3
DIMASSOC
350
D99B
  3
LAYEREVAL
350
11631
  3
LAYERNOTIFY
350
11632
  3
LIGHTINGUNITS
350
103A8
  3
MSLTSCALE
350
103A6
  3
SORTENTS
350
2C7D
  0
DICTIONARY
  5
1337E
102
{ACAD_REACTORS
330
C
102
}
330
C
100
AcDbDictionary
281
     1
  3
AcDsRecords
350
13380
  3
AcDsSchemas
350
1337F
1001
ACAD
1070
     2
  0
DICTIONARY
  5
11E01
102
{ACAD_REACTORS
330
C
102
}
330
C
100
AcDbDictionary
281
     1
  3
AcmStdDictionary
350
11E08
  0
DICTIONARY
  5
11DE9
102
{ACAD_REACTORS
330
C
102
}
330
C
100
AcDbDictionary
281
     1
  0
DICTIONARY
  5
11E49
102
{ACAD_REACTORS
330
C
102
}
330
C
100
AcDbDictionary
281
     1
  0
DICTIONARY
  5
D9A7
102
{ACAD_REACTORS
330
D9A6
102
}
330
D9A6
100
AcDbDictionary
281
     1
  0
XRECORD
  5
10373
102
{ACAD_REACTORS
330
10372
102
}
330
10372
100
AcDbXrecord
280
     1
290
     1
  0
XRECORD
  5
10375
102
{ACAD_REACTORS
330
10374
102
}
330
10374
100
AcDbXrecord
280
     1
290
     1
  0
XRECORD
  5
10377
102
{ACAD_REACTORS
330
10376
102
}
330
10376
100
AcDbXrecord
280
     1
290
     1
  0
XRECORD
  5
10379
102
{ACAD_REACTORS
330
10378
102
}
330
10378
100
AcDbXrecord
280
     1
290
     1
  0
XRECORD
  5
1037B
102
{ACAD_REACTORS
330
1037A
102
}
330
1037A
100
AcDbXrecord
280
     1
290
     1
  0
XRECORD
  5
1037D
102
{ACAD_REACTORS
330
1037C
102
}
330
1037C
100
AcDbXrecord
280
     1
290
     1
  0
XRECORD
  5
1037F
102
{ACAD_REACTORS
330
1037E
102
}
330
1037E
100
AcDbXrecord
280
     1
290
     1
  0
XRECORD
  5
982D
102
{ACAD_REACTORS
330
982C
102
}
330
982C
100
AcDbXrecord
280
     1
340
18
  0
SORTENTSTABLE
  5
D9EB
102
{ACAD_REACTORS
330
982C
102
}
330
982C
100
AcDbSortentsTable
330
18
331
1293C
  5
12945
331
12977
  5
12980
331
12938
  5
12941
331
128FD
  5
12906
331
12973
  5
1297C
331
12934
  5
1293D
331
12930
  5
12939
331
1296F
  5
12978
331
1296B
  5
12974
331
1292C
  5
12935
331
12967
  5
12970
331
12928
  5
12931
331
12963
  5
1296C
331
12924
  5
1292D
331
12920
  5
12929
331
1295F
  5
12968
331
1295B
  5
12964
331
1291C
  5
12925
331
12957
  5
12960
331
12918
  5
12921
331
12953
  5
1295C
331
12E4D
  5
128FB
331
1298E
  5
12CBC
331
12914
  5
1291D
331
1298A
  5
12993
331
12910
  5
12919
331
10C46
  5
12902
331
10C42
  5
128FE
331
1294F
  5
12958
331
1294B
  5
12954
331
12986
  5
1298F
331
1290C
  5
12915
331
12947
  5
12950
331
12982
  5
1298B
331
12908
  5
12911
331
1297E
  5
12987
331
12904
  5
1290D
331
12943
  5
1294C
331
1297A
  5
12983
331
12900
  5
12909
331
1293F
  5
12948
331
1293B
  5
12944
331
12976
  5
1297F
331
12937
  5
12940
331
128FC
  5
12905
331
12972
  5
1297B
331
12933
  5
1293C
331
1296E
  5
12977
331
1292F
  5
12938
331
1296A
  5
12973
331
1292B
  5
12934
331
12966
  5
1296F
331
12927
  5
12930
331
12962
  5
1296B
331
12923
  5
1292C
331
1295E
  5
12967
331
1291F
  5
12928
331
1295A
  5
12963
331
1291B
  5
12924
331
12956
  5
1295F
331
12991
  5
12CFF
331
12917
  5
12920
331
12952
  5
1295B
331
1298D
  5
12C76
331
12913
  5
1291C
331
12989
  5
12992
331
10C45
  5
12900
331
10C41
  5
128FC
331
1294E
  5
12957
331
1290F
  5
12918
331
10C2D
  5
10C96
331
1294A
  5
12953
331
1290B
  5
12914
331
12985
  5
1298E
331
12D6C
  5
10C46
331
10C29
  5
10C64
331
12946
  5
1294F
331
12981
  5
1298A
331
12907
  5
12910
331
12942
  5
1294B
331
12903
  5
1290C
331
1297D
  5
12986
331
12CBC
  5
12F09
331
12979
  5
12982
331
1293E
  5
12947
331
128FF
  5
12908
331
12C7C
  5
128FD
331
1293A
  5
12943
331
12975
  5
1297E
331
12936
  5
1293F
331
128FB
  5
12904
331
12971
  5
1297A
331
12932
  5
1293B
331
1296D
  5
12976
331
1292E
  5
12937
331
12969
  5
12972
331
1292A
  5
12933
331
12965
  5
1296E
331
12926
  5
1292F
331
12961
  5
1296A
331
12922
  5
1292B
331
1295D
  5
12966
331
1291E
  5
12927
331
12959
  5
12962
331
1291A
  5
12923
331
12955
  5
1295E
331
12990
  5
12D82
331
12916
  5
1291F
331
12951
  5
1295A
331
1298C
  5
12C75
331
12912
  5
1291B
331
12988
  5
12991
331
10C44
  5
128FF
331
1294D
  5
12956
331
1290E
  5
12917
331
10C2C
  5
10C92
331
12949
  5
12952
331
12D6B
  5
128FA
331
12984
  5
1298D
331
1290A
  5
12913
331
12945
  5
1294E
331
12980
  5
12989
331
12906
  5
1290F
331
12941
  5
1294A
331
1297C
  5
12985
331
12902
  5
1290B
331
12978
  5
12981
331
1293D
  5
12946
331
128FE
  5
12907
331
12C7B
  5
12901
331
12939
  5
12942
331
12974
  5
1297D
331
12F5E
  5
10C8C
331
12935
  5
1293E
331
128FA
  5
12903
331
12970
  5
12979
331
12931
  5
1293A
331
1296C
  5
12975
331
1292D
  5
12936
331
12968
  5
12971
331
12929
  5
12932
331
12964
  5
1296D
331
12925
  5
1292E
331
12960
  5
12969
331
12921
  5
1292A
331
1295C
  5
12965
331
1291D
  5
12926
331
12958
  5
12961
331
12919
  5
12922
331
12954
  5
1295D
331
12E4E
  5
10C47
331
12915
  5
1291E
331
12950
  5
12959
331
1298B
  5
12BB2
331
12911
  5
1291A
331
1294C
  5
12955
331
12987
  5
12990
331
1290D
  5
12916
331
12948
  5
12951
331
12983
  5
1298C
331
12909
  5
12912
331
12944
  5
1294D
331
1297F
  5
12988
331
12905
  5
1290E
331
12940
  5
12949
331
1297B
  5
12984
331
12901
  5
1290A
  0
XRECORD
  5
982B
102
{ACAD_REACTORS
330
982A
102
}
330
982A
100
AcDbXrecord
280
     1
340
15
  0
SORTENTSTABLE
  5
DE28
102
{ACAD_REACTORS
330
982A
102
}
330
982A
100
AcDbSortentsTable
330
15
331
177
  5
177
331
CD
  5
CD
331
C7
  5
C7
331
5B81
  5
94F6
331
D0
  5
D0
331
D9
  5
D9
331
178
  5
178
331
D3
  5
D3
331
5B7E
  5
5B81
331
17B
  5
17B
331
2F5D
  5
2F5D
331
D6
  5
D6
331
91
  5
91
331
4B8C
  5
4B8C
331
4B8F
  5
4B8F
331
4B98
  5
4B98
331
96AA
  5
DDE8
331
C8
  5
C8
331
172
  5
172
331
4B9B
  5
4B9B
331
14C
  5
14C
331
CB
  5
CB
331
175
  5
175
331
C5
  5
C5
331
CE
  5
CE
331
D1
  5
D1
331
5B7C
  5
5B7F
331
DA
  5
DA
331
179
  5
179
331
D4
  5
D4
331
5B7F
  5
621A
331
17C
  5
17C
331
D7
  5
D7
331
4B90
  5
4B90
331
170
  5
170
331
173
  5
173
331
C9
  5
C9
331
14D
  5
14D
331
C3
  5
C3
331
176
  5
176
331
5B80
  5
743A
331
C6
  5
C6
331
D8
  5
D8
331
5B7D
  5
5B80
331
D2
  5
D2
331
17A
  5
17A
331
D5
  5
D5
331
1184
  5
1184
331
3D
  5
3D
331
4B9A
  5
4B9A
331
171
  5
171
331
174
  5
174
331
CA
  5
CA
331
C4
  5
C4
331
4B97
  5
4B97
  0
XRECORD
  5
13377
102
{ACAD_REACTORS
330
13375
102
}
330
13375
100
AcDbXrecord
280
     1
 40
13572559.0
  1
\pxi-3,l3,t3;Any deviation from this template could prevent the homeowner from being able to\Puse the Franke custom fit accessories that match this sink, so we strongly\Precommend following this cutout template.\P\PClosely follow installation instruc
  1
tions before making any cuts to countertop\P\PThis template file, like any template, is meant to be a guideline.  The actual sink\Pand accessories should ALWAYS be present to ensure a perfect cut.\P\pi0,l0,tz;\P\pr2.2207;FRANKE IS NOT RESPONSIBLE FOR
  1
 AN IMPROPERLY CUT COUNTERTOP OR AN IMPROPER INSTALLATION
  0
ACDBDETAILVIEWSTYLE
  5
11637
102
{ACAD_XDICTIONARY
360
11683
102
}
102
{ACAD_REACTORS
330
11636
330
11E29
102
}
330
11636
100
AcDbModelDocViewStyle
 70
     0
  3
Imperial24
290
     0
100
AcDbDetailViewStyle
 70
     0
 71
     0
 90
        3
 71
     1
340
F
 62
   256
 40
0.24
340
0
 62
   256
 40
0.24
300

 40
0.36
280
     3
 71
     2
340
14
 90
       25
 62
   256
 71
     3
340
F
 62
   256
 40
0.24
 90
        1
 40
0.75
 90
        1
300
%<\AcVar ViewType \f "%tc1">% %<\AcVar ViewDetailId>%\PSCALE %<\AcVar ViewScale \f "%sn">%
 71
     4
340
14
 90
       25
 62
   256
340
14
 90
       25
 62
   256
280
     0
  0
ACDBDETAILVIEWSTYLE
  5
12852
102
{ACAD_XDICTIONARY
360
12853
102
}
102
{ACAD_REACTORS
330
11636
330
128F3
102
}
330
11636
100
AcDbModelDocViewStyle
 70
     0
  3
Metric50
290
     0
100
AcDbDetailViewStyle
 70
     0
 71
     0
 90
        3
 71
     1
340
F
 62
   256
 40
5.0
340
0
 62
   256
 40
5.0
300

 40
0.0
280
     1
 71
     2
340
14
 90
       25
 62
   256
 71
     3
340
F
 62
   256
 40
5.0
 90
        0
 40
15.0
 90
        1
300
%<\AcVar ViewDetailId>% (%<\AcVar ViewScale \f "%sn">%)
 71
     4
340
14
 90
       25
 62
   256
340
14
 90
       25
 62
   256
280
     0
  0
LAYOUT
  5
5C22
102
{ACAD_XDICTIONARY
360
D9BE
102
}
102
{ACAD_REACTORS
330
5C1F
102
}
330
5C1F
100
AcDbPlotSettings
  1

  2
\\FGP10G\FGP023P
  4
A4
  6

 40
4.233333110809326
 41
4.233306884765625
 42
4.233322143554687
 43
4.23333740234375
 44
209.9733276367187
 45
296.9683227539062
 46
3.053319472179509
 47
0.0
 48
1.0
 49
1.0
140
283.535793
141
174.335932
142
1.0
143
2.863223119704409
 70
   692
 72
     1
 73
     1
 74
     1
  7
Carron Phoenix.ctb
 75
     0
147
0.3492567495414876
 76
     0
 77
     2
 78
   300
148
0.0032339795545795
149
0.037631651321135
100
AcDbLayout
  1
Layout1
 70
     1
 71
     1
 10
-12.12422350345461
 20
-20.90094379218863
 11
838.1623440253711
 21
580.2995424185334
 12
0.0
 22
0.0
 32
0.0
 14
0.0
 24
0.0
 34
0.0
 15
826.0
 25
559.4330351521971
 35
0.4
146
0.0
 13
0.0
 23
0.0
 33
0.0
 16
1.0
 26
0.0
 36
0.0
 17
0.0
 27
1.0
 37
0.0
 76
     0
330
15
331
3D
1001
ACAD_PSEXT
1000
\\FGP10G\FGP023P
1000
HP Universal Printing PCL 6
1000
FGP/Product management
1000
HP 4015 PCL6 10.28.0.23 CNFY838268
1070
     0
  0
LAYOUT
  5
5C21
102
{ACAD_XDICTIONARY
360
11108
102
}
102
{ACAD_REACTORS
330
5C1F
102
}
330
5C1F
100
AcDbPlotSettings
  1

  2
\\FGP10G\FGP023P
  4
A4
  6
P
 40
4.233333110809326
 41
4.233306884765625
 42
4.233322143554687
 43
4.23333740234375
 44
209.9733276367187
 45
296.9683227539062
 46
0.0
 47
21.4065572392332
 48
-8.915443279206556
 49
-426.7528835617427
140
1121.461126702275
141
500.3493692185993
142
1.0
143
4.600851385313855
 70
 11956
 72
     1
 73
     1
 74
     4
  7
Carron Phoenix.ctb
 75
     0
147
0.2173510761925606
 76
     0
 77
     2
 78
   300
148
8.915443279206556
149
426.7528835617427
100
AcDbLayout
  1
Model
 70
     1
 71
     0
 10
0.0
 20
0.0
 11
12.0
 21
9.0
 12
0.0
 22
0.0
 32
0.0
 14
0.0
 24
0.0
 34
0.0
 15
0.0
 25
0.0
 35
0.0
146
0.0
 13
0.0
 23
0.0
 33
0.0
 16
1.0
 26
0.0
 36
0.0
 17
0.0
 27
1.0
 37
0.0
 76
     0
330
18
331
102FD
1001
ACAD_PSEXT
1000
\\FGP10G\FGP023P
1000
HP Universal Printing PCL 6
1000
FGP/Product management
1000
HP 4015 PCL6 10.28.0.23 CNFY838268
1070
     0
  0
MATERIAL
  5
10316
102
{ACAD_XDICTIONARY
360
10317
102
}
102
{ACAD_REACTORS
330
D99E
102
}
330
D99E
100
AcDbMaterial
  1
ByBlock
 72
     0
 43
0.0208333333333333
 43
0.0
 43
0.0
 43
0.0
 43
0.0
 43
0.0208333333333333
 43
0.0
 43
0.0
 43
0.0
 43
0.0
 43
1.0
 43
0.0
 43
0.0
 43
0.0
 43
0.0
 43
1.0
 77
     0
 47
0.0208333333333333
 47
0.0
 47
0.0
 47
0.0
 47
0.0
 47
0.0208333333333333
 47
0.0
 47
0.0
 47
0.0
 47
0.0
 47
1.0
 47
0.0
 47
0.0
 47
0.0
 47
0.0
 47
1.0
171
     0
 49
0.0208333333333333
 49
0.0
 49
0.0
 49
0.0
 49
0.0
 49
0.0208333333333333
 49
0.0
 49
0.0
 49
0.0
 49
0.0
 49
1.0
 49
0.0
 49
0.0
 49
0.0
 49
0.0
 49
1.0
175
     0
142
0.0208333333333333
142
0.0
142
0.0
142
0.0
142
0.0
142
0.0208333333333333
142
0.0
142
0.0
142
0.0
142
0.0
142
1.0
142
0.0
142
0.0
142
0.0
142
0.0
142
1.0
179
     0
144
0.0208333333333333
144
0.0
144
0.0
144
0.0
144
0.0
144
0.0208333333333333
144
0.0
144
0.0
144
0.0
144
0.0
144
1.0
144
0.0
144
0.0
144
0.0
144
0.0
144
1.0
147
0.0208333333333333
147
0.0
147
0.0
147
0.0
147
0.0
147
0.0208333333333333
147
0.0
147
0.0
147
0.0
147
0.0
147
1.0
147
0.0
147
0.0
147
0.0
147
0.0
147
1.0
  0
MATERIAL
  5
1030E
102
{ACAD_XDICTIONARY
360
1030F
102
}
102
{ACAD_REACTORS
330
D99E
102
}
330
D99E
100
AcDbMaterial
  1
ByLayer
 72
     0
 43
0.0208333333333333
 43
0.0
 43
0.0
 43
0.0
 43
0.0
 43
0.0208333333333333
 43
0.0
 43
0.0
 43
0.0
 43
0.0
 43
1.0
 43
0.0
 43
0.0
 43
0.0
 43
0.0
 43
1.0
 77
     0
 47
0.0208333333333333
 47
0.0
 47
0.0
 47
0.0
 47
0.0
 47
0.0208333333333333
 47
0.0
 47
0.0
 47
0.0
 47
0.0
 47
1.0
 47
0.0
 47
0.0
 47
0.0
 47
0.0
 47
1.0
171
     0
 49
0.0208333333333333
 49
0.0
 49
0.0
 49
0.0
 49
0.0
 49
0.0208333333333333
 49
0.0
 49
0.0
 49
0.0
 49
0.0
 49
1.0
 49
0.0
 49
0.0
 49
0.0
 49
0.0
 49
1.0
175
     0
142
0.0208333333333333
142
0.0
142
0.0
142
0.0
142
0.0
142
0.0208333333333333
142
0.0
142
0.0
142
0.0
142
0.0
142
1.0
142
0.0
142
0.0
142
0.0
142
0.0
142
1.0
179
     0
144
0.0208333333333333
144
0.0
144
0.0
144
0.0
144
0.0
144
0.0208333333333333
144
0.0
144
0.0
144
0.0
144
0.0
144
1.0
144
0.0
144
0.0
144
0.0
144
0.0
144
1.0
147
0.0208333333333333
147
0.0
147
0.0
147
0.0
147
0.0
147
0.0208333333333333
147
0.0
147
0.0
147
0.0
147
0.0
147
1.0
147
0.0
147
0.0
147
0.0
147
0.0
147
1.0
  0
MATERIAL
  5
1031E
102
{ACAD_XDICTIONARY
360
1031F
102
}
102
{ACAD_REACTORS
330
D99E
102
}
330
D99E
100
AcDbMaterial
  1
Global
 72
     0
 43
0.0208333333333333
 43
0.0
 43
0.0
 43
0.0
 43
0.0
 43
0.0208333333333333
 43
0.0
 43
0.0
 43
0.0
 43
0.0
 43
1.0
 43
0.0
 43
0.0
 43
0.0
 43
0.0
 43
1.0
 77
     0
 47
0.0208333333333333
 47
0.0
 47
0.0
 47
0.0
 47
0.0
 47
0.0208333333333333
 47
0.0
 47
0.0
 47
0.0
 47
0.0
 47
1.0
 47
0.0
 47
0.0
 47
0.0
 47
0.0
 47
1.0
171
     0
 49
0.0208333333333333
 49
0.0
 49
0.0
 49
0.0
 49
0.0
 49
0.0208333333333333
 49
0.0
 49
0.0
 49
0.0
 49
0.0
 49
1.0
 49
0.0
 49
0.0
 49
0.0
 49
0.0
 49
1.0
175
     0
142
0.0208333333333333
142
0.0
142
0.0
142
0.0
142
0.0
142
0.0208333333333333
142
0.0
142
0.0
142
0.0
142
0.0
142
1.0
142
0.0
142
0.0
142
0.0
142
0.0
142
1.0
179
     0
144
0.0208333333333333
144
0.0
144
0.0
144
0.0
144
0.0
144
0.0208333333333333
144
0.0
144
0.0
144
0.0
144
0.0
144
1.0
144
0.0
144
0.0
144
0.0
144
0.0
144
1.0
147
0.0208333333333333
147
0.0
147
0.0
147
0.0
147
0.0
147
0.0208333333333333
147
0.0
147
0.0
147
0.0
147
0.0
147
1.0
147
0.0
147
0.0
147
0.0
147
0.0
147
1.0
  0
MLEADERSTYLE
  5
1035A
102
{ACAD_REACTORS
330
10359
102
}
330
10359
100
AcDbMLeaderStyle
179
     2
170
     2
171
     1
172
     0
 90
        2
 40
0.0
 41
0.0
173
     1
 91
-1056964608
340
12
 92
       -2
290
     1
 42
0.09
291
     1
 43
0.36
  3
Standard
 44
0.18
300

342
F
174
     1
178
     6
175
     1
176
     0
 93
-1056964608
 45
0.18
292
     0
297
     0
 46
0.18
 94
-1056964608
 47
1.0
 49
1.0
140
1.0
293
     1
141
0.0
294
     1
177
     0
142
1.0
295
     0
296
     0
143
0.125
271
     0
272
     9
273
     9
  0
MLINESTYLE
  5
1C
102
{ACAD_REACTORS
330
1B
102
}
330
0
100
AcDbMlineStyle
  2
STANDARD
 70
     0
  3

 62
   256
 51
90.0
 52
90.0
 71
     2
 49
0.5
 62
   256
  6
BYLAYER
 49
-0.5
 62
   256
  6
BYLAYER
  0
ACDBPLACEHOLDER
  5
5C1E
102
{ACAD_REACTORS
330
5C1D
102
}
330
5C1D
  0
SCALE
  5
10338
102
{ACAD_REACTORS
330
10337
102
}
330
10337
100
AcDbScale
 70
     0
300
1:1
140
1.0
141
1.0
290
     1
  0
SCALE
  5
10339
102
{ACAD_REACTORS
330
10337
102
}
330
10337
100
AcDbScale
 70
     0
300
1:2
140
1.0
141
2.0
290
     0
  0
SCALE
  5
1033A
102
{ACAD_REACTORS
330
10337
102
}
330
10337
100
AcDbScale
 70
     0
300
1:4
140
1.0
141
4.0
290
     0
  0
SCALE
  5
1033B
102
{ACAD_REACTORS
330
10337
102
}
330
10337
100
AcDbScale
 70
     0
300
1:5
140
1.0
141
5.0
290
     0
  0
SCALE
  5
1033C
102
{ACAD_REACTORS
330
10337
102
}
330
10337
100
AcDbScale
 70
     0
300
1:8
140
1.0
141
8.0
290
     0
  0
SCALE
  5
1033D
102
{ACAD_REACTORS
330
10337
102
}
330
10337
100
AcDbScale
 70
     0
300
1:10
140
1.0
141
10.0
290
     0
  0
SCALE
  5
1033E
102
{ACAD_REACTORS
330
10337
102
}
330
10337
100
AcDbScale
 70
     0
300
1:16
140
1.0
141
16.0
290
     0
  0
SCALE
  5
1033F
102
{ACAD_REACTORS
330
10337
102
}
330
10337
100
AcDbScale
 70
     0
300
1:20
140
1.0
141
20.0
290
     0
  0
SCALE
  5
10340
102
{ACAD_REACTORS
330
10337
102
}
330
10337
100
AcDbScale
 70
     0
300
1:30
140
1.0
141
30.0
290
     0
  0
SCALE
  5
10341
102
{ACAD_REACTORS
330
10337
102
}
330
10337
100
AcDbScale
 70
     0
300
1:40
140
1.0
141
40.0
290
     0
  0
SCALE
  5
10342
102
{ACAD_REACTORS
330
10337
102
}
330
10337
100
AcDbScale
 70
     0
300
1:50
140
1.0
141
50.0
290
     0
  0
SCALE
  5
10343
102
{ACAD_REACTORS
330
10337
102
}
330
10337
100
AcDbScale
 70
     0
300
1:100
140
1.0
141
100.0
290
     0
  0
SCALE
  5
10344
102
{ACAD_REACTORS
330
10337
102
}
330
10337
100
AcDbScale
 70
     0
300
2:1
140
2.0
141
1.0
290
     0
  0
SCALE
  5
10345
102
{ACAD_REACTORS
330
10337
102
}
330
10337
100
AcDbScale
 70
     0
300
4:1
140
4.0
141
1.0
290
     0
  0
SCALE
  5
10346
102
{ACAD_REACTORS
330
10337
102
}
330
10337
100
AcDbScale
 70
     0
300
8:1
140
8.0
141
1.0
290
     0
  0
SCALE
  5
10347
102
{ACAD_REACTORS
330
10337
102
}
330
10337
100
AcDbScale
 70
     0
300
10:1
140
10.0
141
1.0
290
     0
  0
SCALE
  5
10348
102
{ACAD_REACTORS
330
10337
102
}
330
10337
100
AcDbScale
 70
     0
300
100:1
140
100.0
141
1.0
290
     0
  0
SCALE
  5
10349
102
{ACAD_REACTORS
330
10337
102
}
330
10337
100
AcDbScale
 70
     0
300
1/128" = 1'-0"
140
0.0078125
141
12.0
290
     0
  0
SCALE
  5
1034A
102
{ACAD_REACTORS
330
10337
102
}
330
10337
100
AcDbScale
 70
     0
300
1/64" = 1'-0"
140
0.015625
141
12.0
290
     0
  0
SCALE
  5
1034B
102
{ACAD_REACTORS
330
10337
102
}
330
10337
100
AcDbScale
 70
     0
300
1/32" = 1'-0"
140
0.03125
141
12.0
290
     0
  0
SCALE
  5
1034C
102
{ACAD_REACTORS
330
10337
102
}
330
10337
100
AcDbScale
 70
     0
300
1/16" = 1'-0"
140
0.0625
141
12.0
290
     0
  0
SCALE
  5
1034D
102
{ACAD_REACTORS
330
10337
102
}
330
10337
100
AcDbScale
 70
     0
300
3/32" = 1'-0"
140
0.09375
141
12.0
290
     0
  0
SCALE
  5
1034E
102
{ACAD_REACTORS
330
10337
102
}
330
10337
100
AcDbScale
 70
     0
300
1/8" = 1'-0"
140
0.125
141
12.0
290
     0
  0
SCALE
  5
1034F
102
{ACAD_REACTORS
330
10337
102
}
330
10337
100
AcDbScale
 70
     0
300
3/16" = 1'-0"
140
0.1875
141
12.0
290
     0
  0
SCALE
  5
10350
102
{ACAD_REACTORS
330
10337
102
}
330
10337
100
AcDbScale
 70
     0
300
1/4" = 1'-0"
140
0.25
141
12.0
290
     0
  0
SCALE
  5
10351
102
{ACAD_REACTORS
330
10337
102
}
330
10337
100
AcDbScale
 70
     0
300
3/8" = 1'-0"
140
0.375
141
12.0
290
     0
  0
SCALE
  5
10352
102
{ACAD_REACTORS
330
10337
102
}
330
10337
100
AcDbScale
 70
     0
300
1/2" = 1'-0"
140
0.5
141
12.0
290
     0
  0
SCALE
  5
10353
102
{ACAD_REACTORS
330
10337
102
}
330
10337
100
AcDbScale
 70
     0
300
3/4" = 1'-0"
140
0.75
141
12.0
290
     0
  0
SCALE
  5
10354
102
{ACAD_REACTORS
330
10337
102
}
330
10337
100
AcDbScale
 70
     0
300
1" = 1'-0"
140
1.0
141
12.0
290
     0
  0
SCALE
  5
10355
102
{ACAD_REACTORS
330
10337
102
}
330
10337
100
AcDbScale
 70
     0
300
1-1/2" = 1'-0"
140
1.5
141
12.0
290
     0
  0
SCALE
  5
10356
102
{ACAD_REACTORS
330
10337
102
}
330
10337
100
AcDbScale
 70
     0
300
3" = 1'-0"
140
3.0
141
12.0
290
     0
  0
SCALE
  5
10357
102
{ACAD_REACTORS
330
10337
102
}
330
10337
100
AcDbScale
 70
     0
300
6" = 1'-0"
140
6.0
141
12.0
290
     0
  0
SCALE
  5
10358
102
{ACAD_REACTORS
330
10337
102
}
330
10337
100
AcDbScale
 70
     0
300
1'-0" = 1'-0"
140
12.0
141
12.0
290
     0
  0
ACDBSECTIONVIEWSTYLE
  5
11635
102
{ACAD_XDICTIONARY
360
11681
102
}
102
{ACAD_REACTORS
330
11634
330
11E28
102
}
330
11634
100
AcDbModelDocViewStyle
 70
     0
  3
Imperial24
290
     0
100
AcDbSectionViewStyle
 70
     0
 71
     0
 90
       78
 71
     1
340
F
 62
   256
 40
0.24
340
0
340
0
 62
   256
 40
0.24
300
I, O, Q, S, X, Z
 40
0.48
 90
        3
 40
0.18
 90
        1
 71
     2
340
14
 90
       25
 62
   256
340
14
 90
       50
 62
   256
 40
0.24
 40
0.0
 40
0.24
 71
     3
340
F
 62
   256
 40
0.24
 90
        1
 40
0.75
 90
        1
300
%<\AcVar ViewType \f "%tc1">% %<\AcVar ViewSectionStartId>%-%<\AcVar ViewSectionEndId>%\PSCALE %<\AcVar ViewScale \f "%sn">%
 71
     4
 62
   256
 62
   257
300
ANSI31
 40
1.0
 90
        0
290
     0
290
     0
 90
        6
 40
0.0
 40
1.570796326794896
 40
0.2617993877991494
 40
1.308996938995747
 40
-0.2617993877991494
 40
1.832595714594046
  0
ACDBSECTIONVIEWSTYLE
  5
12850
102
{ACAD_XDICTIONARY
360
12851
102
}
102
{ACAD_REACTORS
330
11634
330
128F4
102
}
330
11634
100
AcDbModelDocViewStyle
 70
     0
  3
Metric50
290
     0
100
AcDbSectionViewStyle
 70
     0
 71
     0
 90
      102
 71
     1
340
F
 62
   256
 40
5.0
340
0
340
0
 62
   256
 40
5.0
300
I, O, Q, S, X, Z
 40
10.0
 90
        0
 40
2.5
 90
        0
 71
     2
340
14
 90
       25
 62
   256
340
14
 90
       50
 62
   256
 40
5.0
 40
2.5
 40
5.0
 71
     3
340
F
 62
   256
 40
5.0
 90
        0
 40
15.0
 90
        1
300
%<\AcVar ViewSectionStartId>%-%<\AcVar ViewSectionEndId>% (%<\AcVar ViewScale \f "%sn">%)
 71
     4
 62
   256
 62
   257
300
ANSI31
 40
1.0
 90
        0
290
     0
290
     0
 90
        6
 40
0.0
 40
1.570796326794896
 40
0.2617993877991494
 40
1.308996938995747
 40
-0.2617993877991494
 40
1.832595714594046
  0
TABLESTYLE
  5
D9A1
102
{ACAD_XDICTIONARY
360
103A2
102
}
102
{ACAD_REACTORS
330
D9A0
102
}
330
D9A0
100
AcDbTableStyle
280
     0
  3
Standard
 70
     0
 71
     0
 40
0.06
 41
0.06
280
     0
281
     0
  7
STANDARD
140
0.18
170
     2
 62
     0
 63
     7
283
     0
 90
        4
 91
        0
  1

274
    -2
284
     1
 64
     0
275
    -2
285
     1
 65
     0
276
    -2
286
     1
 66
     0
277
    -2
287
     1
 67
     0
278
    -2
288
     1
 68
     0
279
    -2
289
     1
 69
     0
  7
STANDARD
140
0.25
170
     5
 62
     0
 63
     7
283
     0
 90
        4
 91
        0
  1

274
    -2
284
     1
 64
     0
275
    -2
285
     1
 65
     0
276
    -2
286
     1
 66
     0
277
    -2
287
     1
 67
     0
278
    -2
288
     1
 68
     0
279
    -2
289
     1
 69
     0
  7
STANDARD
140
0.18
170
     5
 62
     0
 63
     7
283
     0
 90
        4
 91
        0
  1

274
    -2
284
     1
 64
     0
275
    -2
285
     1
 65
     0
276
    -2
286
     1
 66
     0
277
    -2
287
     1
 67
     0
278
    -2
288
     1
 68
     0
279
    -2
289
     1
 69
     0
  0
VISUALSTYLE
  5
1032C
102
{ACAD_XDICTIONARY
360
1338B
102
}
102
{ACAD_REACTORS
330
10326
102
}
330
10326
100
AcDbVisualStyle
  2
2dWireframe
 70
     4
177
     2
291
     0
 71
     0
176
     1
 72
     2
176
     1
 73
     0
176
     1
 90
        0
176
     1
 40
0.6
176
     1
 41
30.0
176
     1
 63
     7
421
 16777215
176
     1
 74
     1
176
     1
 91
        4
176
     1
 64
     7
176
     1
 65
   257
176
     1
 75
     1
176
     1
175
     1
176
     1
 42
1.0
176
     1
 92
        0
176
     1
 66
   257
176
     1
 43
1.0
176
     1
 76
     1
176
     1
 77
     6
176
     1
 78
     2
176
     1
 67
     7
176
     1
 79
     5
176
     1
170
     0
176
     1
171
     0
176
     1
290
     0
176
     1
 93
        1
176
     1
 44
0.0
176
     1
173
     0
176
     1
1001
ACAD
1000
AcDbSavedByObjectVersion
1070
     0
  0
VISUALSTYLE
  5
1032E
102
{ACAD_XDICTIONARY
360
1338F
102
}
102
{ACAD_REACTORS
330
10326
102
}
330
10326
100
AcDbVisualStyle
  2
3D Hidden
 70
     6
177
     2
291
     0
 71
     1
176
     1
 72
     2
176
     1
 73
     2
176
     1
 90
        0
176
     1
 40
0.6
176
     1
 41
30.0
176
     1
 63
     7
421
 16777215
176
     1
 74
     2
176
     1
 91
        2
176
     1
 64
     7
176
     1
 65
   257
176
     1
 75
     2
176
     1
175
     1
176
     1
 42
40.0
176
     1
 92
        0
176
     1
 66
   257
176
     1
 43
1.0
176
     1
 76
     1
176
     1
 77
     6
176
     1
 78
     2
176
     1
 67
     7
176
     1
 79
     3
176
     1
170
     0
176
     1
171
     0
176
     1
290
     0
176
     1
 93
        1
176
     1
 44
0.0
176
     1
173
     0
176
     1
1001
ACAD
1000
AcDbSavedByObjectVersion
1070
     0
  0
VISUALSTYLE
  5
1032D
102
{ACAD_XDICTIONARY
360
1338D
102
}
102
{ACAD_REACTORS
330
10326
102
}
330
10326
100
AcDbVisualStyle
  2
3dWireframe
 70
     5
177
     2
291
     0
 71
     0
176
     1
 72
     2
176
     1
 73
     0
176
     1
 90
        0
176
     1
 40
0.6
176
     1
 41
30.0
176
     1
 63
     7
421
 16777215
176
     1
 74
     1
176
     1
 91
        4
176
     1
 64
     7
176
     1
 65
   257
176
     1
 75
     1
176
     1
175
     1
176
     1
 42
1.0
176
     1
 92
        0
176
     1
 66
   257
176
     1
 43
1.0
176
     1
 76
     1
176
     1
 77
     6
176
     1
 78
     2
176
     1
 67
     7
176
     1
 79
     5
176
     1
170
     0
176
     1
171
     0
176
     1
290
     0
176
     1
 93
        1
176
     1
 44
0.0
176
     1
173
     0
176
     1
1001
ACAD
1000
AcDbSavedByObjectVersion
1070
     0
  0
VISUALSTYLE
  5
1032B
102
{ACAD_XDICTIONARY
360
13389
102
}
102
{ACAD_REACTORS
330
10326
102
}
330
10326
100
AcDbVisualStyle
  2
Basic
 70
     7
177
     2
291
     1
 71
     1
176
     1
 72
     0
176
     1
 73
     1
176
     1
 90
        0
176
     1
 40
0.6
176
     1
 41
30.0
176
     1
 63
     7
421
 16777215
176
     1
 74
     0
176
     1
 91
        4
176
     1
 64
     7
176
     1
 65
   257
176
     1
 75
     1
176
     1
175
     1
176
     1
 42
1.0
176
     1
 92
        8
176
     1
 66
     7
176
     1
 43
1.0
176
     1
 76
     1
176
     1
 77
     6
176
     1
 78
     2
176
     1
 67
     7
176
     1
 79
     5
176
     1
170
     0
176
     1
171
     0
176
     1
290
     0
176
     1
 93
        1
176
     1
 44
0.0
176
     1
173
     0
176
     1
1001
ACAD
1000
AcDbSavedByObjectVersion
1070
     0
  0
VISUALSTYLE
  5
10332
102
{ACAD_XDICTIONARY
360
13397
102
}
102
{ACAD_REACTORS
330
10326
102
}
330
10326
100
AcDbVisualStyle
  2
Brighten
 70
    12
177
     2
291
     1
 71
     2
176
     1
 72
     2
176
     1
 73
     0
176
     1
 90
        0
176
     1
 40
0.6
176
     1
 41
30.0
176
     1
 63
     7
421
 16777215
176
     1
 74
     1
176
     1
 91
        4
176
     1
 64
     7
176
     1
 65
   257
176
     1
 75
     1
176
     1
175
     1
176
     1
 42
1.0
176
     1
 92
        8
176
     1
 66
     7
176
     1
 43
1.0
176
     1
 76
     1
176
     1
 77
     6
176
     1
 78
     2
176
     1
 67
     7
176
     1
 79
     5
176
     1
170
     0
176
     1
171
     0
176
     1
290
     0
176
     1
 93
        1
176
     1
 44
50.0
176
     1
173
     0
176
     1
1001
ACAD
1000
AcDbSavedByObjectVersion
1070
     0
  0
VISUALSTYLE
  5
10336
102
{ACAD_XDICTIONARY
360
1339F
102
}
102
{ACAD_REACTORS
330
10326
102
}
330
10326
100
AcDbVisualStyle
  2
ColorChange
 70
    16
177
     2
291
     1
 71
     2
176
     1
 72
     2
176
     1
 73
     3
176
     1
 90
        0
176
     1
 40
0.6
176
     1
 41
30.0
176
     1
 63
     8
421
  8421504
176
     1
 74
     1
176
     1
 91
        4
176
     1
 64
     7
176
     1
 65
   257
176
     1
 75
     1
176
     1
175
     1
176
     1
 42
1.0
176
     1
 92
        8
176
     1
 66
     8
424
  8421504
176
     1
 43
1.0
176
     1
 76
     1
176
     1
 77
     6
176
     1
 78
     2
176
     1
 67
     7
176
     1
 79
     5
176
     1
170
     0
176
     1
171
     0
176
     1
290
     0
176
     1
 93
        1
176
     1
 44
0.0
176
     1
173
     0
176
     1
1001
ACAD
1000
AcDbSavedByObjectVersion
1070
     0
  0
VISUALSTYLE
  5
1032F
102
{ACAD_XDICTIONARY
360
13391
102
}
102
{ACAD_REACTORS
330
10326
102
}
330
10326
100
AcDbVisualStyle
  2
Conceptual
 70
     9
177
     2
291
     0
 71
     3
176
     1
 72
     2
176
     1
 73
     0
176
     1
 90
        0
176
     1
 40
0.6
176
     1
 41
30.0
176
     1
 63
     7
421
 16777215
176
     1
 74
     2
176
     1
 91
        2
176
     1
 64
     7
176
     1
 65
   257
176
     1
 75
     1
176
     1
175
     1
176
     1
 42
40.0
176
     1
 92
        8
176
     1
 66
     7
176
     1
 43
1.0
176
     1
 76
     1
176
     1
 77
     6
176
     1
 78
     2
176
     1
 67
     7
176
     1
 79
     3
176
     1
170
     0
176
     1
171
     0
176
     1
290
     0
176
     1
 93
        1
176
     1
 44
0.0
176
     1
173
     0
176
     1
1001
ACAD
1000
AcDbSavedByObjectVersion
1070
     0
  0
VISUALSTYLE
  5
10331
102
{ACAD_XDICTIONARY
360
13395
102
}
102
{ACAD_REACTORS
330
10326
102
}
330
10326
100
AcDbVisualStyle
  2
Dim
 70
    11
177
     2
291
     1
 71
     2
176
     1
 72
     2
176
     1
 73
     0
176
     1
 90
        0
176
     1
 40
0.6
176
     1
 41
30.0
176
     1
 63
     7
421
 16777215
176
     1
 74
     1
176
     1
 91
        4
176
     1
 64
     7
176
     1
 65
   257
176
     1
 75
     1
176
     1
175
     1
176
     1
 42
1.0
176
     1
 92
        8
176
     1
 66
     7
176
     1
 43
1.0
176
     1
 76
     1
176
     1
 77
     6
176
     1
 78
     2
176
     1
 67
     7
176
     1
 79
     5
176
     1
170
     0
176
     1
171
     0
176
     1
290
     0
176
     1
 93
        1
176
     1
 44
-50.0
176
     1
173
     0
176
     1
1001
ACAD
1000
AcDbSavedByObjectVersion
1070
     0
  0
VISUALSTYLE
  5
1105F
102
{ACAD_XDICTIONARY
360
133A5
102
}
102
{ACAD_REACTORS
330
10326
102
}
330
10326
100
AcDbVisualStyle
  2
EdgeColorOff
 70
    22
177
     2
291
     1
 71
     2
176
     0
 72
     2
176
     0
 73
     0
176
     0
 90
        0
176
     0
 40
0.6
176
     0
 41
30.0
176
     0
 63
     7
421
 16777215
176
     0
 74
     1
176
     0
 91
        4
176
     0
 64
     7
176
     0
 65
   257
176
     0
 75
     1
176
     0
175
     1
176
     0
 42
1.0
176
     0
 92
        8
176
     2
 66
     7
176
     0
 43
1.0
176
     0
 76
     1
176
     0
 77
     6
176
     0
 78
     2
176
     0
 67
     7
176
     0
 79
     5
176
     0
170
     0
176
     0
171
     0
176
     0
290
     0
176
     0
 93
        1
176
     0
 44
0.0
176
     0
173
     0
176
     0
1001
ACAD
1000
AcDbSavedByObjectVersion
1070
     0
  0
VISUALSTYLE
  5
10335
102
{ACAD_XDICTIONARY
360
1339D
102
}
102
{ACAD_REACTORS
330
10326
102
}
330
10326
100
AcDbVisualStyle
  2
Facepattern
 70
    15
177
     2
291
     1
 71
     2
176
     1
 72
     2
176
     1
 73
     0
176
     1
 90
        0
176
     1
 40
0.6
176
     1
 41
30.0
176
     1
 63
     7
421
 16777215
176
     1
 74
     1
176
     1
 91
        4
176
     1
 64
     7
176
     1
 65
   257
176
     1
 75
     1
176
     1
175
     1
176
     1
 42
1.0
176
     1
 92
        8
176
     1
 66
     7
176
     1
 43
1.0
176
     1
 76
     1
176
     1
 77
     6
176
     1
 78
     2
176
     1
 67
     7
176
     1
 79
     5
176
     1
170
     0
176
     1
171
     0
176
     1
290
     0
176
     1
 93
        1
176
     1
 44
0.0
176
     1
173
     0
176
     1
1001
ACAD
1000
AcDbSavedByObjectVersion
1070
     0
  0
VISUALSTYLE
  5
10327
102
{ACAD_XDICTIONARY
360
13381
102
}
102
{ACAD_REACTORS
330
10326
102
}
330
10326
100
AcDbVisualStyle
  2
Flat
 70
     0
177
     2
291
     1
 71
     2
176
     1
 72
     1
176
     1
 73
     1
176
     1
 90
        2
176
     1
 40
0.6
176
     1
 41
30.0
176
     1
 63
     7
421
 16777215
176
     1
 74
     0
176
     1
 91
        4
176
     1
 64
     7
176
     1
 65
   257
176
     1
 75
     1
176
     1
175
     1
176
     1
 42
1.0
176
     1
 92
        8
176
     1
 66
     7
176
     1
 43
1.0
176
     1
 76
     1
176
     1
 77
     6
176
     1
 78
     2
176
     1
 67
     7
176
     1
 79
     5
176
     1
170
     0
176
     1
171
     0
176
     1
290
     0
176
     1
 93
       13
176
     1
 44
0.0
176
     1
173
     0
176
     1
1001
ACAD
1000
AcDbSavedByObjectVersion
1070
     0
  0
VISUALSTYLE
  5
10328
102
{ACAD_XDICTIONARY
360
13383
102
}
102
{ACAD_REACTORS
330
10326
102
}
330
10326
100
AcDbVisualStyle
  2
FlatWithEdges
 70
     1
177
     2
291
     1
 71
     2
176
     1
 72
     1
176
     1
 73
     1
176
     1
 90
        2
176
     1
 40
0.6
176
     1
 41
30.0
176
     1
 63
     7
421
 16777215
176
     1
 74
     1
176
     1
 91
        4
176
     1
 64
     7
176
     1
 65
   257
176
     1
 75
     1
176
     1
175
     1
176
     1
 42
1.0
176
     1
 92
        0
176
     1
 66
   257
176
     1
 43
1.0
176
     1
 76
     1
176
     1
 77
     6
176
     1
 78
     2
176
     1
 67
     7
176
     1
 79
     5
176
     1
170
     0
176
     1
171
     0
176
     1
290
     0
176
     1
 93
       13
176
     1
 44
0.0
176
     1
173
     0
176
     1
1001
ACAD
1000
AcDbSavedByObjectVersion
1070
     0
  0
VISUALSTYLE
  5
10329
102
{ACAD_XDICTIONARY
360
13385
102
}
102
{ACAD_REACTORS
330
10326
102
}
330
10326
100
AcDbVisualStyle
  2
Gouraud
 70
     2
177
     2
291
     1
 71
     2
176
     1
 72
     2
176
     1
 73
     1
176
     1
 90
        2
176
     1
 40
0.6
176
     1
 41
30.0
176
     1
 63
     7
421
 16777215
176
     1
 74
     0
176
     1
 91
        4
176
     1
 64
     7
176
     1
 65
   257
176
     1
 75
     1
176
     1
175
     1
176
     1
 42
1.0
176
     1
 92
        0
176
     1
 66
     7
176
     1
 43
1.0
176
     1
 76
     1
176
     1
 77
     6
176
     1
 78
     2
176
     1
 67
     7
176
     1
 79
     5
176
     1
170
     0
176
     1
171
     0
176
     1
290
     0
176
     1
 93
       13
176
     1
 44
0.0
176
     1
173
     0
176
     1
1001
ACAD
1000
AcDbSavedByObjectVersion
1070
     0
  0
VISUALSTYLE
  5
1032A
102
{ACAD_XDICTIONARY
360
13387
102
}
102
{ACAD_REACTORS
330
10326
102
}
330
10326
100
AcDbVisualStyle
  2
GouraudWithEdges
 70
     3
177
     2
291
     1
 71
     2
176
     1
 72
     2
176
     1
 73
     1
176
     1
 90
        2
176
     1
 40
0.6
176
     1
 41
30.0
176
     1
 63
     7
421
 16777215
176
     1
 74
     1
176
     1
 91
        4
176
     1
 64
     7
176
     1
 65
   257
176
     1
 75
     1
176
     1
175
     1
176
     1
 42
1.0
176
     1
 92
        0
176
     1
 66
   257
176
     1
 43
1.0
176
     1
 76
     1
176
     1
 77
     6
176
     1
 78
     2
176
     1
 67
     7
176
     1
 79
     5
176
     1
170
     0
176
     1
171
     0
176
     1
290
     0
176
     1
 93
       13
176
     1
 44
0.0
176
     1
173
     0
176
     1
1001
ACAD
1000
AcDbSavedByObjectVersion
1070
     0
  0
VISUALSTYLE
  5
11605
102
{ACAD_XDICTIONARY
360
133A9
102
}
102
{ACAD_REACTORS
330
10326
102
}
330
10326
100
AcDbVisualStyle
  2
Hidden
 70
     6
177
     2
291
     0
 71
     1
176
     1
 72
     2
176
     1
 73
     2
176
     1
 90
        0
176
     1
 40
0.6
176
     1
 41
30.0
176
     1
 63
     7
421
 16777215
176
     1
 74
     2
176
     1
 91
        2
176
     1
 64
     7
176
     1
 65
   257
176
     1
 75
     2
176
     1
175
     1
176
     1
 42
40.0
176
     1
 92
        0
176
     1
 66
   257
176
     1
 43
1.0
176
     1
 76
     1
176
     1
 77
     6
176
     1
 78
     2
176
     1
 67
     7
176
     1
 79
     3
176
     1
170
     0
176
     1
171
     0
176
     1
290
     0
176
     1
 93
        1
176
     1
 44
0.0
176
     1
173
     0
176
     1
1001
ACAD
1000
AcDbSavedByObjectVersion
1070
     0
  0
VISUALSTYLE
  5
1105D
102
{ACAD_XDICTIONARY
360
133A1
102
}
102
{ACAD_REACTORS
330
10326
102
}
330
10326
100
AcDbVisualStyle
  2
JitterOff
 70
    20
177
     2
291
     1
 71
     2
176
     0
 72
     2
176
     0
 73
     0
176
     0
 90
        0
176
     0
 40
0.6
176
     0
 41
30.0
176
     0
 63
     7
421
 16777215
176
     0
 74
     1
176
     0
 91
        4
176
     0
 64
     7
176
     0
 65
   257
176
     0
 75
     1
176
     0
175
     1
176
     0
 42
1.0
176
     0
 92
       10
176
     2
 66
     7
176
     0
 43
1.0
176
     0
 76
     1
176
     0
 77
     6
176
     0
 78
     2
176
     0
 67
     7
176
     0
 79
     5
176
     0
170
     0
176
     0
171
     0
176
     0
290
     0
176
     0
 93
        1
176
     0
 44
0.0
176
     0
173
     0
176
     0
1001
ACAD
1000
AcDbSavedByObjectVersion
1070
     0
  0
VISUALSTYLE
  5
10334
102
{ACAD_XDICTIONARY
360
1339B
102
}
102
{ACAD_REACTORS
330
10326
102
}
330
10326
100
AcDbVisualStyle
  2
Linepattern
 70
    14
177
     2
291
     1
 71
     2
176
     1
 72
     2
176
     1
 73
     0
176
     1
 90
        0
176
     1
 40
0.6
176
     1
 41
30.0
176
     1
 63
     7
421
 16777215
176
     1
 74
     1
176
     1
 91
        4
176
     1
 64
     7
176
     1
 65
   257
176
     1
 75
     7
176
     1
175
     7
176
     1
 42
1.0
176
     1
 92
        8
176
     1
 66
     7
176
     1
 43
1.0
176
     1
 76
     1
176
     1
 77
     6
176
     1
 78
     2
176
     1
 67
     7
176
     1
 79
     5
176
     1
170
     0
176
     1
171
     0
176
     1
290
     0
176
     1
 93
        1
176
     1
 44
0.0
176
     1
173
     0
176
     1
1001
ACAD
1000
AcDbSavedByObjectVersion
1070
     0
  0
VISUALSTYLE
  5
1105E
102
{ACAD_XDICTIONARY
360
133A3
102
}
102
{ACAD_REACTORS
330
10326
102
}
330
10326
100
AcDbVisualStyle
  2
OverhangOff
 70
    21
177
     2
291
     1
 71
     2
176
     0
 72
     2
176
     0
 73
     0
176
     0
 90
        0
176
     0
 40
0.6
176
     0
 41
30.0
176
     0
 63
     7
421
 16777215
176
     0
 74
     1
176
     0
 91
        4
176
     0
 64
     7
176
     0
 65
   257
176
     0
 75
     1
176
     0
175
     1
176
     0
 42
1.0
176
     0
 92
        9
176
     2
 66
     7
176
     0
 43
1.0
176
     0
 76
     1
176
     0
 77
     6
176
     0
 78
     2
176
     0
 67
     7
176
     0
 79
     5
176
     0
170
     0
176
     0
171
     0
176
     0
290
     0
176
     0
 93
        1
176
     0
 44
0.0
176
     0
173
     0
176
     0
1001
ACAD
1000
AcDbSavedByObjectVersion
1070
     0
  0
VISUALSTYLE
  5
10330
102
{ACAD_XDICTIONARY
360
13393
102
}
102
{ACAD_REACTORS
330
10326
102
}
330
10326
100
AcDbVisualStyle
  2
Realistic
 70
     8
177
     2
291
     0
 71
     2
176
     1
 72
     2
176
     1
 73
     0
176
     1
 90
        0
176
     1
 40
0.6
176
     1
 41
30.0
176
     1
 63
     7
421
 16777215
176
     1
 74
     1
176
     1
 91
        0
176
     1
 64
     7
176
     1
 65
   257
176
     1
 75
     1
176
     1
175
     1
176
     1
 42
1.0
176
     1
 92
        8
176
     1
 66
     8
424
  7895160
176
     1
 43
1.0
176
     1
 76
     1
176
     1
 77
     6
176
     1
 78
     2
176
     1
 67
     7
176
     1
 79
     5
176
     1
170
     0
176
     1
171
     0
176
     1
290
     0
176
     1
 93
       13
176
     1
 44
0.0
176
     1
173
     0
176
     1
1001
ACAD
1000
AcDbSavedByObjectVersion
1070
     0
  0
VISUALSTYLE
  5
1160A
102
{ACAD_XDICTIONARY
360
133B3
102
}
102
{ACAD_REACTORS
330
10326
102
}
330
10326
100
AcDbVisualStyle
  2
Shaded
 70
    27
177
     2
291
     0
 71
     2
176
     1
 72
     2
176
     1
 73
     1
176
     1
 90
        2
176
     1
 40
0.6
176
     1
 41
30.0
176
     1
 63
     7
421
 16777215
176
     1
 74
     0
176
     1
 91
        4
176
     1
 64
     7
176
     1
 65
   257
176
     1
 75
     1
176
     1
175
     1
176
     1
 42
1.0
176
     1
 92
        8
176
     1
 66
   257
176
     1
 43
1.0
176
     1
 76
     1
176
     1
 77
     6
176
     1
 78
     2
176
     1
 67
     8
425
  7895160
176
     1
 79
     3
176
     1
170
     0
176
     1
171
     0
176
     1
290
     0
176
     1
 93
        5
176
     1
 44
0.0
176
     1
173
     0
176
     1
1001
ACAD
1000
AcDbSavedByObjectVersion
1070
     0
  0
VISUALSTYLE
  5
11609
102
{ACAD_XDICTIONARY
360
133B1
102
}
102
{ACAD_REACTORS
330
10326
102
}
330
10326
100
AcDbVisualStyle
  2
Shaded with edges
 70
    26
177
     2
291
     0
 71
     2
176
     1
 72
     2
176
     1
 73
     1
176
     1
 90
        2
176
     1
 40
0.6
176
     1
 41
30.0
176
     1
 63
     7
421
 16777215
176
     1
 74
     1
176
     1
 91
       10
176
     1
 64
     7
176
     1
 65
   257
176
     1
 75
     2
176
     1
175
     1
176
     1
 42
1.0
176
     1
 92
        8
176
     1
 66
   257
176
     1
 43
1.0
176
     1
 76
     1
176
     1
 77
     6
176
     1
 78
     2
176
     1
 67
     7
176
     1
 79
     3
176
     1
170
     0
176
     1
171
     0
176
     1
290
     0
176
     1
 93
        5
176
     1
 44
0.0
176
     1
173
     0
176
     1
1001
ACAD
1000
AcDbSavedByObjectVersion
1070
     0
  0
VISUALSTYLE
  5
11606
102
{ACAD_XDICTIONARY
360
133AB
102
}
102
{ACAD_REACTORS
330
10326
102
}
330
10326
100
AcDbVisualStyle
  2
Shades of Gray
 70
    23
177
     2
291
     0
 71
     2
176
     1
 72
     2
176
     1
 73
     3
176
     1
 90
        0
176
     1
 40
0.6
176
     1
 41
30.0
176
     1
 63
     7
421
 16777215
176
     1
 74
     2
176
     1
 91
        2
176
     1
 64
     7
176
     1
 65
     7
176
     1
 75
     1
176
     1
175
     1
176
     1
 42
40.0
176
     1
 92
        8
176
     1
 66
     7
176
     1
 43
1.0
176
     1
 76
     1
176
     1
 77
     6
176
     1
 78
     2
176
     1
 67
     7
176
     1
 79
     3
176
     1
170
     0
176
     1
171
     0
176
     1
290
     0
176
     1
 93
        1
176
     1
 44
0.0
176
     1
173
     0
176
     1
1001
ACAD
1000
AcDbSavedByObjectVersion
1070
     0
  0
VISUALSTYLE
  5
11607
102
{ACAD_XDICTIONARY
360
133AD
102
}
102
{ACAD_REACTORS
330
10326
102
}
330
10326
100
AcDbVisualStyle
  2
Sketchy
 70
    24
177
     2
291
     0
 71
     1
176
     1
 72
     2
176
     1
 73
     2
176
     1
 90
        0
176
     1
 40
0.6
176
     1
 41
30.0
176
     1
 63
     7
421
 16777215
176
     1
 74
     2
176
     1
 91
        2
176
     1
 64
     7
176
     1
 65
     7
176
     1
 75
     1
176
     1
175
     1
176
     1
 42
40.0
176
     1
 92
       11
176
     1
 66
     7
176
     1
 43
1.0
176
     1
 76
     1
176
     1
 77
     6
176
     1
 78
     2
176
     1
 67
     7
176
     1
 79
     6
176
     1
170
     0
176
     1
171
     0
176
     1
290
     0
176
     1
 93
        1
176
     1
 44
0.0
176
     1
173
     0
176
     1
1001
ACAD
1000
AcDbSavedByObjectVersion
1070
     0
  0
VISUALSTYLE
  5
10333
102
{ACAD_XDICTIONARY
360
13399
102
}
102
{ACAD_REACTORS
330
10326
102
}
330
10326
100
AcDbVisualStyle
  2
Thicken
 70
    13
177
     2
291
     1
 71
     2
176
     1
 72
     2
176
     1
 73
     0
176
     1
 90
        0
176
     1
 40
0.6
176
     1
 41
30.0
176
     1
 63
     7
421
 16777215
176
     1
 74
     1
176
     1
 91
        4
176
     1
 64
     7
176
     1
 65
   257
176
     1
 75
     1
176
     1
175
     1
176
     1
 42
1.0
176
     1
 92
       12
176
     1
 66
     7
176
     1
 43
1.0
176
     1
 76
     1
176
     1
 77
     6
176
     1
 78
     2
176
     1
 67
     7
176
     1
 79
     5
176
     1
170
     0
176
     1
171
     0
176
     1
290
     0
176
     1
 93
        1
176
     1
 44
0.0
176
     1
173
     0
176
     1
1001
ACAD
1000
AcDbSavedByObjectVersion
1070
     0
  0
VISUALSTYLE
  5
11604
102
{ACAD_XDICTIONARY
360
133A7
102
}
102
{ACAD_REACTORS
330
10326
102
}
330
10326
100
AcDbVisualStyle
  2
Wireframe
 70
     5
177
     2
291
     0
 71
     0
176
     1
 72
     2
176
     1
 73
     0
176
     1
 90
        0
176
     1
 40
0.6
176
     1
 41
30.0
176
     1
 63
     7
421
 16777215
176
     1
 74
     1
176
     1
 91
        4
176
     1
 64
     7
176
     1
 65
   257
176
     1
 75
     1
176
     1
175
     1
176
     1
 42
1.0
176
     1
 92
        0
176
     1
 66
   257
176
     1
 43
1.0
176
     1
 76
     1
176
     1
 77
     6
176
     1
 78
     2
176
     1
 67
     7
176
     1
 79
     3
176
     1
170
     0
176
     1
171
     0
176
     1
290
     0
176
     1
 93
        1
176
     1
 44
0.0
176
     1
173
     0
176
     1
1001
ACAD
1000
AcDbSavedByObjectVersion
1070
     0
  0
VISUALSTYLE
  5
11608
102
{ACAD_XDICTIONARY
360
133AF
102
}
102
{ACAD_REACTORS
330
10326
102
}
330
10326
100
AcDbVisualStyle
  2
X-Ray
 70
    25
177
     2
291
     0
 71
     2
176
     1
 72
     2
176
     1
 73
     1
176
     1
 90
        1
176
     1
 40
0.5
176
     1
 41
30.0
176
     1
 63
     7
421
 16777215
176
     1
 74
     1
176
     1
 91
        0
176
     1
 64
     7
176
     1
 65
   257
176
     1
 75
     1
176
     1
175
     1
176
     1
 42
1.0
176
     1
 92
        8
176
     1
 66
     7
176
     1
 43
1.0
176
     1
 76
     1
176
     1
 77
     6
176
     1
 78
     2
176
     1
 67
     7
176
     1
 79
     3
176
     1
170
     0
176
     1
171
     0
176
     1
290
     0
176
     1
 93
       13
176
     1
 44
0.0
176
     1
173
     0
176
     1
1001
ACAD
1000
AcDbSavedByObjectVersion
1070
     0
  0
DICTIONARYVAR
  5
103A7
102
{ACAD_REACTORS
330
2C7C
102
}
330
2C7C
100
DictionaryVariables
280
     0
  1
1:1
  0
DICTIONARYVAR
  5
103A5
102
{ACAD_REACTORS
330
2C7C
102
}
330
2C7C
100
DictionaryVariables
280
     0
  1
STANDARD
  0
DICTIONARYVAR
  5
D9C1
102
{ACAD_REACTORS
330
2C7C
102
}
330
2C7C
100
DictionaryVariables
280
     0
  1
STANDARD
  0
DICTIONARYVAR
  5
11686
102
{ACAD_REACTORS
330
2C7C
102
}
330
2C7C
100
DictionaryVariables
280
     0
  1
Metric50
  0
DICTIONARYVAR
  5
11687
102
{ACAD_REACTORS
330
2C7C
102
}
330
2C7C
100
DictionaryVariables
280
     0
  1
Metric50
  0
DICTIONARYVAR
  5
D99B
102
{ACAD_REACTORS
330
2C7C
102
}
330
2C7C
100
DictionaryVariables
280
     0
  1
1
  0
DICTIONARYVAR
  5
11631
102
{ACAD_REACTORS
330
2C7C
102
}
330
2C7C
100
DictionaryVariables
280
     0
  1
1
  0
DICTIONARYVAR
  5
11632
102
{ACAD_REACTORS
330
2C7C
102
}
330
2C7C
100
DictionaryVariables
280
     0
  1
15
  0
DICTIONARYVAR
  5
103A8
102
{ACAD_REACTORS
330
2C7C
102
}
330
2C7C
100
DictionaryVariables
280
     0
  1
0
  0
DICTIONARYVAR
  5
103A6
102
{ACAD_REACTORS
330
2C7C
102
}
330
2C7C
100
DictionaryVariables
280
     0
  1
0
  0
DICTIONARYVAR
  5
2C7D
102
{ACAD_REACTORS
330
2C7C
102
}
330
2C7C
100
DictionaryVariables
280
     0
  1
96
  0
DICTIONARY
  5
13380
102
{ACAD_REACTORS
330
1337E
102
}
330
1337E
100
AcDbDictionary
281
     1
  0
DICTIONARY
  5
1337F
102
{ACAD_REACTORS
330
1337E
102
}
330
1337E
100
AcDbDictionary
281
     1
  3
8796087888272
350
13379
  3
8796087888288
350
1337A
  3
8796087888304
350
1337B
  3
8796087888320
350
1337C
  3
8796087888336
350
1337D
  0
DICTIONARY
  5
11E08
102
{ACAD_REACTORS
330
11E01
102
}
330
11E01
100
AcDbDictionary
281
     1
  0
DICTIONARY
  5
11683
330
11637
100
AcDbDictionary
280
     1
281
     1
  3
ACAD_XREC_ROUNDTRIP
360
133B6
  0
DICTIONARY
  5
12853
330
12852
100
AcDbDictionary
280
     1
281
     1
  3
ACAD_XREC_ROUNDTRIP
360
133B8
  0
DICTIONARY
  5
D9BE
330
5C22
100
AcDbDictionary
280
     1
281
     1
  0
DICTIONARY
  5
11108
330
5C21
100
AcDbDictionary
280
     1
281
     1
  0
DICTIONARY
  5
10317
330
10316
100
AcDbDictionary
280
     1
281
     1
  3
BUMPTILE
360
10319
  3
DIFFUSETILE
360
10318
  3
OPACITYTILE
360
1031C
  3
REFLECTIONTILE
360
1031B
  3
REFRACTIONTILE
360
1031D
  3
SPECULARTILE
360
1031A
  0
DICTIONARY
  5
1030F
330
1030E
100
AcDbDictionary
280
     1
281
     1
  3
BUMPTILE
360
10311
  3
DIFFUSETILE
360
10310
  3
OPACITYTILE
360
10314
  3
REFLECTIONTILE
360
10313
  3
REFRACTIONTILE
360
10315
  3
SPECULARTILE
360
10312
  0
DICTIONARY
  5
1031F
330
1031E
100
AcDbDictionary
280
     1
281
     1
  3
BUMPTILE
360
10321
  3
DIFFUSETILE
360
10320
  3
OPACITYTILE
360
10324
  3
REFLECTIONTILE
360
10323
  3
REFRACTIONTILE
360
10325
  3
SPECULARTILE
360
10322
  0
DICTIONARY
  5
11681
330
11635
100
AcDbDictionary
280
     1
281
     1
  3
ACAD_XREC_ROUNDTRIP
360
133B5
  0
DICTIONARY
  5
12851
330
12850
100
AcDbDictionary
280
     1
281
     1
  3
ACAD_XREC_ROUNDTRIP
360
133B7
  0
DICTIONARY
  5
103A2
330
D9A1
100
AcDbDictionary
280
     1
281
     1
  3
ACAD_ROUNDTRIP_2008_TABLESTYLE_CELLSTYLEMAP
360
13376
  0
DICTIONARY
  5
1338B
330
1032C
100
AcDbDictionary
280
     1
281
     1
  3
ACAD_XREC_ROUNDTRIP
360
1338C
  0
DICTIONARY
  5
1338F
330
1032E
100
AcDbDictionary
280
     1
281
     1
  3
ACAD_XREC_ROUNDTRIP
360
13390
  0
DICTIONARY
  5
1338D
330
1032D
100
AcDbDictionary
280
     1
281
     1
  3
ACAD_XREC_ROUNDTRIP
360
1338E
  0
DICTIONARY
  5
13389
330
1032B
100
AcDbDictionary
280
     1
281
     1
  3
ACAD_XREC_ROUNDTRIP
360
1338A
  0
DICTIONARY
  5
13397
330
10332
100
AcDbDictionary
280
     1
281
     1
  3
ACAD_XREC_ROUNDTRIP
360
13398
  0
DICTIONARY
  5
1339F
330
10336
100
AcDbDictionary
280
     1
281
     1
  3
ACAD_XREC_ROUNDTRIP
360
133A0
  0
DICTIONARY
  5
13391
330
1032F
100
AcDbDictionary
280
     1
281
     1
  3
ACAD_XREC_ROUNDTRIP
360
13392
  0
DICTIONARY
  5
13395
330
10331
100
AcDbDictionary
280
     1
281
     1
  3
ACAD_XREC_ROUNDTRIP
360
13396
  0
DICTIONARY
  5
133A5
330
1105F
100
AcDbDictionary
280
     1
281
     1
  3
ACAD_XREC_ROUNDTRIP
360
133A6
  0
DICTIONARY
  5
1339D
330
10335
100
AcDbDictionary
280
     1
281
     1
  3
ACAD_XREC_ROUNDTRIP
360
1339E
  0
DICTIONARY
  5
13381
330
10327
100
AcDbDictionary
280
     1
281
     1
  3
ACAD_XREC_ROUNDTRIP
360
13382
  0
DICTIONARY
  5
13383
330
10328
100
AcDbDictionary
280
     1
281
     1
  3
ACAD_XREC_ROUNDTRIP
360
13384
  0
DICTIONARY
  5
13385
330
10329
100
AcDbDictionary
280
     1
281
     1
  3
ACAD_XREC_ROUNDTRIP
360
13386
  0
DICTIONARY
  5
13387
330
1032A
100
AcDbDictionary
280
     1
281
     1
  3
ACAD_XREC_ROUNDTRIP
360
13388
  0
DICTIONARY
  5
133A9
330
11605
100
AcDbDictionary
280
     1
281
     1
  3
ACAD_XREC_ROUNDTRIP
360
133AA
  0
DICTIONARY
  5
133A1
330
1105D
100
AcDbDictionary
280
     1
281
     1
  3
ACAD_XREC_ROUNDTRIP
360
133A2
  0
DICTIONARY
  5
1339B
330
10334
100
AcDbDictionary
280
     1
281
     1
  3
ACAD_XREC_ROUNDTRIP
360
1339C
  0
DICTIONARY
  5
133A3
330
1105E
100
AcDbDictionary
280
     1
281
     1
  3
ACAD_XREC_ROUNDTRIP
360
133A4
  0
DICTIONARY
  5
13393
330
10330
100
AcDbDictionary
280
     1
281
     1
  3
ACAD_XREC_ROUNDTRIP
360
13394
  0
DICTIONARY
  5
133B3
330
1160A
100
AcDbDictionary
280
     1
281
     1
  3
ACAD_XREC_ROUNDTRIP
360
133B4
  0
DICTIONARY
  5
133B1
330
11609
100
AcDbDictionary
280
     1
281
     1
  3
ACAD_XREC_ROUNDTRIP
360
133B2
  0
DICTIONARY
  5
133AB
330
11606
100
AcDbDictionary
280
     1
281
     1
  3
ACAD_XREC_ROUNDTRIP
360
133AC
  0
DICTIONARY
  5
133AD
330
11607
100
AcDbDictionary
280
     1
281
     1
  3
ACAD_XREC_ROUNDTRIP
360
133AE
  0
DICTIONARY
  5
13399
330
10333
100
AcDbDictionary
280
     1
281
     1
  3
ACAD_XREC_ROUNDTRIP
360
1339A
  0
DICTIONARY
  5
133A7
330
11604
100
AcDbDictionary
280
     1
281
     1
  3
ACAD_XREC_ROUNDTRIP
360
133A8
  0
DICTIONARY
  5
133AF
330
11608
100
AcDbDictionary
280
     1
281
     1
  3
ACAD_XREC_ROUNDTRIP
360
133B0
  0
XRECORD
  5
13379
102
{ACAD_REACTORS
330
1337F
102
}
330
1337F
100
AcDbXrecord
280
     1
  1
AcDb_Thumbnail_Schema
102
{ATTRRECORD
341
1337A
  2
AcDbDs::TreatedAsObjectData
280
     1
291
     1
102
ATTRRECORD}
102
{ATTRRECORD
341
1337B
  2
AcDbDs::Legacy
280
     1
291
     1
102
ATTRRECORD}
  2
AcDbDs::ID
280
    10
 91
        8
102
{ATTRRECORD
341
1337C
  2
AcDs:Indexable
280
     1
291
     1
102
ATTRRECORD}
102
{ATTRRECORD
341
1337D
  2
AcDbDs::HandleAttribute
280
     7
282
     1
102
ATTRRECORD}
  2
Thumbnail_Data
280
    15
 91
        0
  0
XRECORD
  5
1337A
102
{ACAD_REACTORS
330
1337F
102
}
330
1337F
100
AcDbXrecord
280
     1
  1
AcDbDs::TreatedAsObjectDataSchema
  2
AcDbDs::TreatedAsObjectData
280
     1
 91
        0
  0
XRECORD
  5
1337B
102
{ACAD_REACTORS
330
1337F
102
}
330
1337F
100
AcDbXrecord
280
     1
  1
AcDbDs::LegacySchema
  2
AcDbDs::Legacy
280
     1
 91
        0
  0
XRECORD
  5
1337C
102
{ACAD_REACTORS
330
1337F
102
}
330
1337F
100
AcDbXrecord
280
     1
  1
AcDbDs::IndexedPropertySchema
  2
AcDs:Indexable
280
     1
 91
        0
  0
XRECORD
  5
1337D
102
{ACAD_REACTORS
330
1337F
102
}
330
1337F
100
AcDbXrecord
280
     1
  1
AcDbDs::HandleAttributeSchema
  2
AcDbDs::HandleAttribute
280
     7
 91
        1
284
     1
  0
XRECORD
  5
133B6
102
{ACAD_REACTORS
330
11683
102
}
330
11683
100
AcDbXrecord
280
     1
102
DISPLAYNAME
  1
Imperial24
102
FLAGS
 90
        0
  0
XRECORD
  5
133B8
102
{ACAD_REACTORS
330
12853
102
}
330
12853
100
AcDbXrecord
280
     1
102
DISPLAYNAME
  1
Metric50
102
FLAGS
 90
        0
  0
XRECORD
  5
10319
102
{ACAD_REACTORS
330
10317
102
}
330
10317
100
AcDbXrecord
280
     1
270
     1
271
     1
  0
XRECORD
  5
10318
102
{ACAD_REACTORS
330
10317
102
}
330
10317
100
AcDbXrecord
280
     1
270
     1
271
     1
  0
XRECORD
  5
1031C
102
{ACAD_REACTORS
330
10317
102
}
330
10317
100
AcDbXrecord
280
     1
270
     1
271
     1
  0
XRECORD
  5
1031B
102
{ACAD_REACTORS
330
10317
102
}
330
10317
100
AcDbXrecord
280
     1
270
     1
271
     1
  0
XRECORD
  5
1031D
102
{ACAD_REACTORS
330
10317
102
}
330
10317
100
AcDbXrecord
280
     1
270
     1
271
     1
  0
XRECORD
  5
1031A
102
{ACAD_REACTORS
330
10317
102
}
330
10317
100
AcDbXrecord
280
     1
270
     1
271
     1
  0
XRECORD
  5
10311
102
{ACAD_REACTORS
330
1030F
102
}
330
1030F
100
AcDbXrecord
280
     1
270
     1
271
     1
  0
XRECORD
  5
10310
102
{ACAD_REACTORS
330
1030F
102
}
330
1030F
100
AcDbXrecord
280
     1
270
     1
271
     1
  0
XRECORD
  5
10314
102
{ACAD_REACTORS
330
1030F
102
}
330
1030F
100
AcDbXrecord
280
     1
270
     1
271
     1
  0
XRECORD
  5
10313
102
{ACAD_REACTORS
330
1030F
102
}
330
1030F
100
AcDbXrecord
280
     1
270
     1
271
     1
  0
XRECORD
  5
10315
102
{ACAD_REACTORS
330
1030F
102
}
330
1030F
100
AcDbXrecord
280
     1
270
     1
271
     1
  0
XRECORD
  5
10312
102
{ACAD_REACTORS
330
1030F
102
}
330
1030F
100
AcDbXrecord
280
     1
270
     1
271
     1
  0
XRECORD
  5
10321
102
{ACAD_REACTORS
330
1031F
102
}
330
1031F
100
AcDbXrecord
280
     1
270
     1
271
     1
  0
XRECORD
  5
10320
102
{ACAD_REACTORS
330
1031F
102
}
330
1031F
100
AcDbXrecord
280
     1
270
     1
271
     1
  0
XRECORD
  5
10324
102
{ACAD_REACTORS
330
1031F
102
}
330
1031F
100
AcDbXrecord
280
     1
270
     1
271
     1
  0
XRECORD
  5
10323
102
{ACAD_REACTORS
330
1031F
102
}
330
1031F
100
AcDbXrecord
280
     1
270
     1
271
     1
  0
XRECORD
  5
10325
102
{ACAD_REACTORS
330
1031F
102
}
330
1031F
100
AcDbXrecord
280
     1
270
     1
271
     1
  0
XRECORD
  5
10322
102
{ACAD_REACTORS
330
1031F
102
}
330
1031F
100
AcDbXrecord
280
     1
270
     1
271
     1
  0
XRECORD
  5
133B5
102
{ACAD_REACTORS
330
11681
102
}
330
11681
100
AcDbXrecord
280
     1
102
DISPLAYNAME
  1
Imperial24
102
FLAGS
 90
        0
  0
XRECORD
  5
133B7
102
{ACAD_REACTORS
330
12851
102
}
330
12851
100
AcDbXrecord
280
     1
102
DISPLAYNAME
  1
Metric50
102
FLAGS
 90
        0
  0
CELLSTYLEMAP
  5
13376
102
{ACAD_REACTORS
330
103A2
102
}
330
103A2
100
AcDbCellStyleMap
 90
        3
300
CELLSTYLE
  1
TABLEFORMAT_BEGIN
 90
        5
170
     1
 91
        0
 92
    32768
 62
   257
 93
        1
300
CONTENTFORMAT
  1
CONTENTFORMAT_BEGIN
 90
        0
 91
        0
 92
        4
 93
        0
300

 40
0.0
140
1.0
 94
        5
 62
     0
340
F
144
0.25
309
CONTENTFORMAT_END
171
     0
 94
        6
 95
        1
302
GRIDFORMAT
  1
GRIDFORMAT_BEGIN
 90
        0
 91
        1
 62
     0
 92
       -2
340
0
 93
        0
 40
0.045
309
GRIDFORMAT_END
 95
        2
302
GRIDFORMAT
  1
GRIDFORMAT_BEGIN
 90
        0
 91
        1
 62
     0
 92
       -2
340
0
 93
        0
 40
0.045
309
GRIDFORMAT_END
 95
        4
302
GRIDFORMAT
  1
GRIDFORMAT_BEGIN
 90
        0
 91
        1
 62
     0
 92
       -2
340
0
 93
        0
 40
0.045
309
GRIDFORMAT_END
 95
        8
302
GRIDFORMAT
  1
GRIDFORMAT_BEGIN
 90
        0
 91
        1
 62
     0
 92
       -2
340
0
 93
        0
 40
0.045
309
GRIDFORMAT_END
 95
       16
302
GRIDFORMAT
  1
GRIDFORMAT_BEGIN
 90
        0
 91
        1
 62
     0
 92
       -2
340
0
 93
        0
 40
0.045
309
GRIDFORMAT_END
 95
       32
302
GRIDFORMAT
  1
GRIDFORMAT_BEGIN
 90
        0
 91
        1
 62
     0
 92
       -2
340
0
 93
        0
 40
0.045
309
GRIDFORMAT_END
309
TABLEFORMAT_END
  1
CELLSTYLE_BEGIN
 90
        1
 91
        1
300
_TITLE
309
CELLSTYLE_END
300
CELLSTYLE
  1
TABLEFORMAT_BEGIN
 90
        5
170
     1
 91
        0
 92
        0
 62
   257
 93
        1
300
CONTENTFORMAT
  1
CONTENTFORMAT_BEGIN
 90
        0
 91
        0
 92
        4
 93
        0
300

 40
0.0
140
1.0
 94
        5
 62
     0
340
F
144
0.18
309
CONTENTFORMAT_END
171
     0
 94
        6
 95
        1
302
GRIDFORMAT
  1
GRIDFORMAT_BEGIN
 90
        0
 91
        1
 62
     0
 92
       -2
340
0
 93
        0
 40
0.045
309
GRIDFORMAT_END
 95
        2
302
GRIDFORMAT
  1
GRIDFORMAT_BEGIN
 90
        0
 91
        1
 62
     0
 92
       -2
340
0
 93
        0
 40
0.045
309
GRIDFORMAT_END
 95
        4
302
GRIDFORMAT
  1
GRIDFORMAT_BEGIN
 90
        0
 91
        1
 62
     0
 92
       -2
340
0
 93
        0
 40
0.045
309
GRIDFORMAT_END
 95
        8
302
GRIDFORMAT
  1
GRIDFORMAT_BEGIN
 90
        0
 91
        1
 62
     0
 92
       -2
340
0
 93
        0
 40
0.045
309
GRIDFORMAT_END
 95
       16
302
GRIDFORMAT
  1
GRIDFORMAT_BEGIN
 90
        0
 91
        1
 62
     0
 92
       -2
340
0
 93
        0
 40
0.045
309
GRIDFORMAT_END
 95
       32
302
GRIDFORMAT
  1
GRIDFORMAT_BEGIN
 90
        0
 91
        1
 62
     0
 92
       -2
340
0
 93
        0
 40
0.045
309
GRIDFORMAT_END
309
TABLEFORMAT_END
  1
CELLSTYLE_BEGIN
 90
        2
 91
        1
300
_HEADER
309
CELLSTYLE_END
300
CELLSTYLE
  1
TABLEFORMAT_BEGIN
 90
        5
170
     1
 91
        0
 92
        0
 62
   257
 93
        1
300
CONTENTFORMAT
  1
CONTENTFORMAT_BEGIN
 90
        0
 91
        0
 92
        4
 93
        0
300

 40
0.0
140
1.0
 94
        2
 62
     0
340
F
144
0.18
309
CONTENTFORMAT_END
171
     0
 94
        6
 95
        1
302
GRIDFORMAT
  1
GRIDFORMAT_BEGIN
 90
        0
 91
        1
 62
     0
 92
       -2
340
0
 93
        0
 40
0.045
309
GRIDFORMAT_END
 95
        2
302
GRIDFORMAT
  1
GRIDFORMAT_BEGIN
 90
        0
 91
        1
 62
     0
 92
       -2
340
0
 93
        0
 40
0.045
309
GRIDFORMAT_END
 95
        4
302
GRIDFORMAT
  1
GRIDFORMAT_BEGIN
 90
        0
 91
        1
 62
     0
 92
       -2
340
0
 93
        0
 40
0.045
309
GRIDFORMAT_END
 95
        8
302
GRIDFORMAT
  1
GRIDFORMAT_BEGIN
 90
        0
 91
        1
 62
     0
 92
       -2
340
0
 93
        0
 40
0.045
309
GRIDFORMAT_END
 95
       16
302
GRIDFORMAT
  1
GRIDFORMAT_BEGIN
 90
        0
 91
        1
 62
     0
 92
       -2
340
0
 93
        0
 40
0.045
309
GRIDFORMAT_END
 95
       32
302
GRIDFORMAT
  1
GRIDFORMAT_BEGIN
 90
        0
 91
        1
 62
     0
 92
       -2
340
0
 93
        0
 40
0.045
309
GRIDFORMAT_END
309
TABLEFORMAT_END
  1
CELLSTYLE_BEGIN
 90
        3
 91
        2
300
_DATA
309
CELLSTYLE_END
  0
XRECORD
  5
1338C
102
{ACAD_REACTORS
330
1338B
102
}
330
1338B
100
AcDbXrecord
280
     1
102
RTVSPost2010Prop28
280
     1
102
RTVSPost2010PropOp28
 70
     1
102
RTVSPost2010Prop29
280
     1
102
RTVSPost2010PropOp29
 70
     1
102
RTVSPost2010Prop30
280
     0
102
RTVSPost2010PropOp30
 70
     1
102
RTVSPost2010Prop31
280
     0
102
RTVSPost2010PropOp31
 70
     1
102
RTVSPost2010Prop32
280
     0
102
RTVSPost2010PropOp32
 70
     1
102
RTVSPost2010Prop33
280
     0
102
RTVSPost2010PropOp33
 70
     1
102
RTVSPost2010Prop34
280
     0
102
RTVSPost2010PropOp34
 70
     1
102
RTVSPost2010Prop35
280
     0
102
RTVSPost2010PropOp35
 70
     1
102
RTVSPost2010Prop36
280
     0
102
RTVSPost2010PropOp36
 70
     1
102
RTVSPost2010Prop37
 90
       50
102
RTVSPost2010PropOp37
 70
     1
102
RTVSPost2010Prop38
140
0.0
102
RTVSPost2010PropOp38
 70
     1
102
RTVSPost2010Prop39
140
1.0
102
RTVSPost2010PropOp39
 70
     1
102
RTVSPost2010Prop40
 90
        0
102
RTVSPost2010PropOp40
 70
     1
102
RTVSPost2010Prop41ColorIndex
 90
       18
102
RTVSPost2010Prop41ColorRGB
 90
        0
102
RTVSPost2010PropOp41
 70
     1
102
RTVSPost2010Prop42
 90
       50
102
RTVSPost2010PropOp42
 70
     1
102
RTVSPost2010Prop43
 90
        3
102
RTVSPost2010PropOp43
 70
     1
102
RTVSPost2010Prop44ColorIndex
 90
        5
102
RTVSPost2010Prop44ColorRGB
 90
      255
102
RTVSPost2010PropOp44
 70
     1
102
RTVSPost2010Prop45
280
     0
102
RTVSPost2010PropOp45
 70
     1
102
RTVSPost2010Prop46
 90
       50
102
RTVSPost2010PropOp46
 70
     1
102
RTVSPost2010Prop47
 90
       50
102
RTVSPost2010PropOp47
 70
     1
102
RTVSPost2010Prop48
 90
       50
102
RTVSPost2010PropOp48
 70
     1
102
RTVSPost2010Prop49
280
     0
102
RTVSPost2010PropOp49
 70
     1
102
RTVSPost2010Prop50
 90
       50
102
RTVSPost2010PropOp50
 70
     1
102
RTVSPost2010Prop51ColorIndex
 90
      256
102
RTVSPost2010Prop51ColorRGB
 90
-16777216
102
RTVSPost2010PropOp51
 70
     0
102
RTVSPost2010Prop52
140
1.0
102
RTVSPost2010PropOp52
 70
     0
102
RTVSPost2010Prop53
 90
        2
102
RTVSPost2010PropOp53
 70
     1
102
RTVSPost2010Prop54
  1
strokes_ogs.tif
102
RTVSPost2010PropOp54
 70
     1
102
RTVSPost2010Prop55
280
     0
102
RTVSPost2010PropOp55
 70
     1
102
RTVSPost2010Prop56
140
1.0
102
RTVSPost2010PropOp56
 70
     1
102
RTVSPost2010Prop57
140
1.0
102
RTVSPost2010PropOp57
 70
     1
  0
XRECORD
  5
13390
102
{ACAD_REACTORS
330
1338F
102
}
330
1338F
100
AcDbXrecord
280
     1
102
RTVSPost2010Prop28
280
     0
102
RTVSPost2010PropOp28
 70
     1
102
RTVSPost2010Prop29
280
     1
102
RTVSPost2010PropOp29
 70
     1
102
RTVSPost2010Prop30
280
     1
102
RTVSPost2010PropOp30
 70
     1
102
RTVSPost2010Prop31
280
     0
102
RTVSPost2010PropOp31
 70
     1
102
RTVSPost2010Prop32
280
     0
102
RTVSPost2010PropOp32
 70
     1
102
RTVSPost2010Prop33
280
     0
102
RTVSPost2010PropOp33
 70
     1
102
RTVSPost2010Prop34
280
     0
102
RTVSPost2010PropOp34
 70
     1
102
RTVSPost2010Prop35
280
     0
102
RTVSPost2010PropOp35
 70
     1
102
RTVSPost2010Prop36
280
     0
102
RTVSPost2010PropOp36
 70
     1
102
RTVSPost2010Prop37
 90
       50
102
RTVSPost2010PropOp37
 70
     1
102
RTVSPost2010Prop38
140
0.0
102
RTVSPost2010PropOp38
 70
     1
102
RTVSPost2010Prop39
140
1.0
102
RTVSPost2010PropOp39
 70
     1
102
RTVSPost2010Prop40
 90
        0
102
RTVSPost2010PropOp40
 70
     1
102
RTVSPost2010Prop41ColorIndex
 90
       18
102
RTVSPost2010Prop41ColorRGB
 90
        0
102
RTVSPost2010PropOp41
 70
     1
102
RTVSPost2010Prop42
 90
       50
102
RTVSPost2010PropOp42
 70
     1
102
RTVSPost2010Prop43
 90
        3
102
RTVSPost2010PropOp43
 70
     1
102
RTVSPost2010Prop44ColorIndex
 90
        5
102
RTVSPost2010Prop44ColorRGB
 90
      255
102
RTVSPost2010PropOp44
 70
     1
102
RTVSPost2010Prop45
280
     0
102
RTVSPost2010PropOp45
 70
     1
102
RTVSPost2010Prop46
 90
       50
102
RTVSPost2010PropOp46
 70
     1
102
RTVSPost2010Prop47
 90
       50
102
RTVSPost2010PropOp47
 70
     1
102
RTVSPost2010Prop48
 90
       50
102
RTVSPost2010PropOp48
 70
     1
102
RTVSPost2010Prop49
280
     0
102
RTVSPost2010PropOp49
 70
     1
102
RTVSPost2010Prop50
 90
       50
102
RTVSPost2010PropOp50
 70
     1
102
RTVSPost2010Prop51ColorIndex
 90
      256
102
RTVSPost2010Prop51ColorRGB
 90
-16777216
102
RTVSPost2010PropOp51
 70
     0
102
RTVSPost2010Prop52
140
1.0
102
RTVSPost2010PropOp52
 70
     0
102
RTVSPost2010Prop53
 90
        2
102
RTVSPost2010PropOp53
 70
     1
102
RTVSPost2010Prop54
  1
strokes_ogs.tif
102
RTVSPost2010PropOp54
 70
     1
102
RTVSPost2010Prop55
280
     0
102
RTVSPost2010PropOp55
 70
     1
102
RTVSPost2010Prop56
140
1.0
102
RTVSPost2010PropOp56
 70
     1
102
RTVSPost2010Prop57
140
1.0
102
RTVSPost2010PropOp57
 70
     1
  0
XRECORD
  5
1338E
102
{ACAD_REACTORS
330
1338D
102
}
330
1338D
100
AcDbXrecord
280
     1
102
RTVSPost2010Prop28
280
     0
102
RTVSPost2010PropOp28
 70
     1
102
RTVSPost2010Prop29
280
     1
102
RTVSPost2010PropOp29
 70
     1
102
RTVSPost2010Prop30
280
     1
102
RTVSPost2010PropOp30
 70
     1
102
RTVSPost2010Prop31
280
     0
102
RTVSPost2010PropOp31
 70
     1
102
RTVSPost2010Prop32
280
     0
102
RTVSPost2010PropOp32
 70
     1
102
RTVSPost2010Prop33
280
     0
102
RTVSPost2010PropOp33
 70
     1
102
RTVSPost2010Prop34
280
     0
102
RTVSPost2010PropOp34
 70
     1
102
RTVSPost2010Prop35
280
     0
102
RTVSPost2010PropOp35
 70
     1
102
RTVSPost2010Prop36
280
     0
102
RTVSPost2010PropOp36
 70
     1
102
RTVSPost2010Prop37
 90
       50
102
RTVSPost2010PropOp37
 70
     1
102
RTVSPost2010Prop38
140
0.0
102
RTVSPost2010PropOp38
 70
     1
102
RTVSPost2010Prop39
140
1.0
102
RTVSPost2010PropOp39
 70
     1
102
RTVSPost2010Prop40
 90
        0
102
RTVSPost2010PropOp40
 70
     1
102
RTVSPost2010Prop41ColorIndex
 90
       18
102
RTVSPost2010Prop41ColorRGB
 90
        0
102
RTVSPost2010PropOp41
 70
     1
102
RTVSPost2010Prop42
 90
       50
102
RTVSPost2010PropOp42
 70
     1
102
RTVSPost2010Prop43
 90
        3
102
RTVSPost2010PropOp43
 70
     1
102
RTVSPost2010Prop44ColorIndex
 90
        5
102
RTVSPost2010Prop44ColorRGB
 90
      255
102
RTVSPost2010PropOp44
 70
     1
102
RTVSPost2010Prop45
280
     0
102
RTVSPost2010PropOp45
 70
     1
102
RTVSPost2010Prop46
 90
       50
102
RTVSPost2010PropOp46
 70
     1
102
RTVSPost2010Prop47
 90
       50
102
RTVSPost2010PropOp47
 70
     1
102
RTVSPost2010Prop48
 90
       50
102
RTVSPost2010PropOp48
 70
     1
102
RTVSPost2010Prop49
280
     0
102
RTVSPost2010PropOp49
 70
     1
102
RTVSPost2010Prop50
 90
       50
102
RTVSPost2010PropOp50
 70
     1
102
RTVSPost2010Prop51ColorIndex
 90
      256
102
RTVSPost2010Prop51ColorRGB
 90
-16777216
102
RTVSPost2010PropOp51
 70
     0
102
RTVSPost2010Prop52
140
1.0
102
RTVSPost2010PropOp52
 70
     0
102
RTVSPost2010Prop53
 90
        2
102
RTVSPost2010PropOp53
 70
     1
102
RTVSPost2010Prop54
  1
strokes_ogs.tif
102
RTVSPost2010PropOp54
 70
     1
102
RTVSPost2010Prop55
280
     0
102
RTVSPost2010PropOp55
 70
     1
102
RTVSPost2010Prop56
140
1.0
102
RTVSPost2010PropOp56
 70
     1
102
RTVSPost2010Prop57
140
1.0
102
RTVSPost2010PropOp57
 70
     1
  0
XRECORD
  5
1338A
102
{ACAD_REACTORS
330
13389
102
}
330
13389
100
AcDbXrecord
280
     1
102
RTVSPost2010Prop28
280
     0
102
RTVSPost2010PropOp28
 70
     1
102
RTVSPost2010Prop29
280
     1
102
RTVSPost2010PropOp29
 70
     1
102
RTVSPost2010Prop30
280
     1
102
RTVSPost2010PropOp30
 70
     1
102
RTVSPost2010Prop31
280
     0
102
RTVSPost2010PropOp31
 70
     1
102
RTVSPost2010Prop32
280
     0
102
RTVSPost2010PropOp32
 70
     1
102
RTVSPost2010Prop33
280
     0
102
RTVSPost2010PropOp33
 70
     1
102
RTVSPost2010Prop34
280
     0
102
RTVSPost2010PropOp34
 70
     1
102
RTVSPost2010Prop35
280
     0
102
RTVSPost2010PropOp35
 70
     1
102
RTVSPost2010Prop36
280
     0
102
RTVSPost2010PropOp36
 70
     1
102
RTVSPost2010Prop37
 90
       50
102
RTVSPost2010PropOp37
 70
     1
102
RTVSPost2010Prop38
140
0.0
102
RTVSPost2010PropOp38
 70
     1
102
RTVSPost2010Prop39
140
1.0
102
RTVSPost2010PropOp39
 70
     1
102
RTVSPost2010Prop40
 90
        0
102
RTVSPost2010PropOp40
 70
     1
102
RTVSPost2010Prop41ColorIndex
 90
       18
102
RTVSPost2010Prop41ColorRGB
 90
        0
102
RTVSPost2010PropOp41
 70
     1
102
RTVSPost2010Prop42
 90
       50
102
RTVSPost2010PropOp42
 70
     1
102
RTVSPost2010Prop43
 90
        3
102
RTVSPost2010PropOp43
 70
     1
102
RTVSPost2010Prop44ColorIndex
 90
        5
102
RTVSPost2010Prop44ColorRGB
 90
      255
102
RTVSPost2010PropOp44
 70
     1
102
RTVSPost2010Prop45
280
     0
102
RTVSPost2010PropOp45
 70
     1
102
RTVSPost2010Prop46
 90
       50
102
RTVSPost2010PropOp46
 70
     1
102
RTVSPost2010Prop47
 90
       50
102
RTVSPost2010PropOp47
 70
     1
102
RTVSPost2010Prop48
 90
       50
102
RTVSPost2010PropOp48
 70
     1
102
RTVSPost2010Prop49
280
     0
102
RTVSPost2010PropOp49
 70
     1
102
RTVSPost2010Prop50
 90
       50
102
RTVSPost2010PropOp50
 70
     1
102
RTVSPost2010Prop51ColorIndex
 90
      256
102
RTVSPost2010Prop51ColorRGB
 90
-16777216
102
RTVSPost2010PropOp51
 70
     0
102
RTVSPost2010Prop52
140
1.0
102
RTVSPost2010PropOp52
 70
     0
102
RTVSPost2010Prop53
 90
        2
102
RTVSPost2010PropOp53
 70
     1
102
RTVSPost2010Prop54
  1
strokes_ogs.tif
102
RTVSPost2010PropOp54
 70
     1
102
RTVSPost2010Prop55
280
     0
102
RTVSPost2010PropOp55
 70
     1
102
RTVSPost2010Prop56
140
1.0
102
RTVSPost2010PropOp56
 70
     1
102
RTVSPost2010Prop57
140
1.0
102
RTVSPost2010PropOp57
 70
     1
  0
XRECORD
  5
13398
102
{ACAD_REACTORS
330
13397
102
}
330
13397
100
AcDbXrecord
280
     1
102
RTVSPost2010Prop28
280
     0
102
RTVSPost2010PropOp28
 70
     1
102
RTVSPost2010Prop29
280
     1
102
RTVSPost2010PropOp29
 70
     1
102
RTVSPost2010Prop30
280
     1
102
RTVSPost2010PropOp30
 70
     1
102
RTVSPost2010Prop31
280
     0
102
RTVSPost2010PropOp31
 70
     1
102
RTVSPost2010Prop32
280
     0
102
RTVSPost2010PropOp32
 70
     1
102
RTVSPost2010Prop33
280
     0
102
RTVSPost2010PropOp33
 70
     1
102
RTVSPost2010Prop34
280
     0
102
RTVSPost2010PropOp34
 70
     1
102
RTVSPost2010Prop35
280
     0
102
RTVSPost2010PropOp35
 70
     1
102
RTVSPost2010Prop36
280
     0
102
RTVSPost2010PropOp36
 70
     1
102
RTVSPost2010Prop37
 90
       50
102
RTVSPost2010PropOp37
 70
     1
102
RTVSPost2010Prop38
140
0.0
102
RTVSPost2010PropOp38
 70
     1
102
RTVSPost2010Prop39
140
1.0
102
RTVSPost2010PropOp39
 70
     1
102
RTVSPost2010Prop40
 90
        0
102
RTVSPost2010PropOp40
 70
     1
102
RTVSPost2010Prop41ColorIndex
 90
       18
102
RTVSPost2010Prop41ColorRGB
 90
        0
102
RTVSPost2010PropOp41
 70
     1
102
RTVSPost2010Prop42
 90
       50
102
RTVSPost2010PropOp42
 70
     1
102
RTVSPost2010Prop43
 90
        3
102
RTVSPost2010PropOp43
 70
     1
102
RTVSPost2010Prop44ColorIndex
 90
        5
102
RTVSPost2010Prop44ColorRGB
 90
      255
102
RTVSPost2010PropOp44
 70
     1
102
RTVSPost2010Prop45
280
     0
102
RTVSPost2010PropOp45
 70
     1
102
RTVSPost2010Prop46
 90
       50
102
RTVSPost2010PropOp46
 70
     1
102
RTVSPost2010Prop47
 90
       50
102
RTVSPost2010PropOp47
 70
     1
102
RTVSPost2010Prop48
 90
       50
102
RTVSPost2010PropOp48
 70
     1
102
RTVSPost2010Prop49
280
     0
102
RTVSPost2010PropOp49
 70
     1
102
RTVSPost2010Prop50
 90
       50
102
RTVSPost2010PropOp50
 70
     1
102
RTVSPost2010Prop51ColorIndex
 90
      256
102
RTVSPost2010Prop51ColorRGB
 90
-16777216
102
RTVSPost2010PropOp51
 70
     0
102
RTVSPost2010Prop52
140
1.0
102
RTVSPost2010PropOp52
 70
     0
102
RTVSPost2010Prop53
 90
        2
102
RTVSPost2010PropOp53
 70
     1
102
RTVSPost2010Prop54
  1
strokes_ogs.tif
102
RTVSPost2010PropOp54
 70
     1
102
RTVSPost2010Prop55
280
     0
102
RTVSPost2010PropOp55
 70
     1
102
RTVSPost2010Prop56
140
1.0
102
RTVSPost2010PropOp56
 70
     1
102
RTVSPost2010Prop57
140
1.0
102
RTVSPost2010PropOp57
 70
     1
  0
XRECORD
  5
133A0
102
{ACAD_REACTORS
330
1339F
102
}
330
1339F
100
AcDbXrecord
280
     1
102
RTVSPost2010Prop28
280
     0
102
RTVSPost2010PropOp28
 70
     1
102
RTVSPost2010Prop29
280
     1
102
RTVSPost2010PropOp29
 70
     1
102
RTVSPost2010Prop30
280
     1
102
RTVSPost2010PropOp30
 70
     1
102
RTVSPost2010Prop31
280
     0
102
RTVSPost2010PropOp31
 70
     1
102
RTVSPost2010Prop32
280
     0
102
RTVSPost2010PropOp32
 70
     1
102
RTVSPost2010Prop33
280
     0
102
RTVSPost2010PropOp33
 70
     1
102
RTVSPost2010Prop34
280
     0
102
RTVSPost2010PropOp34
 70
     1
102
RTVSPost2010Prop35
280
     0
102
RTVSPost2010PropOp35
 70
     1
102
RTVSPost2010Prop36
280
     0
102
RTVSPost2010PropOp36
 70
     1
102
RTVSPost2010Prop37
 90
       50
102
RTVSPost2010PropOp37
 70
     1
102
RTVSPost2010Prop38
140
0.0
102
RTVSPost2010PropOp38
 70
     1
102
RTVSPost2010Prop39
140
1.0
102
RTVSPost2010PropOp39
 70
     1
102
RTVSPost2010Prop40
 90
        0
102
RTVSPost2010PropOp40
 70
     1
102
RTVSPost2010Prop41ColorIndex
 90
       18
102
RTVSPost2010Prop41ColorRGB
 90
        0
102
RTVSPost2010PropOp41
 70
     1
102
RTVSPost2010Prop42
 90
       50
102
RTVSPost2010PropOp42
 70
     1
102
RTVSPost2010Prop43
 90
        3
102
RTVSPost2010PropOp43
 70
     1
102
RTVSPost2010Prop44ColorIndex
 90
        5
102
RTVSPost2010Prop44ColorRGB
 90
      255
102
RTVSPost2010PropOp44
 70
     1
102
RTVSPost2010Prop45
280
     0
102
RTVSPost2010PropOp45
 70
     1
102
RTVSPost2010Prop46
 90
       50
102
RTVSPost2010PropOp46
 70
     1
102
RTVSPost2010Prop47
 90
       50
102
RTVSPost2010PropOp47
 70
     1
102
RTVSPost2010Prop48
 90
       50
102
RTVSPost2010PropOp48
 70
     1
102
RTVSPost2010Prop49
280
     0
102
RTVSPost2010PropOp49
 70
     1
102
RTVSPost2010Prop50
 90
       50
102
RTVSPost2010PropOp50
 70
     1
102
RTVSPost2010Prop51ColorIndex
 90
      256
102
RTVSPost2010Prop51ColorRGB
 90
-16777216
102
RTVSPost2010PropOp51
 70
     0
102
RTVSPost2010Prop52
140
1.0
102
RTVSPost2010PropOp52
 70
     0
102
RTVSPost2010Prop53
 90
        2
102
RTVSPost2010PropOp53
 70
     1
102
RTVSPost2010Prop54
  1
strokes_ogs.tif
102
RTVSPost2010PropOp54
 70
     1
102
RTVSPost2010Prop55
280
     0
102
RTVSPost2010PropOp55
 70
     1
102
RTVSPost2010Prop56
140
1.0
102
RTVSPost2010PropOp56
 70
     1
102
RTVSPost2010Prop57
140
1.0
102
RTVSPost2010PropOp57
 70
     1
  0
XRECORD
  5
13392
102
{ACAD_REACTORS
330
13391
102
}
330
13391
100
AcDbXrecord
280
     1
102
RTVSPost2010Prop28
280
     0
102
RTVSPost2010PropOp28
 70
     1
102
RTVSPost2010Prop29
280
     1
102
RTVSPost2010PropOp29
 70
     1
102
RTVSPost2010Prop30
280
     1
102
RTVSPost2010PropOp30
 70
     1
102
RTVSPost2010Prop31
280
     0
102
RTVSPost2010PropOp31
 70
     1
102
RTVSPost2010Prop32
280
     0
102
RTVSPost2010PropOp32
 70
     1
102
RTVSPost2010Prop33
280
     0
102
RTVSPost2010PropOp33
 70
     1
102
RTVSPost2010Prop34
280
     0
102
RTVSPost2010PropOp34
 70
     1
102
RTVSPost2010Prop35
280
     0
102
RTVSPost2010PropOp35
 70
     1
102
RTVSPost2010Prop36
280
     0
102
RTVSPost2010PropOp36
 70
     1
102
RTVSPost2010Prop37
 90
       50
102
RTVSPost2010PropOp37
 70
     1
102
RTVSPost2010Prop38
140
0.0
102
RTVSPost2010PropOp38
 70
     1
102
RTVSPost2010Prop39
140
1.0
102
RTVSPost2010PropOp39
 70
     1
102
RTVSPost2010Prop40
 90
        0
102
RTVSPost2010PropOp40
 70
     1
102
RTVSPost2010Prop41ColorIndex
 90
       18
102
RTVSPost2010Prop41ColorRGB
 90
        0
102
RTVSPost2010PropOp41
 70
     1
102
RTVSPost2010Prop42
 90
       50
102
RTVSPost2010PropOp42
 70
     1
102
RTVSPost2010Prop43
 90
        3
102
RTVSPost2010PropOp43
 70
     1
102
RTVSPost2010Prop44ColorIndex
 90
        5
102
RTVSPost2010Prop44ColorRGB
 90
      255
102
RTVSPost2010PropOp44
 70
     1
102
RTVSPost2010Prop45
280
     0
102
RTVSPost2010PropOp45
 70
     1
102
RTVSPost2010Prop46
 90
       50
102
RTVSPost2010PropOp46
 70
     1
102
RTVSPost2010Prop47
 90
       50
102
RTVSPost2010PropOp47
 70
     1
102
RTVSPost2010Prop48
 90
       50
102
RTVSPost2010PropOp48
 70
     1
102
RTVSPost2010Prop49
280
     0
102
RTVSPost2010PropOp49
 70
     1
102
RTVSPost2010Prop50
 90
       50
102
RTVSPost2010PropOp50
 70
     1
102
RTVSPost2010Prop51ColorIndex
 90
      256
102
RTVSPost2010Prop51ColorRGB
 90
-16777216
102
RTVSPost2010PropOp51
 70
     0
102
RTVSPost2010Prop52
140
1.0
102
RTVSPost2010PropOp52
 70
     0
102
RTVSPost2010Prop53
 90
        2
102
RTVSPost2010PropOp53
 70
     1
102
RTVSPost2010Prop54
  1
strokes_ogs.tif
102
RTVSPost2010PropOp54
 70
     1
102
RTVSPost2010Prop55
280
     0
102
RTVSPost2010PropOp55
 70
     1
102
RTVSPost2010Prop56
140
1.0
102
RTVSPost2010PropOp56
 70
     1
102
RTVSPost2010Prop57
140
1.0
102
RTVSPost2010PropOp57
 70
     1
  0
XRECORD
  5
13396
102
{ACAD_REACTORS
330
13395
102
}
330
13395
100
AcDbXrecord
280
     1
102
RTVSPost2010Prop28
280
     0
102
RTVSPost2010PropOp28
 70
     1
102
RTVSPost2010Prop29
280
     1
102
RTVSPost2010PropOp29
 70
     1
102
RTVSPost2010Prop30
280
     1
102
RTVSPost2010PropOp30
 70
     1
102
RTVSPost2010Prop31
280
     0
102
RTVSPost2010PropOp31
 70
     1
102
RTVSPost2010Prop32
280
     0
102
RTVSPost2010PropOp32
 70
     1
102
RTVSPost2010Prop33
280
     0
102
RTVSPost2010PropOp33
 70
     1
102
RTVSPost2010Prop34
280
     0
102
RTVSPost2010PropOp34
 70
     1
102
RTVSPost2010Prop35
280
     0
102
RTVSPost2010PropOp35
 70
     1
102
RTVSPost2010Prop36
280
     0
102
RTVSPost2010PropOp36
 70
     1
102
RTVSPost2010Prop37
 90
       50
102
RTVSPost2010PropOp37
 70
     1
102
RTVSPost2010Prop38
140
0.0
102
RTVSPost2010PropOp38
 70
     1
102
RTVSPost2010Prop39
140
1.0
102
RTVSPost2010PropOp39
 70
     1
102
RTVSPost2010Prop40
 90
        0
102
RTVSPost2010PropOp40
 70
     1
102
RTVSPost2010Prop41ColorIndex
 90
       18
102
RTVSPost2010Prop41ColorRGB
 90
        0
102
RTVSPost2010PropOp41
 70
     1
102
RTVSPost2010Prop42
 90
       50
102
RTVSPost2010PropOp42
 70
     1
102
RTVSPost2010Prop43
 90
        3
102
RTVSPost2010PropOp43
 70
     1
102
RTVSPost2010Prop44ColorIndex
 90
        5
102
RTVSPost2010Prop44ColorRGB
 90
      255
102
RTVSPost2010PropOp44
 70
     1
102
RTVSPost2010Prop45
280
     0
102
RTVSPost2010PropOp45
 70
     1
102
RTVSPost2010Prop46
 90
       50
102
RTVSPost2010PropOp46
 70
     1
102
RTVSPost2010Prop47
 90
       50
102
RTVSPost2010PropOp47
 70
     1
102
RTVSPost2010Prop48
 90
       50
102
RTVSPost2010PropOp48
 70
     1
102
RTVSPost2010Prop49
280
     0
102
RTVSPost2010PropOp49
 70
     1
102
RTVSPost2010Prop50
 90
       50
102
RTVSPost2010PropOp50
 70
     1
102
RTVSPost2010Prop51ColorIndex
 90
      256
102
RTVSPost2010Prop51ColorRGB
 90
-16777216
102
RTVSPost2010PropOp51
 70
     0
102
RTVSPost2010Prop52
140
1.0
102
RTVSPost2010PropOp52
 70
     0
102
RTVSPost2010Prop53
 90
        2
102
RTVSPost2010PropOp53
 70
     1
102
RTVSPost2010Prop54
  1
strokes_ogs.tif
102
RTVSPost2010PropOp54
 70
     1
102
RTVSPost2010Prop55
280
     0
102
RTVSPost2010PropOp55
 70
     1
102
RTVSPost2010Prop56
140
1.0
102
RTVSPost2010PropOp56
 70
     1
102
RTVSPost2010Prop57
140
1.0
102
RTVSPost2010PropOp57
 70
     1
  0
XRECORD
  5
133A6
102
{ACAD_REACTORS
330
133A5
102
}
330
133A5
100
AcDbXrecord
280
     1
102
RTVSPost2010Prop28
280
     0
102
RTVSPost2010PropOp28
 70
     1
102
RTVSPost2010Prop29
280
     1
102
RTVSPost2010PropOp29
 70
     1
102
RTVSPost2010Prop30
280
     1
102
RTVSPost2010PropOp30
 70
     1
102
RTVSPost2010Prop31
280
     0
102
RTVSPost2010PropOp31
 70
     1
102
RTVSPost2010Prop32
280
     0
102
RTVSPost2010PropOp32
 70
     1
102
RTVSPost2010Prop33
280
     0
102
RTVSPost2010PropOp33
 70
     1
102
RTVSPost2010Prop34
280
     0
102
RTVSPost2010PropOp34
 70
     1
102
RTVSPost2010Prop35
280
     0
102
RTVSPost2010PropOp35
 70
     1
102
RTVSPost2010Prop36
280
     0
102
RTVSPost2010PropOp36
 70
     1
102
RTVSPost2010Prop37
 90
       50
102
RTVSPost2010PropOp37
 70
     1
102
RTVSPost2010Prop38
140
0.0
102
RTVSPost2010PropOp38
 70
     1
102
RTVSPost2010Prop39
140
1.0
102
RTVSPost2010PropOp39
 70
     1
102
RTVSPost2010Prop40
 90
        0
102
RTVSPost2010PropOp40
 70
     1
102
RTVSPost2010Prop41ColorIndex
 90
       18
102
RTVSPost2010Prop41ColorRGB
 90
        0
102
RTVSPost2010PropOp41
 70
     1
102
RTVSPost2010Prop42
 90
       50
102
RTVSPost2010PropOp42
 70
     1
102
RTVSPost2010Prop43
 90
        3
102
RTVSPost2010PropOp43
 70
     1
102
RTVSPost2010Prop44ColorIndex
 90
        5
102
RTVSPost2010Prop44ColorRGB
 90
      255
102
RTVSPost2010PropOp44
 70
     1
102
RTVSPost2010Prop45
280
     0
102
RTVSPost2010PropOp45
 70
     1
102
RTVSPost2010Prop46
 90
       50
102
RTVSPost2010PropOp46
 70
     1
102
RTVSPost2010Prop47
 90
       50
102
RTVSPost2010PropOp47
 70
     1
102
RTVSPost2010Prop48
 90
       50
102
RTVSPost2010PropOp48
 70
     1
102
RTVSPost2010Prop49
280
     0
102
RTVSPost2010PropOp49
 70
     1
102
RTVSPost2010Prop50
 90
       50
102
RTVSPost2010PropOp50
 70
     1
102
RTVSPost2010Prop51ColorIndex
 90
      256
102
RTVSPost2010Prop51ColorRGB
 90
-16777216
102
RTVSPost2010PropOp51
 70
     0
102
RTVSPost2010Prop52
140
1.0
102
RTVSPost2010PropOp52
 70
     0
102
RTVSPost2010Prop53
 90
        2
102
RTVSPost2010PropOp53
 70
     1
102
RTVSPost2010Prop54
  1
strokes_ogs.tif
102
RTVSPost2010PropOp54
 70
     1
102
RTVSPost2010Prop55
280
     0
102
RTVSPost2010PropOp55
 70
     1
102
RTVSPost2010Prop56
140
1.0
102
RTVSPost2010PropOp56
 70
     1
102
RTVSPost2010Prop57
140
1.0
102
RTVSPost2010PropOp57
 70
     1
  0
XRECORD
  5
1339E
102
{ACAD_REACTORS
330
1339D
102
}
330
1339D
100
AcDbXrecord
280
     1
102
RTVSPost2010Prop28
280
     0
102
RTVSPost2010PropOp28
 70
     1
102
RTVSPost2010Prop29
280
     1
102
RTVSPost2010PropOp29
 70
     1
102
RTVSPost2010Prop30
280
     1
102
RTVSPost2010PropOp30
 70
     1
102
RTVSPost2010Prop31
280
     0
102
RTVSPost2010PropOp31
 70
     1
102
RTVSPost2010Prop32
280
     0
102
RTVSPost2010PropOp32
 70
     1
102
RTVSPost2010Prop33
280
     0
102
RTVSPost2010PropOp33
 70
     1
102
RTVSPost2010Prop34
280
     0
102
RTVSPost2010PropOp34
 70
     1
102
RTVSPost2010Prop35
280
     0
102
RTVSPost2010PropOp35
 70
     1
102
RTVSPost2010Prop36
280
     0
102
RTVSPost2010PropOp36
 70
     1
102
RTVSPost2010Prop37
 90
       50
102
RTVSPost2010PropOp37
 70
     1
102
RTVSPost2010Prop38
140
0.0
102
RTVSPost2010PropOp38
 70
     1
102
RTVSPost2010Prop39
140
1.0
102
RTVSPost2010PropOp39
 70
     1
102
RTVSPost2010Prop40
 90
        0
102
RTVSPost2010PropOp40
 70
     1
102
RTVSPost2010Prop41ColorIndex
 90
       18
102
RTVSPost2010Prop41ColorRGB
 90
        0
102
RTVSPost2010PropOp41
 70
     1
102
RTVSPost2010Prop42
 90
       50
102
RTVSPost2010PropOp42
 70
     1
102
RTVSPost2010Prop43
 90
        3
102
RTVSPost2010PropOp43
 70
     1
102
RTVSPost2010Prop44ColorIndex
 90
        5
102
RTVSPost2010Prop44ColorRGB
 90
      255
102
RTVSPost2010PropOp44
 70
     1
102
RTVSPost2010Prop45
280
     0
102
RTVSPost2010PropOp45
 70
     1
102
RTVSPost2010Prop46
 90
       50
102
RTVSPost2010PropOp46
 70
     1
102
RTVSPost2010Prop47
 90
       50
102
RTVSPost2010PropOp47
 70
     1
102
RTVSPost2010Prop48
 90
       50
102
RTVSPost2010PropOp48
 70
     1
102
RTVSPost2010Prop49
280
     0
102
RTVSPost2010PropOp49
 70
     1
102
RTVSPost2010Prop50
 90
       50
102
RTVSPost2010PropOp50
 70
     1
102
RTVSPost2010Prop51ColorIndex
 90
      256
102
RTVSPost2010Prop51ColorRGB
 90
-16777216
102
RTVSPost2010PropOp51
 70
     0
102
RTVSPost2010Prop52
140
1.0
102
RTVSPost2010PropOp52
 70
     0
102
RTVSPost2010Prop53
 90
        2
102
RTVSPost2010PropOp53
 70
     1
102
RTVSPost2010Prop54
  1
strokes_ogs.tif
102
RTVSPost2010PropOp54
 70
     1
102
RTVSPost2010Prop55
280
     0
102
RTVSPost2010PropOp55
 70
     1
102
RTVSPost2010Prop56
140
1.0
102
RTVSPost2010PropOp56
 70
     1
102
RTVSPost2010Prop57
140
1.0
102
RTVSPost2010PropOp57
 70
     1
  0
XRECORD
  5
13382
102
{ACAD_REACTORS
330
13381
102
}
330
13381
100
AcDbXrecord
280
     1
102
RTVSPost2010Prop28
280
     0
102
RTVSPost2010PropOp28
 70
     1
102
RTVSPost2010Prop29
280
     1
102
RTVSPost2010PropOp29
 70
     1
102
RTVSPost2010Prop30
280
     1
102
RTVSPost2010PropOp30
 70
     1
102
RTVSPost2010Prop31
280
     0
102
RTVSPost2010PropOp31
 70
     1
102
RTVSPost2010Prop32
280
     0
102
RTVSPost2010PropOp32
 70
     1
102
RTVSPost2010Prop33
280
     0
102
RTVSPost2010PropOp33
 70
     1
102
RTVSPost2010Prop34
280
     0
102
RTVSPost2010PropOp34
 70
     1
102
RTVSPost2010Prop35
280
     0
102
RTVSPost2010PropOp35
 70
     1
102
RTVSPost2010Prop36
280
     0
102
RTVSPost2010PropOp36
 70
     1
102
RTVSPost2010Prop37
 90
       50
102
RTVSPost2010PropOp37
 70
     1
102
RTVSPost2010Prop38
140
0.0
102
RTVSPost2010PropOp38
 70
     1
102
RTVSPost2010Prop39
140
1.0
102
RTVSPost2010PropOp39
 70
     1
102
RTVSPost2010Prop40
 90
        0
102
RTVSPost2010PropOp40
 70
     1
102
RTVSPost2010Prop41ColorIndex
 90
       18
102
RTVSPost2010Prop41ColorRGB
 90
        0
102
RTVSPost2010PropOp41
 70
     1
102
RTVSPost2010Prop42
 90
       50
102
RTVSPost2010PropOp42
 70
     1
102
RTVSPost2010Prop43
 90
        3
102
RTVSPost2010PropOp43
 70
     1
102
RTVSPost2010Prop44ColorIndex
 90
        5
102
RTVSPost2010Prop44ColorRGB
 90
      255
102
RTVSPost2010PropOp44
 70
     1
102
RTVSPost2010Prop45
280
     0
102
RTVSPost2010PropOp45
 70
     1
102
RTVSPost2010Prop46
 90
       50
102
RTVSPost2010PropOp46
 70
     1
102
RTVSPost2010Prop47
 90
       50
102
RTVSPost2010PropOp47
 70
     1
102
RTVSPost2010Prop48
 90
       50
102
RTVSPost2010PropOp48
 70
     1
102
RTVSPost2010Prop49
280
     0
102
RTVSPost2010PropOp49
 70
     1
102
RTVSPost2010Prop50
 90
       50
102
RTVSPost2010PropOp50
 70
     1
102
RTVSPost2010Prop51ColorIndex
 90
      256
102
RTVSPost2010Prop51ColorRGB
 90
-16777216
102
RTVSPost2010PropOp51
 70
     0
102
RTVSPost2010Prop52
140
1.0
102
RTVSPost2010PropOp52
 70
     0
102
RTVSPost2010Prop53
 90
        2
102
RTVSPost2010PropOp53
 70
     1
102
RTVSPost2010Prop54
  1
strokes_ogs.tif
102
RTVSPost2010PropOp54
 70
     1
102
RTVSPost2010Prop55
280
     0
102
RTVSPost2010PropOp55
 70
     1
102
RTVSPost2010Prop56
140
1.0
102
RTVSPost2010PropOp56
 70
     1
102
RTVSPost2010Prop57
140
1.0
102
RTVSPost2010PropOp57
 70
     1
  0
XRECORD
  5
13384
102
{ACAD_REACTORS
330
13383
102
}
330
13383
100
AcDbXrecord
280
     1
102
RTVSPost2010Prop28
280
     0
102
RTVSPost2010PropOp28
 70
     1
102
RTVSPost2010Prop29
280
     1
102
RTVSPost2010PropOp29
 70
     1
102
RTVSPost2010Prop30
280
     1
102
RTVSPost2010PropOp30
 70
     1
102
RTVSPost2010Prop31
280
     0
102
RTVSPost2010PropOp31
 70
     1
102
RTVSPost2010Prop32
280
     0
102
RTVSPost2010PropOp32
 70
     1
102
RTVSPost2010Prop33
280
     0
102
RTVSPost2010PropOp33
 70
     1
102
RTVSPost2010Prop34
280
     0
102
RTVSPost2010PropOp34
 70
     1
102
RTVSPost2010Prop35
280
     0
102
RTVSPost2010PropOp35
 70
     1
102
RTVSPost2010Prop36
280
     0
102
RTVSPost2010PropOp36
 70
     1
102
RTVSPost2010Prop37
 90
       50
102
RTVSPost2010PropOp37
 70
     1
102
RTVSPost2010Prop38
140
0.0
102
RTVSPost2010PropOp38
 70
     1
102
RTVSPost2010Prop39
140
1.0
102
RTVSPost2010PropOp39
 70
     1
102
RTVSPost2010Prop40
 90
        0
102
RTVSPost2010PropOp40
 70
     1
102
RTVSPost2010Prop41ColorIndex
 90
       18
102
RTVSPost2010Prop41ColorRGB
 90
        0
102
RTVSPost2010PropOp41
 70
     1
102
RTVSPost2010Prop42
 90
       50
102
RTVSPost2010PropOp42
 70
     1
102
RTVSPost2010Prop43
 90
        3
102
RTVSPost2010PropOp43
 70
     1
102
RTVSPost2010Prop44ColorIndex
 90
        5
102
RTVSPost2010Prop44ColorRGB
 90
      255
102
RTVSPost2010PropOp44
 70
     1
102
RTVSPost2010Prop45
280
     0
102
RTVSPost2010PropOp45
 70
     1
102
RTVSPost2010Prop46
 90
       50
102
RTVSPost2010PropOp46
 70
     1
102
RTVSPost2010Prop47
 90
       50
102
RTVSPost2010PropOp47
 70
     1
102
RTVSPost2010Prop48
 90
       50
102
RTVSPost2010PropOp48
 70
     1
102
RTVSPost2010Prop49
280
     0
102
RTVSPost2010PropOp49
 70
     1
102
RTVSPost2010Prop50
 90
       50
102
RTVSPost2010PropOp50
 70
     1
102
RTVSPost2010Prop51ColorIndex
 90
      256
102
RTVSPost2010Prop51ColorRGB
 90
-16777216
102
RTVSPost2010PropOp51
 70
     0
102
RTVSPost2010Prop52
140
1.0
102
RTVSPost2010PropOp52
 70
     0
102
RTVSPost2010Prop53
 90
        2
102
RTVSPost2010PropOp53
 70
     1
102
RTVSPost2010Prop54
  1
strokes_ogs.tif
102
RTVSPost2010PropOp54
 70
     1
102
RTVSPost2010Prop55
280
     0
102
RTVSPost2010PropOp55
 70
     1
102
RTVSPost2010Prop56
140
1.0
102
RTVSPost2010PropOp56
 70
     1
102
RTVSPost2010Prop57
140
1.0
102
RTVSPost2010PropOp57
 70
     1
  0
XRECORD
  5
13386
102
{ACAD_REACTORS
330
13385
102
}
330
13385
100
AcDbXrecord
280
     1
102
RTVSPost2010Prop28
280
     0
102
RTVSPost2010PropOp28
 70
     1
102
RTVSPost2010Prop29
280
     1
102
RTVSPost2010PropOp29
 70
     1
102
RTVSPost2010Prop30
280
     1
102
RTVSPost2010PropOp30
 70
     1
102
RTVSPost2010Prop31
280
     0
102
RTVSPost2010PropOp31
 70
     1
102
RTVSPost2010Prop32
280
     0
102
RTVSPost2010PropOp32
 70
     1
102
RTVSPost2010Prop33
280
     0
102
RTVSPost2010PropOp33
 70
     1
102
RTVSPost2010Prop34
280
     0
102
RTVSPost2010PropOp34
 70
     1
102
RTVSPost2010Prop35
280
     0
102
RTVSPost2010PropOp35
 70
     1
102
RTVSPost2010Prop36
280
     0
102
RTVSPost2010PropOp36
 70
     1
102
RTVSPost2010Prop37
 90
       50
102
RTVSPost2010PropOp37
 70
     1
102
RTVSPost2010Prop38
140
0.0
102
RTVSPost2010PropOp38
 70
     1
102
RTVSPost2010Prop39
140
1.0
102
RTVSPost2010PropOp39
 70
     1
102
RTVSPost2010Prop40
 90
        0
102
RTVSPost2010PropOp40
 70
     1
102
RTVSPost2010Prop41ColorIndex
 90
       18
102
RTVSPost2010Prop41ColorRGB
 90
        0
102
RTVSPost2010PropOp41
 70
     1
102
RTVSPost2010Prop42
 90
       50
102
RTVSPost2010PropOp42
 70
     1
102
RTVSPost2010Prop43
 90
        3
102
RTVSPost2010PropOp43
 70
     1
102
RTVSPost2010Prop44ColorIndex
 90
        5
102
RTVSPost2010Prop44ColorRGB
 90
      255
102
RTVSPost2010PropOp44
 70
     1
102
RTVSPost2010Prop45
280
     0
102
RTVSPost2010PropOp45
 70
     1
102
RTVSPost2010Prop46
 90
       50
102
RTVSPost2010PropOp46
 70
     1
102
RTVSPost2010Prop47
 90
       50
102
RTVSPost2010PropOp47
 70
     1
102
RTVSPost2010Prop48
 90
       50
102
RTVSPost2010PropOp48
 70
     1
102
RTVSPost2010Prop49
280
     0
102
RTVSPost2010PropOp49
 70
     1
102
RTVSPost2010Prop50
 90
       50
102
RTVSPost2010PropOp50
 70
     1
102
RTVSPost2010Prop51ColorIndex
 90
      256
102
RTVSPost2010Prop51ColorRGB
 90
-16777216
102
RTVSPost2010PropOp51
 70
     0
102
RTVSPost2010Prop52
140
1.0
102
RTVSPost2010PropOp52
 70
     0
102
RTVSPost2010Prop53
 90
        2
102
RTVSPost2010PropOp53
 70
     1
102
RTVSPost2010Prop54
  1
strokes_ogs.tif
102
RTVSPost2010PropOp54
 70
     1
102
RTVSPost2010Prop55
280
     0
102
RTVSPost2010PropOp55
 70
     1
102
RTVSPost2010Prop56
140
1.0
102
RTVSPost2010PropOp56
 70
     1
102
RTVSPost2010Prop57
140
1.0
102
RTVSPost2010PropOp57
 70
     1
  0
XRECORD
  5
13388
102
{ACAD_REACTORS
330
13387
102
}
330
13387
100
AcDbXrecord
280
     1
102
RTVSPost2010Prop28
280
     0
102
RTVSPost2010PropOp28
 70
     1
102
RTVSPost2010Prop29
280
     1
102
RTVSPost2010PropOp29
 70
     1
102
RTVSPost2010Prop30
280
     1
102
RTVSPost2010PropOp30
 70
     1
102
RTVSPost2010Prop31
280
     0
102
RTVSPost2010PropOp31
 70
     1
102
RTVSPost2010Prop32
280
     0
102
RTVSPost2010PropOp32
 70
     1
102
RTVSPost2010Prop33
280
     0
102
RTVSPost2010PropOp33
 70
     1
102
RTVSPost2010Prop34
280
     0
102
RTVSPost2010PropOp34
 70
     1
102
RTVSPost2010Prop35
280
     0
102
RTVSPost2010PropOp35
 70
     1
102
RTVSPost2010Prop36
280
     0
102
RTVSPost2010PropOp36
 70
     1
102
RTVSPost2010Prop37
 90
       50
102
RTVSPost2010PropOp37
 70
     1
102
RTVSPost2010Prop38
140
0.0
102
RTVSPost2010PropOp38
 70
     1
102
RTVSPost2010Prop39
140
1.0
102
RTVSPost2010PropOp39
 70
     1
102
RTVSPost2010Prop40
 90
        0
102
RTVSPost2010PropOp40
 70
     1
102
RTVSPost2010Prop41ColorIndex
 90
       18
102
RTVSPost2010Prop41ColorRGB
 90
        0
102
RTVSPost2010PropOp41
 70
     1
102
RTVSPost2010Prop42
 90
       50
102
RTVSPost2010PropOp42
 70
     1
102
RTVSPost2010Prop43
 90
        3
102
RTVSPost2010PropOp43
 70
     1
102
RTVSPost2010Prop44ColorIndex
 90
        5
102
RTVSPost2010Prop44ColorRGB
 90
      255
102
RTVSPost2010PropOp44
 70
     1
102
RTVSPost2010Prop45
280
     0
102
RTVSPost2010PropOp45
 70
     1
102
RTVSPost2010Prop46
 90
       50
102
RTVSPost2010PropOp46
 70
     1
102
RTVSPost2010Prop47
 90
       50
102
RTVSPost2010PropOp47
 70
     1
102
RTVSPost2010Prop48
 90
       50
102
RTVSPost2010PropOp48
 70
     1
102
RTVSPost2010Prop49
280
     0
102
RTVSPost2010PropOp49
 70
     1
102
RTVSPost2010Prop50
 90
       50
102
RTVSPost2010PropOp50
 70
     1
102
RTVSPost2010Prop51ColorIndex
 90
      256
102
RTVSPost2010Prop51ColorRGB
 90
-16777216
102
RTVSPost2010PropOp51
 70
     0
102
RTVSPost2010Prop52
140
1.0
102
RTVSPost2010PropOp52
 70
     0
102
RTVSPost2010Prop53
 90
        2
102
RTVSPost2010PropOp53
 70
     1
102
RTVSPost2010Prop54
  1
strokes_ogs.tif
102
RTVSPost2010PropOp54
 70
     1
102
RTVSPost2010Prop55
280
     0
102
RTVSPost2010PropOp55
 70
     1
102
RTVSPost2010Prop56
140
1.0
102
RTVSPost2010PropOp56
 70
     1
102
RTVSPost2010Prop57
140
1.0
102
RTVSPost2010PropOp57
 70
     1
  0
XRECORD
  5
133AA
102
{ACAD_REACTORS
330
133A9
102
}
330
133A9
100
AcDbXrecord
280
     1
102
RTVSPost2010Prop28
280
     0
102
RTVSPost2010PropOp28
 70
     1
102
RTVSPost2010Prop29
280
     1
102
RTVSPost2010PropOp29
 70
     1
102
RTVSPost2010Prop30
280
     1
102
RTVSPost2010PropOp30
 70
     1
102
RTVSPost2010Prop31
280
     0
102
RTVSPost2010PropOp31
 70
     1
102
RTVSPost2010Prop32
280
     0
102
RTVSPost2010PropOp32
 70
     1
102
RTVSPost2010Prop33
280
     0
102
RTVSPost2010PropOp33
 70
     1
102
RTVSPost2010Prop34
280
     0
102
RTVSPost2010PropOp34
 70
     1
102
RTVSPost2010Prop35
280
     0
102
RTVSPost2010PropOp35
 70
     1
102
RTVSPost2010Prop36
280
     0
102
RTVSPost2010PropOp36
 70
     1
102
RTVSPost2010Prop37
 90
       50
102
RTVSPost2010PropOp37
 70
     1
102
RTVSPost2010Prop38
140
0.0
102
RTVSPost2010PropOp38
 70
     1
102
RTVSPost2010Prop39
140
1.0
102
RTVSPost2010PropOp39
 70
     1
102
RTVSPost2010Prop40
 90
        0
102
RTVSPost2010PropOp40
 70
     1
102
RTVSPost2010Prop41ColorIndex
 90
       18
102
RTVSPost2010Prop41ColorRGB
 90
        0
102
RTVSPost2010PropOp41
 70
     1
102
RTVSPost2010Prop42
 90
       50
102
RTVSPost2010PropOp42
 70
     1
102
RTVSPost2010Prop43
 90
        3
102
RTVSPost2010PropOp43
 70
     1
102
RTVSPost2010Prop44ColorIndex
 90
        5
102
RTVSPost2010Prop44ColorRGB
 90
      255
102
RTVSPost2010PropOp44
 70
     1
102
RTVSPost2010Prop45
280
     0
102
RTVSPost2010PropOp45
 70
     1
102
RTVSPost2010Prop46
 90
       50
102
RTVSPost2010PropOp46
 70
     1
102
RTVSPost2010Prop47
 90
       50
102
RTVSPost2010PropOp47
 70
     1
102
RTVSPost2010Prop48
 90
       50
102
RTVSPost2010PropOp48
 70
     1
102
RTVSPost2010Prop49
280
     0
102
RTVSPost2010PropOp49
 70
     1
102
RTVSPost2010Prop50
 90
       50
102
RTVSPost2010PropOp50
 70
     1
102
RTVSPost2010Prop51ColorIndex
 90
      256
102
RTVSPost2010Prop51ColorRGB
 90
-16777216
102
RTVSPost2010PropOp51
 70
     0
102
RTVSPost2010Prop52
140
1.0
102
RTVSPost2010PropOp52
 70
     0
102
RTVSPost2010Prop53
 90
        2
102
RTVSPost2010PropOp53
 70
     1
102
RTVSPost2010Prop54
  1
strokes_ogs.tif
102
RTVSPost2010PropOp54
 70
     1
102
RTVSPost2010Prop55
280
     0
102
RTVSPost2010PropOp55
 70
     1
102
RTVSPost2010Prop56
140
1.0
102
RTVSPost2010PropOp56
 70
     1
102
RTVSPost2010Prop57
140
1.0
102
RTVSPost2010PropOp57
 70
     1
  0
XRECORD
  5
133A2
102
{ACAD_REACTORS
330
133A1
102
}
330
133A1
100
AcDbXrecord
280
     1
102
RTVSPost2010Prop28
280
     0
102
RTVSPost2010PropOp28
 70
     1
102
RTVSPost2010Prop29
280
     1
102
RTVSPost2010PropOp29
 70
     1
102
RTVSPost2010Prop30
280
     1
102
RTVSPost2010PropOp30
 70
     1
102
RTVSPost2010Prop31
280
     0
102
RTVSPost2010PropOp31
 70
     1
102
RTVSPost2010Prop32
280
     0
102
RTVSPost2010PropOp32
 70
     1
102
RTVSPost2010Prop33
280
     0
102
RTVSPost2010PropOp33
 70
     1
102
RTVSPost2010Prop34
280
     0
102
RTVSPost2010PropOp34
 70
     1
102
RTVSPost2010Prop35
280
     0
102
RTVSPost2010PropOp35
 70
     1
102
RTVSPost2010Prop36
280
     0
102
RTVSPost2010PropOp36
 70
     1
102
RTVSPost2010Prop37
 90
       50
102
RTVSPost2010PropOp37
 70
     1
102
RTVSPost2010Prop38
140
0.0
102
RTVSPost2010PropOp38
 70
     1
102
RTVSPost2010Prop39
140
1.0
102
RTVSPost2010PropOp39
 70
     1
102
RTVSPost2010Prop40
 90
        0
102
RTVSPost2010PropOp40
 70
     1
102
RTVSPost2010Prop41ColorIndex
 90
       18
102
RTVSPost2010Prop41ColorRGB
 90
        0
102
RTVSPost2010PropOp41
 70
     1
102
RTVSPost2010Prop42
 90
       50
102
RTVSPost2010PropOp42
 70
     1
102
RTVSPost2010Prop43
 90
        3
102
RTVSPost2010PropOp43
 70
     1
102
RTVSPost2010Prop44ColorIndex
 90
        5
102
RTVSPost2010Prop44ColorRGB
 90
      255
102
RTVSPost2010PropOp44
 70
     1
102
RTVSPost2010Prop45
280
     0
102
RTVSPost2010PropOp45
 70
     1
102
RTVSPost2010Prop46
 90
       50
102
RTVSPost2010PropOp46
 70
     1
102
RTVSPost2010Prop47
 90
       50
102
RTVSPost2010PropOp47
 70
     1
102
RTVSPost2010Prop48
 90
       50
102
RTVSPost2010PropOp48
 70
     1
102
RTVSPost2010Prop49
280
     0
102
RTVSPost2010PropOp49
 70
     1
102
RTVSPost2010Prop50
 90
       50
102
RTVSPost2010PropOp50
 70
     1
102
RTVSPost2010Prop51ColorIndex
 90
      256
102
RTVSPost2010Prop51ColorRGB
 90
-16777216
102
RTVSPost2010PropOp51
 70
     0
102
RTVSPost2010Prop52
140
1.0
102
RTVSPost2010PropOp52
 70
     0
102
RTVSPost2010Prop53
 90
        2
102
RTVSPost2010PropOp53
 70
     1
102
RTVSPost2010Prop54
  1
strokes_ogs.tif
102
RTVSPost2010PropOp54
 70
     1
102
RTVSPost2010Prop55
280
     0
102
RTVSPost2010PropOp55
 70
     1
102
RTVSPost2010Prop56
140
1.0
102
RTVSPost2010PropOp56
 70
     1
102
RTVSPost2010Prop57
140
1.0
102
RTVSPost2010PropOp57
 70
     1
  0
XRECORD
  5
1339C
102
{ACAD_REACTORS
330
1339B
102
}
330
1339B
100
AcDbXrecord
280
     1
102
RTVSPost2010Prop28
280
     0
102
RTVSPost2010PropOp28
 70
     1
102
RTVSPost2010Prop29
280
     1
102
RTVSPost2010PropOp29
 70
     1
102
RTVSPost2010Prop30
280
     1
102
RTVSPost2010PropOp30
 70
     1
102
RTVSPost2010Prop31
280
     0
102
RTVSPost2010PropOp31
 70
     1
102
RTVSPost2010Prop32
280
     0
102
RTVSPost2010PropOp32
 70
     1
102
RTVSPost2010Prop33
280
     0
102
RTVSPost2010PropOp33
 70
     1
102
RTVSPost2010Prop34
280
     0
102
RTVSPost2010PropOp34
 70
     1
102
RTVSPost2010Prop35
280
     0
102
RTVSPost2010PropOp35
 70
     1
102
RTVSPost2010Prop36
280
     0
102
RTVSPost2010PropOp36
 70
     1
102
RTVSPost2010Prop37
 90
       50
102
RTVSPost2010PropOp37
 70
     1
102
RTVSPost2010Prop38
140
0.0
102
RTVSPost2010PropOp38
 70
     1
102
RTVSPost2010Prop39
140
1.0
102
RTVSPost2010PropOp39
 70
     1
102
RTVSPost2010Prop40
 90
        0
102
RTVSPost2010PropOp40
 70
     1
102
RTVSPost2010Prop41ColorIndex
 90
       18
102
RTVSPost2010Prop41ColorRGB
 90
        0
102
RTVSPost2010PropOp41
 70
     1
102
RTVSPost2010Prop42
 90
       50
102
RTVSPost2010PropOp42
 70
     1
102
RTVSPost2010Prop43
 90
        3
102
RTVSPost2010PropOp43
 70
     1
102
RTVSPost2010Prop44ColorIndex
 90
        5
102
RTVSPost2010Prop44ColorRGB
 90
      255
102
RTVSPost2010PropOp44
 70
     1
102
RTVSPost2010Prop45
280
     0
102
RTVSPost2010PropOp45
 70
     1
102
RTVSPost2010Prop46
 90
       50
102
RTVSPost2010PropOp46
 70
     1
102
RTVSPost2010Prop47
 90
       50
102
RTVSPost2010PropOp47
 70
     1
102
RTVSPost2010Prop48
 90
       50
102
RTVSPost2010PropOp48
 70
     1
102
RTVSPost2010Prop49
280
     0
102
RTVSPost2010PropOp49
 70
     1
102
RTVSPost2010Prop50
 90
       50
102
RTVSPost2010PropOp50
 70
     1
102
RTVSPost2010Prop51ColorIndex
 90
      256
102
RTVSPost2010Prop51ColorRGB
 90
-16777216
102
RTVSPost2010PropOp51
 70
     0
102
RTVSPost2010Prop52
140
1.0
102
RTVSPost2010PropOp52
 70
     0
102
RTVSPost2010Prop53
 90
        2
102
RTVSPost2010PropOp53
 70
     1
102
RTVSPost2010Prop54
  1
strokes_ogs.tif
102
RTVSPost2010PropOp54
 70
     1
102
RTVSPost2010Prop55
280
     0
102
RTVSPost2010PropOp55
 70
     1
102
RTVSPost2010Prop56
140
1.0
102
RTVSPost2010PropOp56
 70
     1
102
RTVSPost2010Prop57
140
1.0
102
RTVSPost2010PropOp57
 70
     1
  0
XRECORD
  5
133A4
102
{ACAD_REACTORS
330
133A3
102
}
330
133A3
100
AcDbXrecord
280
     1
102
RTVSPost2010Prop28
280
     0
102
RTVSPost2010PropOp28
 70
     1
102
RTVSPost2010Prop29
280
     1
102
RTVSPost2010PropOp29
 70
     1
102
RTVSPost2010Prop30
280
     1
102
RTVSPost2010PropOp30
 70
     1
102
RTVSPost2010Prop31
280
     0
102
RTVSPost2010PropOp31
 70
     1
102
RTVSPost2010Prop32
280
     0
102
RTVSPost2010PropOp32
 70
     1
102
RTVSPost2010Prop33
280
     0
102
RTVSPost2010PropOp33
 70
     1
102
RTVSPost2010Prop34
280
     0
102
RTVSPost2010PropOp34
 70
     1
102
RTVSPost2010Prop35
280
     0
102
RTVSPost2010PropOp35
 70
     1
102
RTVSPost2010Prop36
280
     0
102
RTVSPost2010PropOp36
 70
     1
102
RTVSPost2010Prop37
 90
       50
102
RTVSPost2010PropOp37
 70
     1
102
RTVSPost2010Prop38
140
0.0
102
RTVSPost2010PropOp38
 70
     1
102
RTVSPost2010Prop39
140
1.0
102
RTVSPost2010PropOp39
 70
     1
102
RTVSPost2010Prop40
 90
        0
102
RTVSPost2010PropOp40
 70
     1
102
RTVSPost2010Prop41ColorIndex
 90
       18
102
RTVSPost2010Prop41ColorRGB
 90
        0
102
RTVSPost2010PropOp41
 70
     1
102
RTVSPost2010Prop42
 90
       50
102
RTVSPost2010PropOp42
 70
     1
102
RTVSPost2010Prop43
 90
        3
102
RTVSPost2010PropOp43
 70
     1
102
RTVSPost2010Prop44ColorIndex
 90
        5
102
RTVSPost2010Prop44ColorRGB
 90
      255
102
RTVSPost2010PropOp44
 70
     1
102
RTVSPost2010Prop45
280
     0
102
RTVSPost2010PropOp45
 70
     1
102
RTVSPost2010Prop46
 90
       50
102
RTVSPost2010PropOp46
 70
     1
102
RTVSPost2010Prop47
 90
       50
102
RTVSPost2010PropOp47
 70
     1
102
RTVSPost2010Prop48
 90
       50
102
RTVSPost2010PropOp48
 70
     1
102
RTVSPost2010Prop49
280
     0
102
RTVSPost2010PropOp49
 70
     1
102
RTVSPost2010Prop50
 90
       50
102
RTVSPost2010PropOp50
 70
     1
102
RTVSPost2010Prop51ColorIndex
 90
      256
102
RTVSPost2010Prop51ColorRGB
 90
-16777216
102
RTVSPost2010PropOp51
 70
     0
102
RTVSPost2010Prop52
140
1.0
102
RTVSPost2010PropOp52
 70
     0
102
RTVSPost2010Prop53
 90
        2
102
RTVSPost2010PropOp53
 70
     1
102
RTVSPost2010Prop54
  1
strokes_ogs.tif
102
RTVSPost2010PropOp54
 70
     1
102
RTVSPost2010Prop55
280
     0
102
RTVSPost2010PropOp55
 70
     1
102
RTVSPost2010Prop56
140
1.0
102
RTVSPost2010PropOp56
 70
     1
102
RTVSPost2010Prop57
140
1.0
102
RTVSPost2010PropOp57
 70
     1
  0
XRECORD
  5
13394
102
{ACAD_REACTORS
330
13393
102
}
330
13393
100
AcDbXrecord
280
     1
102
RTVSPost2010Prop28
280
     0
102
RTVSPost2010PropOp28
 70
     1
102
RTVSPost2010Prop29
280
     1
102
RTVSPost2010PropOp29
 70
     1
102
RTVSPost2010Prop30
280
     1
102
RTVSPost2010PropOp30
 70
     1
102
RTVSPost2010Prop31
280
     0
102
RTVSPost2010PropOp31
 70
     1
102
RTVSPost2010Prop32
280
     0
102
RTVSPost2010PropOp32
 70
     1
102
RTVSPost2010Prop33
280
     0
102
RTVSPost2010PropOp33
 70
     1
102
RTVSPost2010Prop34
280
     0
102
RTVSPost2010PropOp34
 70
     1
102
RTVSPost2010Prop35
280
     0
102
RTVSPost2010PropOp35
 70
     1
102
RTVSPost2010Prop36
280
     0
102
RTVSPost2010PropOp36
 70
     1
102
RTVSPost2010Prop37
 90
       50
102
RTVSPost2010PropOp37
 70
     1
102
RTVSPost2010Prop38
140
0.0
102
RTVSPost2010PropOp38
 70
     1
102
RTVSPost2010Prop39
140
1.0
102
RTVSPost2010PropOp39
 70
     1
102
RTVSPost2010Prop40
 90
        0
102
RTVSPost2010PropOp40
 70
     1
102
RTVSPost2010Prop41ColorIndex
 90
       18
102
RTVSPost2010Prop41ColorRGB
 90
        0
102
RTVSPost2010PropOp41
 70
     1
102
RTVSPost2010Prop42
 90
       50
102
RTVSPost2010PropOp42
 70
     1
102
RTVSPost2010Prop43
 90
        3
102
RTVSPost2010PropOp43
 70
     1
102
RTVSPost2010Prop44ColorIndex
 90
        5
102
RTVSPost2010Prop44ColorRGB
 90
      255
102
RTVSPost2010PropOp44
 70
     1
102
RTVSPost2010Prop45
280
     0
102
RTVSPost2010PropOp45
 70
     1
102
RTVSPost2010Prop46
 90
       50
102
RTVSPost2010PropOp46
 70
     1
102
RTVSPost2010Prop47
 90
       50
102
RTVSPost2010PropOp47
 70
     1
102
RTVSPost2010Prop48
 90
       50
102
RTVSPost2010PropOp48
 70
     1
102
RTVSPost2010Prop49
280
     0
102
RTVSPost2010PropOp49
 70
     1
102
RTVSPost2010Prop50
 90
       50
102
RTVSPost2010PropOp50
 70
     1
102
RTVSPost2010Prop51ColorIndex
 90
      256
102
RTVSPost2010Prop51ColorRGB
 90
-16777216
102
RTVSPost2010PropOp51
 70
     0
102
RTVSPost2010Prop52
140
1.0
102
RTVSPost2010PropOp52
 70
     0
102
RTVSPost2010Prop53
 90
        2
102
RTVSPost2010PropOp53
 70
     1
102
RTVSPost2010Prop54
  1
strokes_ogs.tif
102
RTVSPost2010PropOp54
 70
     1
102
RTVSPost2010Prop55
280
     0
102
RTVSPost2010PropOp55
 70
     1
102
RTVSPost2010Prop56
140
1.0
102
RTVSPost2010PropOp56
 70
     1
102
RTVSPost2010Prop57
140
1.0
102
RTVSPost2010PropOp57
 70
     1
  0
XRECORD
  5
133B4
102
{ACAD_REACTORS
330
133B3
102
}
330
133B3
100
AcDbXrecord
280
     1
102
RTVSPost2010Prop28
280
     0
102
RTVSPost2010PropOp28
 70
     1
102
RTVSPost2010Prop29
280
     1
102
RTVSPost2010PropOp29
 70
     1
102
RTVSPost2010Prop30
280
     1
102
RTVSPost2010PropOp30
 70
     1
102
RTVSPost2010Prop31
280
     0
102
RTVSPost2010PropOp31
 70
     1
102
RTVSPost2010Prop32
280
     0
102
RTVSPost2010PropOp32
 70
     1
102
RTVSPost2010Prop33
280
     0
102
RTVSPost2010PropOp33
 70
     1
102
RTVSPost2010Prop34
280
     0
102
RTVSPost2010PropOp34
 70
     1
102
RTVSPost2010Prop35
280
     0
102
RTVSPost2010PropOp35
 70
     1
102
RTVSPost2010Prop36
280
     0
102
RTVSPost2010PropOp36
 70
     1
102
RTVSPost2010Prop37
 90
       50
102
RTVSPost2010PropOp37
 70
     1
102
RTVSPost2010Prop38
140
0.0
102
RTVSPost2010PropOp38
 70
     1
102
RTVSPost2010Prop39
140
1.0
102
RTVSPost2010PropOp39
 70
     1
102
RTVSPost2010Prop40
 90
        0
102
RTVSPost2010PropOp40
 70
     1
102
RTVSPost2010Prop41ColorIndex
 90
       18
102
RTVSPost2010Prop41ColorRGB
 90
        0
102
RTVSPost2010PropOp41
 70
     1
102
RTVSPost2010Prop42
 90
       50
102
RTVSPost2010PropOp42
 70
     1
102
RTVSPost2010Prop43
 90
        3
102
RTVSPost2010PropOp43
 70
     1
102
RTVSPost2010Prop44ColorIndex
 90
        5
102
RTVSPost2010Prop44ColorRGB
 90
      255
102
RTVSPost2010PropOp44
 70
     1
102
RTVSPost2010Prop45
280
     0
102
RTVSPost2010PropOp45
 70
     1
102
RTVSPost2010Prop46
 90
       50
102
RTVSPost2010PropOp46
 70
     1
102
RTVSPost2010Prop47
 90
       50
102
RTVSPost2010PropOp47
 70
     1
102
RTVSPost2010Prop48
 90
       50
102
RTVSPost2010PropOp48
 70
     1
102
RTVSPost2010Prop49
280
     0
102
RTVSPost2010PropOp49
 70
     1
102
RTVSPost2010Prop50
 90
       50
102
RTVSPost2010PropOp50
 70
     1
102
RTVSPost2010Prop51ColorIndex
 90
      256
102
RTVSPost2010Prop51ColorRGB
 90
-16777216
102
RTVSPost2010PropOp51
 70
     0
102
RTVSPost2010Prop52
140
1.0
102
RTVSPost2010PropOp52
 70
     0
102
RTVSPost2010Prop53
 90
        2
102
RTVSPost2010PropOp53
 70
     1
102
RTVSPost2010Prop54
  1
strokes_ogs.tif
102
RTVSPost2010PropOp54
 70
     1
102
RTVSPost2010Prop55
280
     0
102
RTVSPost2010PropOp55
 70
     1
102
RTVSPost2010Prop56
140
1.0
102
RTVSPost2010PropOp56
 70
     1
102
RTVSPost2010Prop57
140
1.0
102
RTVSPost2010PropOp57
 70
     1
  0
XRECORD
  5
133B2
102
{ACAD_REACTORS
330
133B1
102
}
330
133B1
100
AcDbXrecord
280
     1
102
RTVSPost2010Prop28
280
     0
102
RTVSPost2010PropOp28
 70
     1
102
RTVSPost2010Prop29
280
     1
102
RTVSPost2010PropOp29
 70
     1
102
RTVSPost2010Prop30
280
     1
102
RTVSPost2010PropOp30
 70
     1
102
RTVSPost2010Prop31
280
     0
102
RTVSPost2010PropOp31
 70
     1
102
RTVSPost2010Prop32
280
     0
102
RTVSPost2010PropOp32
 70
     1
102
RTVSPost2010Prop33
280
     0
102
RTVSPost2010PropOp33
 70
     1
102
RTVSPost2010Prop34
280
     0
102
RTVSPost2010PropOp34
 70
     1
102
RTVSPost2010Prop35
280
     0
102
RTVSPost2010PropOp35
 70
     1
102
RTVSPost2010Prop36
280
     0
102
RTVSPost2010PropOp36
 70
     1
102
RTVSPost2010Prop37
 90
       50
102
RTVSPost2010PropOp37
 70
     1
102
RTVSPost2010Prop38
140
0.0
102
RTVSPost2010PropOp38
 70
     1
102
RTVSPost2010Prop39
140
1.0
102
RTVSPost2010PropOp39
 70
     1
102
RTVSPost2010Prop40
 90
        0
102
RTVSPost2010PropOp40
 70
     1
102
RTVSPost2010Prop41ColorIndex
 90
       18
102
RTVSPost2010Prop41ColorRGB
 90
        0
102
RTVSPost2010PropOp41
 70
     1
102
RTVSPost2010Prop42
 90
       50
102
RTVSPost2010PropOp42
 70
     1
102
RTVSPost2010Prop43
 90
        3
102
RTVSPost2010PropOp43
 70
     1
102
RTVSPost2010Prop44ColorIndex
 90
        5
102
RTVSPost2010Prop44ColorRGB
 90
      255
102
RTVSPost2010PropOp44
 70
     1
102
RTVSPost2010Prop45
280
     0
102
RTVSPost2010PropOp45
 70
     1
102
RTVSPost2010Prop46
 90
       50
102
RTVSPost2010PropOp46
 70
     1
102
RTVSPost2010Prop47
 90
       50
102
RTVSPost2010PropOp47
 70
     1
102
RTVSPost2010Prop48
 90
       50
102
RTVSPost2010PropOp48
 70
     1
102
RTVSPost2010Prop49
280
     0
102
RTVSPost2010PropOp49
 70
     1
102
RTVSPost2010Prop50
 90
       50
102
RTVSPost2010PropOp50
 70
     1
102
RTVSPost2010Prop51ColorIndex
 90
      256
102
RTVSPost2010Prop51ColorRGB
 90
-16777216
102
RTVSPost2010PropOp51
 70
     0
102
RTVSPost2010Prop52
140
1.0
102
RTVSPost2010PropOp52
 70
     0
102
RTVSPost2010Prop53
 90
        2
102
RTVSPost2010PropOp53
 70
     1
102
RTVSPost2010Prop54
  1
strokes_ogs.tif
102
RTVSPost2010PropOp54
 70
     1
102
RTVSPost2010Prop55
280
     0
102
RTVSPost2010PropOp55
 70
     1
102
RTVSPost2010Prop56
140
1.0
102
RTVSPost2010PropOp56
 70
     1
102
RTVSPost2010Prop57
140
1.0
102
RTVSPost2010PropOp57
 70
     1
  0
XRECORD
  5
133AC
102
{ACAD_REACTORS
330
133AB
102
}
330
133AB
100
AcDbXrecord
280
     1
102
RTVSPost2010Prop28
280
     0
102
RTVSPost2010PropOp28
 70
     1
102
RTVSPost2010Prop29
280
     1
102
RTVSPost2010PropOp29
 70
     1
102
RTVSPost2010Prop30
280
     1
102
RTVSPost2010PropOp30
 70
     1
102
RTVSPost2010Prop31
280
     0
102
RTVSPost2010PropOp31
 70
     1
102
RTVSPost2010Prop32
280
     0
102
RTVSPost2010PropOp32
 70
     1
102
RTVSPost2010Prop33
280
     0
102
RTVSPost2010PropOp33
 70
     1
102
RTVSPost2010Prop34
280
     0
102
RTVSPost2010PropOp34
 70
     1
102
RTVSPost2010Prop35
280
     0
102
RTVSPost2010PropOp35
 70
     1
102
RTVSPost2010Prop36
280
     0
102
RTVSPost2010PropOp36
 70
     1
102
RTVSPost2010Prop37
 90
       50
102
RTVSPost2010PropOp37
 70
     1
102
RTVSPost2010Prop38
140
0.0
102
RTVSPost2010PropOp38
 70
     1
102
RTVSPost2010Prop39
140
1.0
102
RTVSPost2010PropOp39
 70
     1
102
RTVSPost2010Prop40
 90
        0
102
RTVSPost2010PropOp40
 70
     1
102
RTVSPost2010Prop41ColorIndex
 90
       18
102
RTVSPost2010Prop41ColorRGB
 90
        0
102
RTVSPost2010PropOp41
 70
     1
102
RTVSPost2010Prop42
 90
       50
102
RTVSPost2010PropOp42
 70
     1
102
RTVSPost2010Prop43
 90
        3
102
RTVSPost2010PropOp43
 70
     1
102
RTVSPost2010Prop44ColorIndex
 90
        5
102
RTVSPost2010Prop44ColorRGB
 90
      255
102
RTVSPost2010PropOp44
 70
     1
102
RTVSPost2010Prop45
280
     0
102
RTVSPost2010PropOp45
 70
     1
102
RTVSPost2010Prop46
 90
       50
102
RTVSPost2010PropOp46
 70
     1
102
RTVSPost2010Prop47
 90
       50
102
RTVSPost2010PropOp47
 70
     1
102
RTVSPost2010Prop48
 90
       50
102
RTVSPost2010PropOp48
 70
     1
102
RTVSPost2010Prop49
280
     0
102
RTVSPost2010PropOp49
 70
     1
102
RTVSPost2010Prop50
 90
       50
102
RTVSPost2010PropOp50
 70
     1
102
RTVSPost2010Prop51ColorIndex
 90
      256
102
RTVSPost2010Prop51ColorRGB
 90
-16777216
102
RTVSPost2010PropOp51
 70
     0
102
RTVSPost2010Prop52
140
1.0
102
RTVSPost2010PropOp52
 70
     0
102
RTVSPost2010Prop53
 90
        2
102
RTVSPost2010PropOp53
 70
     1
102
RTVSPost2010Prop54
  1
strokes_ogs.tif
102
RTVSPost2010PropOp54
 70
     1
102
RTVSPost2010Prop55
280
     0
102
RTVSPost2010PropOp55
 70
     1
102
RTVSPost2010Prop56
140
1.0
102
RTVSPost2010PropOp56
 70
     1
102
RTVSPost2010Prop57
140
1.0
102
RTVSPost2010PropOp57
 70
     1
  0
XRECORD
  5
133AE
102
{ACAD_REACTORS
330
133AD
102
}
330
133AD
100
AcDbXrecord
280
     1
102
RTVSPost2010Prop28
280
     0
102
RTVSPost2010PropOp28
 70
     1
102
RTVSPost2010Prop29
280
     1
102
RTVSPost2010PropOp29
 70
     1
102
RTVSPost2010Prop30
280
     1
102
RTVSPost2010PropOp30
 70
     1
102
RTVSPost2010Prop31
280
     0
102
RTVSPost2010PropOp31
 70
     1
102
RTVSPost2010Prop32
280
     0
102
RTVSPost2010PropOp32
 70
     1
102
RTVSPost2010Prop33
280
     0
102
RTVSPost2010PropOp33
 70
     1
102
RTVSPost2010Prop34
280
     0
102
RTVSPost2010PropOp34
 70
     1
102
RTVSPost2010Prop35
280
     0
102
RTVSPost2010PropOp35
 70
     1
102
RTVSPost2010Prop36
280
     0
102
RTVSPost2010PropOp36
 70
     1
102
RTVSPost2010Prop37
 90
       50
102
RTVSPost2010PropOp37
 70
     1
102
RTVSPost2010Prop38
140
0.0
102
RTVSPost2010PropOp38
 70
     1
102
RTVSPost2010Prop39
140
1.0
102
RTVSPost2010PropOp39
 70
     1
102
RTVSPost2010Prop40
 90
        0
102
RTVSPost2010PropOp40
 70
     1
102
RTVSPost2010Prop41ColorIndex
 90
       18
102
RTVSPost2010Prop41ColorRGB
 90
        0
102
RTVSPost2010PropOp41
 70
     1
102
RTVSPost2010Prop42
 90
       50
102
RTVSPost2010PropOp42
 70
     1
102
RTVSPost2010Prop43
 90
        3
102
RTVSPost2010PropOp43
 70
     1
102
RTVSPost2010Prop44ColorIndex
 90
        5
102
RTVSPost2010Prop44ColorRGB
 90
      255
102
RTVSPost2010PropOp44
 70
     1
102
RTVSPost2010Prop45
280
     0
102
RTVSPost2010PropOp45
 70
     1
102
RTVSPost2010Prop46
 90
       50
102
RTVSPost2010PropOp46
 70
     1
102
RTVSPost2010Prop47
 90
       50
102
RTVSPost2010PropOp47
 70
     1
102
RTVSPost2010Prop48
 90
       50
102
RTVSPost2010PropOp48
 70
     1
102
RTVSPost2010Prop49
280
     0
102
RTVSPost2010PropOp49
 70
     1
102
RTVSPost2010Prop50
 90
       50
102
RTVSPost2010PropOp50
 70
     1
102
RTVSPost2010Prop51ColorIndex
 90
      256
102
RTVSPost2010Prop51ColorRGB
 90
-16777216
102
RTVSPost2010PropOp51
 70
     0
102
RTVSPost2010Prop52
140
1.0
102
RTVSPost2010PropOp52
 70
     0
102
RTVSPost2010Prop53
 90
        2
102
RTVSPost2010PropOp53
 70
     1
102
RTVSPost2010Prop54
  1
strokes_ogs.tif
102
RTVSPost2010PropOp54
 70
     1
102
RTVSPost2010Prop55
280
     0
102
RTVSPost2010PropOp55
 70
     1
102
RTVSPost2010Prop56
140
1.0
102
RTVSPost2010PropOp56
 70
     1
102
RTVSPost2010Prop57
140
1.0
102
RTVSPost2010PropOp57
 70
     1
  0
XRECORD
  5
1339A
102
{ACAD_REACTORS
330
13399
102
}
330
13399
100
AcDbXrecord
280
     1
102
RTVSPost2010Prop28
280
     0
102
RTVSPost2010PropOp28
 70
     1
102
RTVSPost2010Prop29
280
     1
102
RTVSPost2010PropOp29
 70
     1
102
RTVSPost2010Prop30
280
     1
102
RTVSPost2010PropOp30
 70
     1
102
RTVSPost2010Prop31
280
     0
102
RTVSPost2010PropOp31
 70
     1
102
RTVSPost2010Prop32
280
     0
102
RTVSPost2010PropOp32
 70
     1
102
RTVSPost2010Prop33
280
     0
102
RTVSPost2010PropOp33
 70
     1
102
RTVSPost2010Prop34
280
     0
102
RTVSPost2010PropOp34
 70
     1
102
RTVSPost2010Prop35
280
     0
102
RTVSPost2010PropOp35
 70
     1
102
RTVSPost2010Prop36
280
     0
102
RTVSPost2010PropOp36
 70
     1
102
RTVSPost2010Prop37
 90
       50
102
RTVSPost2010PropOp37
 70
     1
102
RTVSPost2010Prop38
140
0.0
102
RTVSPost2010PropOp38
 70
     1
102
RTVSPost2010Prop39
140
1.0
102
RTVSPost2010PropOp39
 70
     1
102
RTVSPost2010Prop40
 90
        0
102
RTVSPost2010PropOp40
 70
     1
102
RTVSPost2010Prop41ColorIndex
 90
       18
102
RTVSPost2010Prop41ColorRGB
 90
        0
102
RTVSPost2010PropOp41
 70
     1
102
RTVSPost2010Prop42
 90
       50
102
RTVSPost2010PropOp42
 70
     1
102
RTVSPost2010Prop43
 90
        3
102
RTVSPost2010PropOp43
 70
     1
102
RTVSPost2010Prop44ColorIndex
 90
        5
102
RTVSPost2010Prop44ColorRGB
 90
      255
102
RTVSPost2010PropOp44
 70
     1
102
RTVSPost2010Prop45
280
     0
102
RTVSPost2010PropOp45
 70
     1
102
RTVSPost2010Prop46
 90
       50
102
RTVSPost2010PropOp46
 70
     1
102
RTVSPost2010Prop47
 90
       50
102
RTVSPost2010PropOp47
 70
     1
102
RTVSPost2010Prop48
 90
       50
102
RTVSPost2010PropOp48
 70
     1
102
RTVSPost2010Prop49
280
     0
102
RTVSPost2010PropOp49
 70
     1
102
RTVSPost2010Prop50
 90
       50
102
RTVSPost2010PropOp50
 70
     1
102
RTVSPost2010Prop51ColorIndex
 90
      256
102
RTVSPost2010Prop51ColorRGB
 90
-16777216
102
RTVSPost2010PropOp51
 70
     0
102
RTVSPost2010Prop52
140
1.0
102
RTVSPost2010PropOp52
 70
     0
102
RTVSPost2010Prop53
 90
        2
102
RTVSPost2010PropOp53
 70
     1
102
RTVSPost2010Prop54
  1
strokes_ogs.tif
102
RTVSPost2010PropOp54
 70
     1
102
RTVSPost2010Prop55
280
     0
102
RTVSPost2010PropOp55
 70
     1
102
RTVSPost2010Prop56
140
1.0
102
RTVSPost2010PropOp56
 70
     1
102
RTVSPost2010Prop57
140
1.0
102
RTVSPost2010PropOp57
 70
     1
  0
XRECORD
  5
133A8
102
{ACAD_REACTORS
330
133A7
102
}
330
133A7
100
AcDbXrecord
280
     1
102
RTVSPost2010Prop28
280
     0
102
RTVSPost2010PropOp28
 70
     1
102
RTVSPost2010Prop29
280
     1
102
RTVSPost2010PropOp29
 70
     1
102
RTVSPost2010Prop30
280
     1
102
RTVSPost2010PropOp30
 70
     1
102
RTVSPost2010Prop31
280
     0
102
RTVSPost2010PropOp31
 70
     1
102
RTVSPost2010Prop32
280
     0
102
RTVSPost2010PropOp32
 70
     1
102
RTVSPost2010Prop33
280
     0
102
RTVSPost2010PropOp33
 70
     1
102
RTVSPost2010Prop34
280
     0
102
RTVSPost2010PropOp34
 70
     1
102
RTVSPost2010Prop35
280
     0
102
RTVSPost2010PropOp35
 70
     1
102
RTVSPost2010Prop36
280
     0
102
RTVSPost2010PropOp36
 70
     1
102
RTVSPost2010Prop37
 90
       50
102
RTVSPost2010PropOp37
 70
     1
102
RTVSPost2010Prop38
140
0.0
102
RTVSPost2010PropOp38
 70
     1
102
RTVSPost2010Prop39
140
1.0
102
RTVSPost2010PropOp39
 70
     1
102
RTVSPost2010Prop40
 90
        0
102
RTVSPost2010PropOp40
 70
     1
102
RTVSPost2010Prop41ColorIndex
 90
       18
102
RTVSPost2010Prop41ColorRGB
 90
        0
102
RTVSPost2010PropOp41
 70
     1
102
RTVSPost2010Prop42
 90
       50
102
RTVSPost2010PropOp42
 70
     1
102
RTVSPost2010Prop43
 90
        3
102
RTVSPost2010PropOp43
 70
     1
102
RTVSPost2010Prop44ColorIndex
 90
        5
102
RTVSPost2010Prop44ColorRGB
 90
      255
102
RTVSPost2010PropOp44
 70
     1
102
RTVSPost2010Prop45
280
     0
102
RTVSPost2010PropOp45
 70
     1
102
RTVSPost2010Prop46
 90
       50
102
RTVSPost2010PropOp46
 70
     1
102
RTVSPost2010Prop47
 90
       50
102
RTVSPost2010PropOp47
 70
     1
102
RTVSPost2010Prop48
 90
       50
102
RTVSPost2010PropOp48
 70
     1
102
RTVSPost2010Prop49
280
     0
102
RTVSPost2010PropOp49
 70
     1
102
RTVSPost2010Prop50
 90
       50
102
RTVSPost2010PropOp50
 70
     1
102
RTVSPost2010Prop51ColorIndex
 90
      256
102
RTVSPost2010Prop51ColorRGB
 90
-16777216
102
RTVSPost2010PropOp51
 70
     0
102
RTVSPost2010Prop52
140
1.0
102
RTVSPost2010PropOp52
 70
     0
102
RTVSPost2010Prop53
 90
        2
102
RTVSPost2010PropOp53
 70
     1
102
RTVSPost2010Prop54
  1
strokes_ogs.tif
102
RTVSPost2010PropOp54
 70
     1
102
RTVSPost2010Prop55
280
     0
102
RTVSPost2010PropOp55
 70
     1
102
RTVSPost2010Prop56
140
1.0
102
RTVSPost2010PropOp56
 70
     1
102
RTVSPost2010Prop57
140
1.0
102
RTVSPost2010PropOp57
 70
     1
  0
XRECORD
  5
133B0
102
{ACAD_REACTORS
330
133AF
102
}
330
133AF
100
AcDbXrecord
280
     1
102
RTVSPost2010Prop28
280
     0
102
RTVSPost2010PropOp28
 70
     1
102
RTVSPost2010Prop29
280
     1
102
RTVSPost2010PropOp29
 70
     1
102
RTVSPost2010Prop30
280
     1
102
RTVSPost2010PropOp30
 70
     1
102
RTVSPost2010Prop31
280
     0
102
RTVSPost2010PropOp31
 70
     1
102
RTVSPost2010Prop32
280
     0
102
RTVSPost2010PropOp32
 70
     1
102
RTVSPost2010Prop33
280
     0
102
RTVSPost2010PropOp33
 70
     1
102
RTVSPost2010Prop34
280
     0
102
RTVSPost2010PropOp34
 70
     1
102
RTVSPost2010Prop35
280
     0
102
RTVSPost2010PropOp35
 70
     1
102
RTVSPost2010Prop36
280
     0
102
RTVSPost2010PropOp36
 70
     1
102
RTVSPost2010Prop37
 90
       50
102
RTVSPost2010PropOp37
 70
     1
102
RTVSPost2010Prop38
140
0.0
102
RTVSPost2010PropOp38
 70
     1
102
RTVSPost2010Prop39
140
1.0
102
RTVSPost2010PropOp39
 70
     1
102
RTVSPost2010Prop40
 90
        0
102
RTVSPost2010PropOp40
 70
     1
102
RTVSPost2010Prop41ColorIndex
 90
       18
102
RTVSPost2010Prop41ColorRGB
 90
        0
102
RTVSPost2010PropOp41
 70
     1
102
RTVSPost2010Prop42
 90
       50
102
RTVSPost2010PropOp42
 70
     1
102
RTVSPost2010Prop43
 90
        3
102
RTVSPost2010PropOp43
 70
     1
102
RTVSPost2010Prop44ColorIndex
 90
        5
102
RTVSPost2010Prop44ColorRGB
 90
      255
102
RTVSPost2010PropOp44
 70
     1
102
RTVSPost2010Prop45
280
     0
102
RTVSPost2010PropOp45
 70
     1
102
RTVSPost2010Prop46
 90
       50
102
RTVSPost2010PropOp46
 70
     1
102
RTVSPost2010Prop47
 90
       50
102
RTVSPost2010PropOp47
 70
     1
102
RTVSPost2010Prop48
 90
       50
102
RTVSPost2010PropOp48
 70
     1
102
RTVSPost2010Prop49
280
     0
102
RTVSPost2010PropOp49
 70
     1
102
RTVSPost2010Prop50
 90
       50
102
RTVSPost2010PropOp50
 70
     1
102
RTVSPost2010Prop51ColorIndex
 90
      256
102
RTVSPost2010Prop51ColorRGB
 90
-16777216
102
RTVSPost2010PropOp51
 70
     0
102
RTVSPost2010Prop52
140
1.0
102
RTVSPost2010PropOp52
 70
     0
102
RTVSPost2010Prop53
 90
        2
102
RTVSPost2010PropOp53
 70
     1
102
RTVSPost2010Prop54
  1
strokes_ogs.tif
102
RTVSPost2010PropOp54
 70
     1
102
RTVSPost2010Prop55
280
     0
102
RTVSPost2010PropOp55
 70
     1
102
RTVSPost2010Prop56
140
1.0
102
RTVSPost2010PropOp56
 70
     1
102
RTVSPost2010Prop57
140
1.0
102
RTVSPost2010PropOp57
 70
     1
  0
ENDSEC
  0
EOF
